osu file format v14

[General]
AudioFilename: audio.mp3
AudioLeadIn: 0
PreviewTime: 112551
Countdown: 0
SampleSet: Soft
StackLeniency: 0.7
Mode: 0
LetterboxInBreaks: 0
WidescreenStoryboard: 0

[Editor]
Bookmarks: 5466,15679,25413,25891,36104,46317,56530,66742,76955,87168,92274,102487,112700,122913,133125,143338,153551,165040,175253,185466,195679,205891
DistanceSpacing: 0.5
BeatDivisor: 4
GridSize: 4
TimelineZoom: 1.9

[Metadata]
Title:Uso no Hibana
TitleUnicode:嘘の火花
Artist:96neko
ArtistUnicode:96猫
Creator:Yasaija 714
Version:Collab Insane
Source:クズの本懐
Tags:kuzu no honkai opening full size Akanya Regraz DreaM117er _kotachi_ SnowNiNo_
BeatmapID:1222417
BeatmapSetID:569503

[Difficulty]
HPDrainRate:6
CircleSize:4
OverallDifficulty:8
ApproachRate:9
SliderMultiplier:1.6
SliderTickRate:1

[Events]
//Background and Video events
0,0,"BG.jpg",0,0
//Break Periods
2,165330,172190
//Storyboard Layer 0 (Background)
//Storyboard Layer 1 (Fail)
//Storyboard Layer 2 (Pass)
//Storyboard Layer 3 (Foreground)
//Storyboard Sound Samples

[TimingPoints]
450,319.148936170213,4,2,1,40,1,0
450,-200,4,2,1,40,0,0
2524,-133.333333333333,4,2,1,40,0,0
3003,-200,4,2,1,40,0,0
4120,-100,4,2,1,40,0,0
4279,-100,4,2,1,50,0,0
5556,-100,4,2,1,60,0,0
13455,-100,4,2,1,10,0,0
13535,-100,4,2,1,60,0,0
15769,-133.333333333333,4,2,1,40,0,0
24705,-100,4,2,1,50,0,0
25981,-100,4,2,1,60,0,0
35077,-133.333333333333,4,2,1,30,0,0
35556,-100,4,2,1,50,0,0
36194,-90.9090909090909,4,2,1,80,0,1
45130,-100,4,2,1,60,0,0
46407,-86.9565217391304,4,2,1,80,0,1
56620,-133.333333333333,4,2,1,50,0,0
64279,-100,4,2,1,50,0,0
66832,-90.9090909090909,4,2,1,70,0,1
77045,-133.333333333333,4,2,1,50,0,0
78003,-100,4,2,1,50,0,0
78242,-100,4,2,1,5,0,0
78322,-133.333333333333,4,2,1,50,0,0
80556,-100,4,2,1,50,0,0
80875,-133.333333333333,4,2,1,50,0,0
85822,-100,4,2,1,50,0,0
87258,-133.333333333333,4,2,1,30,0,0
91088,-100,4,2,1,50,0,0
92364,-100,4,2,1,50,0,0
102577,-100,4,2,1,60,0,0
111513,-200,4,2,1,40,0,0
112152,-100,4,2,1,60,0,0
112790,-83.3333333333333,4,2,1,80,0,1
121726,-100,4,2,1,80,0,0
123003,-83.3333333333333,4,2,1,80,0,1
133215,-133.333333333333,4,2,1,50,0,0
140875,-100,4,2,1,60,0,0
143428,-100,4,2,1,70,0,0
153641,-100,4,2,1,50,0,0
163854,-100,4,2,1,50,0,0
164492,-100,4,2,1,60,0,0
164811,-100,4,2,1,70,0,0
165130,-100,4,2,1,35,0,0
172790,-100,4,2,1,60,0,0
174067,-100,4,2,1,40,0,0
175343,-83.3333333333333,4,2,1,90,0,1
185556,-133.333333333333,4,2,1,50,0,0
193215,-100,4,2,1,60,0,0
195769,-90.9090909090909,4,2,1,80,0,1
205981,-133.333333333333,4,2,1,50,0,0
211088,-117.647058823529,4,2,1,50,0,0
215396,-100,4,2,1,50,0,0
216035,-133.333333333333,4,2,1,50,0,0
216513,-133.333333333333,4,2,1,10,0,0

[Colours]
Combo1 : 255,255,121
Combo2 : 247,185,255
Combo3 : 255,185,185
Combo4 : 166,166,255

[HitObjects]
186,83,450,6,0,P|194:126|186:161,1,80,2|0,0:0|0:0,0:0:0:0:
344,184,928,2,0,P|303:169|277:145,1,80,2|0,0:0|0:0,0:0:0:0:
177,276,1407,2,0,P|210:247|244:237,1,80,2|0,0:0|0:0,0:0:0:0:
97,302,1886,2,0,P|99:259|105:248,1,40
40,361,2205,2,0,P|11:329|8:317,1,40,2|0,0:0|0:0,0:0:0:0:
27,214,2524,6,0,P|31:182|23:130,2,60.0000022888184,8|4|4,0:3|0:3|0:3,0:0:0:0:
132,156,3003,6,0,P|172:164|224:148,1,80,2|0,0:0|0:0,0:0:0:0:
211,20,3481,2,0,P|184:50|171:103,1,80,2|0,0:0|0:0,0:0:0:0:
300,88,3960,1,0,3:0:0:0:
300,88,4039,1,0,3:0:0:0:
300,88,4120,2,0,L|256:93,1,40,8|0,3:2|0:0,0:0:0:0:
209,155,4279,6,0,L|221:253,1,80,0|8,0:0|0:0,0:0:0:0:
202,311,4519,1,8,0:0:0:0:
231,312,4598,1,0,0:0:0:0:
259,301,4678,1,0,0:0:0:0:
280,280,4758,1,8,0:0:0:0:
291,252,4838,1,8,0:0:0:0:
295,223,4918,2,0,L|344:224,3,40,0|0|8|8,0:0|0:0|0:0|0:0,0:0:0:0:
441,294,5237,2,8,L|392:295,1,40
400,169,5396,2,8,L|449:170,1,40
440,44,5556,6,0,B|328:44,1,80,4|0,0:0|0:0,0:0:0:0:
216,88,5875,2,0,P|206:49|208:9,1,80,8|0,0:0|0:0,0:0:0:0:
288,192,6194,2,0,P|296:272|264:348,1,160,2|8,0:0|0:0,0:0:0:0:
266,344,6673,1,2,0:0:0:0:
160,304,6832,6,0,L|72:320,1,80,0|2,0:0|0:0,0:0:0:0:
24,224,7152,2,0,P|104:232|184:192,1,160,8|2,0:0|0:0,0:0:0:0:
192,104,7630,1,0,0:0:0:0:
120,36,7790,2,0,L|32:52,1,80,8|0,0:0|0:0,0:0:0:0:
228,12,8109,5,2,0:0:0:0:
192,104,8269,1,0,0:0:0:0:
276,156,8428,1,8,0:0:0:0:
228,12,8588,1,2,0:0:0:0:
108,104,8747,2,0,L|132:184,1,80,2|0,0:0|0:0,0:0:0:0:
298,232,9067,2,0,L|275:155,1,80,8|0,0:0|0:0,0:0:0:0:
148,284,9386,6,0,P|200:272|248:276,2,80,2|0|8,0:0|0:0|0:0,0:0:0:0:
96,364,9864,1,0,0:0:0:0:
40,240,10024,1,2,0:0:0:0:
40,240,10184,1,2,0:0:0:0:
130,180,10343,2,0,P|132:136|142:92,1,80,8|0,0:0|0:0,0:0:0:0:
248,28,10662,6,0,B|288:32|288:32|340:28,1,80,2|0,0:0|0:0,0:0:0:0:
472,28,10981,2,0,L|460:116,1,80,8|0,0:0|0:0,0:0:0:0:
268,176,11301,2,0,P|368:164|440:196,1,160,2|8,0:0|0:0,0:0:0:0:
468,256,11779,1,0,0:0:0:0:
348,328,11939,6,0,L|268:320,1,80,2|0,0:0|0:0,0:0:0:0:
172,344,12258,2,0,B|160:296|192:252|192:252|164:224|168:176,1,160,8|2,0:0|0:0,0:0:0:0:
200,80,12737,1,0,0:0:0:0:
268,260,12896,2,0,P|216:264|172:232,1,80,8|0,0:0|0:0,0:0:0:0:
82,156,13215,6,0,B|74:240|74:240|82:292,1,120,6|0,0:0|0:0,0:0:0:0:
94,324,13535,2,0,L|190:348,1,80,8|0,0:0|0:0,0:0:0:0:
268,260,13854,1,2,0:0:0:0:
328,368,14013,1,2,0:0:0:0:
344,208,14173,1,8,0:0:0:0:
268,304,14332,1,2,0:0:0:0:
432,288,14492,6,0,P|464:204|436:128,1,160,12|8,0:0|0:0,0:0:0:0:
328,92,14971,1,0,0:0:0:0:
324,104,15051,1,0,0:0:0:0:
320,116,15130,1,8,0:0:0:0:
204,172,15290,1,0,0:0:0:0:
208,184,15370,1,0,0:0:0:0:
212,196,15450,2,0,L|220:156,1,40,8|0,0:0|0:0,0:0:0:0:
316,128,15609,2,0,L|324:180,1,40,8|0,0:0|0:0,0:0:0:0:
252,280,15769,6,0,P|196:288|130:244,1,120.000004577637,4|2,0:3|0:0,0:0:0:0:
126,166,16247,1,4,0:3:0:0:
126,166,16407,2,0,P|127:137|118:93,1,60.0000022888184
25,81,16726,2,0,P|24:110|33:154,1,60.0000022888184,2|0,0:0|0:0,0:0:0:0:
37,246,17045,1,4,0:3:0:0:
37,246,17205,6,0,B|83:238|83:238|115:248|115:248|175:238,1,120.000004577637,0|4,0:0|0:3,0:0:0:0:
203,160,17684,2,0,P|204:131|195:87,1,60.0000022888184
119,43,18003,1,2,0:0:0:0:
119,43,18162,1,0,0:0:0:0:
34,92,18322,6,0,P|52:162|108:196,1,120.000004577637,4|2,0:3|0:0,0:0:0:0:
180,178,18801,1,4,0:3:0:0:
180,277,18960,2,0,P|147:272|114:249,1,60.0000022888184
180,178,19279,2,0,P|212:182|245:205,1,60.0000022888184,2|0,0:0|0:0,0:0:0:0:
277,294,19598,5,4,0:3:0:0:
277,294,19758,2,0,B|301:326|301:326|395:328,1,120.000004577637,0|4,0:0|0:3,0:0:0:0:
450,269,20237,2,0,P|423:248|386:237,1,60.0000022888184
309,202,20556,2,0,P|307:161|323:122,1,60.0000022888184,2|0,0:0|0:0,0:0:0:0:
334,54,20875,6,0,B|272:37|278:85|198:55,1,120.000004577637,4|2,0:3|0:0,0:0:0:0:
129,36,21354,1,4,0:3:0:0:
129,36,21513,2,0,P|125:73|138:106,1,60.0000022888184
203,205,21832,2,0,P|207:168|194:135,1,60.0000022888184,2|0,0:0|0:0,0:0:0:0:
113,182,22152,5,4,0:3:0:0:
113,182,22311,2,0,P|109:219|122:252,1,60.0000022888184,0|2,0:0|0:0,0:0:0:0:
188,298,22630,2,0,P|134:331|60:316,1,120.000004577637,4|0,0:3|0:0,0:0:0:0:
25,248,23109,2,0,P|17:219|22:189,1,60.0000022888184,0|2,0:0|0:0,0:0:0:0:
62,110,23428,5,4,0:3:0:0:
62,110,23588,2,0,L|0:105,2,60.0000022888184,0|2|4,0:0|0:0|0:3,0:0:0:0:
113,182,24067,1,0,0:0:0:0:
113,182,24227,2,0,L|175:177,2,60.0000022888184,0|2|0,0:0|0:0|0:0,0:0:0:0:
145,46,24705,6,0,L|148:87,2,40,8|8|8,0:0|0:0|0:0,0:0:0:0:
268,139,25024,1,0,0:0:0:0:
229,19,25184,6,0,L|232:60,2,40,8|8|8,0:0|0:0|0:0,0:0:0:0:
352,112,25503,1,0,0:0:0:0:
383,35,25662,5,8,0:0:0:0:
408,51,25741,1,8,0:0:0:0:
426,74,25822,2,8,P|436:121|434:144,1,40
372,200,25981,6,0,L|384:284,1,80,4|0,0:0|0:0,0:0:0:0:
383,279,26301,1,10,0:0:0:0:
472,224,26460,1,0,0:0:0:0:
344,180,26620,2,0,P|304:172|256:184,1,80,2|0,0:0|0:0,0:0:0:0:
192,324,26939,2,0,P|200:284|188:235,1,80,10|0,0:0|0:0,0:0:0:0:
0,188,27258,6,0,P|76:172|132:188,1,120
164,160,27577,2,0,P|156:120|168:71,1,80,8|0,0:0|0:0,0:0:0:0:
280,24,27896,1,0,0:0:0:0:
266,179,28056,1,0,0:0:0:0:
344,72,28215,2,0,L|372:160,1,80,8|0,0:0|0:0,0:0:0:0:
344,288,28535,5,0,0:0:0:0:
460,239,28694,2,0,L|484:162,1,80,0|10,0:0|0:0,0:0:0:0:
484,163,29013,1,0,0:0:0:0:
368,148,29173,2,0,P|320:152|280:144,1,80,2|0,0:0|0:0,0:0:0:0:
188,80,29492,2,0,P|140:76|100:84,1,80,10|0,0:0|0:0,0:0:0:0:
36,196,29811,6,0,B|24:276|24:276|36:360,1,160,0|8,0:0|0:0,0:0:0:0:
128,276,30290,1,0,0:0:0:0:
128,276,30450,2,0,P|180:268|216:276,1,80
292,356,30769,1,8,0:0:0:0:
206,272,30928,1,0,0:0:0:0:
356,288,31088,5,2,0:0:0:0:
204,188,31247,2,0,L|192:104,1,80,0|10,0:0|0:0,0:0:0:0:
304,164,31567,2,0,P|384:164|440:108,1,160
344,64,32045,1,10,0:0:0:0:
200,72,32205,6,0,B|162:149|228:148|200:248,1,160
136,328,32684,1,8,0:0:0:0:
0,240,32843,2,0,L|88:216,1,80
204,227,33162,1,2,0:0:0:0:
80,144,33322,1,8,0:0:0:0:
136,328,33481,1,2,0:0:0:0:
224,152,33641,6,0,P|292:144|372:208,1,160,2|8,0:0|0:0,0:0:0:0:
364,193,34120,1,0,0:0:0:0:
280,384,34279,2,0,B|288:320|288:320|276:296|276:296|280:228,1,160,2|8,0:0|0:0,0:0:0:0:
370,114,34758,2,0,L|362:226,1,80,2|0,0:0|0:0,0:0:0:0:
204,176,35077,6,0,L|216:39,1,120.000004577637,2|0,0:1|0:0,0:0:0:0:
344,40,35556,5,8,0:3:0:0:
500,80,35715,1,8,0:3:0:0:
300,112,35875,5,2,0:0:0:0:
416,224,36035,1,2,0:0:0:0:
228,160,36194,6,0,B|180:156|180:156|152:168|152:168|80:160,1,132.00000402832,4|0,0:0|0:0,0:0:0:0:
8,120,36513,2,0,P|24:164|20:220,1,88.000002685547,10|0,0:0|0:0,0:0:0:0:
80,332,36832,2,0,P|80:288|95:247,1,88.000002685547,0|2,0:0|0:0,0:0:0:0:
228,160,37152,1,8,0:0:0:0:
180,308,37311,1,2,0:0:0:0:
98,162,37471,6,0,L|10:166,1,88.000002685547,0|2,0:0|0:0,0:0:0:0:
179,259,37790,2,0,L|266:254,1,88.000002685547,8|0,0:0|0:0,0:0:0:0:
384,136,38109,2,0,B|334:149|334:149|348:284,1,176.000005371094,2|8,0:0|0:0,0:0:0:0:
220,336,38588,6,0,B|317:305|293:384|405:340,1,176.000005371094,2|0,0:0|0:0,0:0:0:0:
261,155,39067,2,0,P|261:199|269:255,1,88.000002685547,8|2,0:0|0:0,0:0:0:0:
416,200,39386,1,0,0:0:0:0:
276,80,39545,1,2,0:0:0:0:
266,242,39705,1,8,0:0:0:0:
416,116,39864,1,0,0:0:0:0:
261,155,40024,6,0,L|152:160,1,88.000002685547,2|0,0:0|0:0,0:0:0:0:
272,324,40343,2,0,L|381:329,1,88.000002685547,8|2,0:0|0:0,0:0:0:0:
192,288,40662,1,0,0:0:0:0:
340,200,40822,1,2,0:0:0:0:
340,200,40902,1,0,0:0:0:0:
340,200,40981,1,8,0:0:0:0:
173,159,41141,6,0,B|127:149|90:170|90:170|36:159|33:95,1,176.000005371094,2|2,0:0|0:0,0:0:0:0:
130,66,41620,1,8,0:0:0:0:
137,237,41779,2,0,B|131:343,1,88.000002685547,2|0,0:0|0:0,0:0:0:0:
253,177,42098,2,0,B|248:89,1,88.000002685547,2|8,0:0|0:0,0:0:0:0:
257,261,42418,6,0,P|302:246|327:214,1,88.000002685547,2|0,0:0|0:0,0:0:0:0:
139,158,42737,2,0,P|97:170|70:204,1,88.000002685547,2|8,0:0|0:0,0:0:0:0:
135,323,43056,2,0,B|183:358|183:358|312:344,1,176.000005371094,2|0,0:0|0:0,0:0:0:0:
401,251,43535,1,8,0:0:0:0:
257,261,43695,1,2,0:0:0:0:
384,334,43854,6,0,P|435:329|470:300,1,88.000002685547
392,166,44173,1,8,0:0:0:0:
257,261,44332,1,0,0:0:0:0:
360,361,44492,2,0,L|349:273,1,88.000002685547,2|0,0:0|0:0,0:0:0:0:
474,173,44811,2,0,P|461:214|428:242,1,88.000002685547,8|2,0:0|0:0,0:0:0:0:
382,86,45130,6,0,L|392:173,1,80,8|0,0:3|0:0,0:0:0:0:
344,235,45370,2,0,L|350:279,1,40,8|8,0:0|0:0,0:0:0:0:
294,103,45609,1,8,0:0:0:0:
184,241,45769,2,0,L|228:245,1,40,8|8,0:0|0:0,0:0:0:0:
143,143,45928,2,0,L|99:147,1,40,8|0,0:0|0:0,0:0:0:0:
47,249,46088,1,8,0:0:0:0:
47,249,46168,1,8,0:3:0:0:
47,249,46247,1,4,0:3:0:0:
192,332,46407,5,6,0:0:0:0:
248,172,46567,1,0,0:0:0:0:
296,284,46726,1,8,0:0:0:0:
428,256,46886,1,0,0:0:0:0:
292,308,47045,2,0,L|276:212,1,92.0000017547608,2|0,0:0|0:0,0:0:0:0:
432,232,47364,1,10,0:0:0:0:
288,328,47524,1,0,0:0:0:0:
108,180,47684,6,0,P|152:192|212:180,1,92.0000017547608,2|0,0:0|0:0,0:0:0:0:
408,136,48003,2,0,P|364:124|304:136,1,92.0000017547608,10|0,0:0|0:0,0:0:0:0:
148,244,48322,1,2,0:0:0:0:
236,112,48481,1,0,0:0:0:0:
276,217,48641,1,10,0:0:0:0:
468,180,48801,1,2,0:0:0:0:
464,192,48880,1,2,0:0:0:0:
460,204,48960,6,0,P|464:260|460:300,1,92.0000017547608,6|0,0:0|0:0,0:0:0:0:
272,320,49279,2,0,P|268:264|272:224,1,92.0000017547608,10|0,0:0|0:0,0:0:0:0:
364,168,49598,1,2,0:0:0:0:
388,316,49758,1,0,0:0:0:0:
364,168,49918,1,10,0:0:0:0:
388,316,50077,1,0,0:0:0:0:
228,312,50237,6,0,B|180:304|180:304|136:248,1,92.0000017547608,2|0,0:0|0:0,0:0:0:0:
64,120,50556,2,0,P|52:163|44:224,1,92.0000017547608,10|0,0:0|0:0,0:0:0:0:
236,64,50875,2,0,P|203:95|166:144,1,92.0000017547608,2|0,0:0|0:0,0:0:0:0:
344,52,51194,1,10,0:0:0:0:
264,188,51354,6,0,B|280:228|272:280|272:280|320:268|372:284,1,184.000003509522,2|2,0:0|0:0,0:0:0:0:
456,348,51832,1,8,0:0:0:0:
508,208,51992,2,0,P|460:208|412:224,1,92.0000017547608,2|0,0:0|0:0,0:0:0:0:
304,116,52311,2,0,P|308:68|284:8,1,92.0000017547608,2|8,0:0|0:0,0:0:0:0:
96,32,52630,6,0,B|57:122|129:123|96:216,1,184.000003509522,2|2,0:0|0:0,0:0:0:0:
40,316,53109,1,8,0:0:0:0:
140,152,53269,2,0,B|208:144|264:188|264:188|256:160|268:128,1,184.000003509522,2|2,0:0|0:0,0:0:0:0:
432,160,53747,2,0,P|376:156|332:164,1,92.0000017547608,10|0,0:0|0:0,0:0:0:0:
224,368,54067,6,0,P|220:312|228:268,1,92.0000017547608,4|0,0:3|0:0,0:0:0:0:
225,276,54306,1,2,0:3:0:0:
225,276,54386,1,8,0:3:0:0:
264,188,54545,1,2,0:3:0:0:
404,284,54705,1,4,0:3:0:0:
404,284,54785,1,0,0:0:0:0:
404,284,54864,1,8,0:3:0:0:
224,368,55024,1,0,0:0:0:0:
264,188,55184,1,0,0:0:0:0:
104,248,55343,6,0,L|12:220,1,92.0000017547608,4|2,0:3|0:3,0:0:0:0:
88,136,55662,1,8,0:3:0:0:
108,264,55822,1,0,0:0:0:0:
112,280,55902,1,0,0:0:0:0:
116,296,55981,6,0,L|128:344,3,46.0000008773804,4|0|8|0,0:3|0:0|0:3|0:0,0:0:0:0:
224,280,56301,2,0,L|236:232,3,46.0000008773804,4|0|8|8,0:3|0:0|0:3|0:3,0:0:0:0:
285,360,56620,5,4,0:0:0:0:
364,344,56779,1,0,0:0:0:0:
411,278,56939,1,2,0:0:0:0:
401,198,57098,1,2,0:0:0:0:
339,147,57258,6,0,P|325:105|346:22,1,120.000004577637,0|2,0:0|0:0,0:0:0:0:
411,88,57736,1,2,0:0:0:0:
245,99,57896,6,0,L|239:39,1,60.0000022888184,2|2,0:0|0:0,0:0:0:0:
253,190,58215,1,0,0:0:0:0:
112,214,58535,6,0,L|106:273,1,60.0000022888184,2|2,0:0|0:0,0:0:0:0:
120,122,58854,1,0,0:0:0:0:
187,253,59013,5,4,0:3:0:0:
187,253,59173,2,0,L|192:312,1,60.0000022888184,4|0,0:3|0:0,0:0:0:0:
347,275,59492,1,2,0:0:0:0:
268,263,59652,1,2,0:0:0:0:
419,350,59811,2,0,L|424:290,1,60.0000022888184,2|0,0:0|0:0,0:0:0:0:
402,210,60130,1,0,0:0:0:0:
402,210,60290,1,2,0:0:0:0:
318,188,60450,5,2,0:0:0:0:
373,129,60609,1,0,0:0:0:0:
456,142,60769,2,0,P|480:174|486:218,1,60.0000022888184,0|2,0:0|0:0,0:0:0:0:
402,210,61088,5,2,0:0:0:0:
347,269,61247,1,2,0:0:0:0:
264,256,61407,2,0,P|240:224|234:180,1,60.0000022888184,2|4,0:0|0:3,0:0:0:0:
281,98,61726,6,0,L|199:93,1,60.0000022888184,4|0,0:3|0:0,0:0:0:0:
80,167,62045,2,0,L|162:162,1,60.0000022888184,2|2,0:0|0:0,0:0:0:0:
235,205,62364,2,0,P|186:238|178:302,1,120.000004577637
258,358,62843,1,0,0:0:0:0:
317,273,63003,6,0,L|311:213,1,60.0000022888184,2|2,0:0|0:0,0:0:0:0:
286,134,63322,1,2,0:0:0:0:
235,205,63481,1,0,0:0:0:0:
157,166,63641,6,0,L|150:93,1,60.0000022888184,2|2,0:0|0:0,0:0:0:0:
159,249,63960,1,2,0:0:0:0:
84,213,64119,1,4,0:3:0:0:
242,266,64279,6,0,P|231:294|174:333,1,80,4|0,0:3|0:0,0:0:0:0:
157,166,64598,1,2,0:0:0:0:
285,201,64758,6,0,P|305:222|316:290,1,80,4|0,0:3|0:0,0:0:0:0:
159,249,65077,1,2,0:0:0:0:
247,133,65237,6,0,P|275:123|342:142,1,80,4|2,0:3|0:0,0:0:0:0:
242,266,65556,1,4,0:3:0:0:
401,179,65715,1,2,0:0:0:0:
337,323,65875,1,4,0:3:0:0:
285,201,66035,1,4,0:3:0:0:
448,262,66194,1,4,0:3:0:0:
343,352,66354,1,2,0:0:0:0:
379,195,66513,5,8,0:0:0:0:
379,195,66593,1,8,0:0:0:0:
379,195,66673,2,8,L|319:197,1,40
242,266,66832,6,0,L|248:356,1,88.000002685547,4|0,0:0|0:0,0:0:0:0:
384,344,67152,2,0,P|420:328|444:284,1,88.000002685547,8|0,0:0|0:0,0:0:0:0:
344,156,67471,2,0,L|348:244,1,88.000002685547,2|0,0:0|0:0,0:0:0:0:
436,176,67790,1,8,0:0:0:0:
256,156,67950,1,0,0:0:0:0:
384,344,68109,5,2,0:0:0:0:
236,288,68269,1,2,0:0:0:0:
136,364,68428,2,0,P|120:268|152:188,1,176.000005371094,8|2,0:0|0:0,0:0:0:0:
256,156,68907,1,2,0:0:0:0:
148,110,69067,2,0,P|139:165|153:212,1,88.000002685547,8|0,0:0|0:0,0:0:0:0:
236,288,69386,6,0,P|288:288|332:308,2,88.000002685547,2|0|8,0:0|0:0|0:0,0:0:0:0:
112,368,69864,1,0,0:0:0:0:
40,200,70024,2,0,B|32:140|32:140|52:24,1,176.000005371094,2|8,0:0|0:0,0:0:0:0:
51,26,70503,1,0,0:0:0:0:
136,164,70662,6,0,L|232:176,1,88.000002685547,2|0,0:0|0:0,0:0:0:0:
376,220,70981,2,0,L|280:208,1,88.000002685547,8|0,0:0|0:0,0:0:0:0:
172,244,71301,1,2,0:0:0:0:
340,140,71460,1,2,0:0:0:0:
248,288,71620,1,10,0:0:0:0:
264,96,71779,1,2,0:0:0:0:
412,228,71939,6,0,L|392:316,1,88.000002685547,2|0,0:0|0:0,0:0:0:0:
232,360,72258,2,0,P|184:348|132:352,1,88.000002685547,8|0,0:0|0:0,0:0:0:0:
20,368,72577,2,0,B|32:324|24:284|24:284|36:240|24:188,1,176.000005371094,2|8,0:0|0:0,0:0:0:0:
4,68,73056,1,0,0:0:0:0:
120,152,73215,6,0,P|162:140|208:140,1,88.000002685547,2|0,0:0|0:0,0:0:0:0:
344,200,73535,2,0,B|392:204|440:188|440:188|424:232|424:276,1,176.000005371094,8|2,0:0|0:0,0:0:0:0:
480,352,74013,1,0,0:0:0:0:
440,187,74173,2,0,P|451:145|449:102,1,88.000002685547,8|0,0:0|0:0,0:0:0:0:
296,128,74492,6,0,B|244:132|244:132|212:100|164:100,1,132.00000402832,6|0,0:0|0:0,0:0:0:0:
132,128,74811,2,0,P|128:176|144:216,1,88.000002685547,8|0,0:0|0:0,0:0:0:0:
208,308,75130,1,2,0:0:0:0:
304,232,75290,1,2,0:0:0:0:
141,212,75450,1,8,0:0:0:0:
304,232,75609,1,2,0:0:0:0:
132,340,75769,6,0,P|179:349|228:348,1,88.000002685547,10|0,0:0|0:0,0:0:0:0:
304,232,76088,1,10,0:0:0:0:
320,344,76247,1,0,0:0:0:0:
208,176,76407,2,0,B|200:132|200:132|216:88,1,88.000002685547,10|0,0:0|0:0,0:0:0:0:
344,28,76726,1,10,0:0:0:0:
348,40,76806,1,2,0:0:0:0:
352,52,76886,1,2,0:0:0:0:
356,64,76965,1,2,0:0:0:0:
360,76,77045,6,0,L|380:148,1,60.0000022888184,0|2,0:0|0:0,0:0:0:0:
304,232,77364,2,0,L|287:174,1,60.0000022888184,2|2,0:0|0:0,0:0:0:0:
408,228,77684,1,2,0:0:0:0:
408,228,78003,6,0,B|400:288|400:288|428:356,1,120,4|0,0:3|0:0,0:0:0:0:
432,356,78322,6,0,P|392:352|344:356,1,60.0000022888184,0|2,0:0|0:0,0:0:0:0:
284,380,78641,2,0,P|280:340|292:308,1,60.0000022888184,2|0,0:0|0:0,0:0:0:0:
287,174,78960,2,0,P|291:214|279:246,1,60.0000022888184,2|0,0:0|0:0,0:0:0:0:
205,274,79279,1,4,0:3:0:0:
260,100,79598,6,0,P|300:96|340:116,1,60.0000022888184,0|2,0:0|0:0,0:0:0:0:
430,169,79918,2,0,P|401:174|372:168,1,60.0000022888184,2|2,0:0|0:0,0:0:0:0:
404,40,80237,2,0,L|404:112,1,60.0000022888184,2|0,0:0|0:0,0:0:0:0:
288,176,80556,6,0,B|288:88|288:88|344:112,1,120,4|0,0:3|0:0,0:0:0:0:
372,168,80875,6,0,L|372:236,1,60.0000022888184,0|2,0:0|0:0,0:0:0:0:
200,272,81194,2,0,B|232:264|232:264|312:280,1,90.0000034332277,2|0,0:0|0:0,0:0:0:0:
308,280,81513,1,0,0:0:0:0:
244,352,81673,1,2,0:0:0:0:
332,368,81832,1,4,0:3:0:0:
308,280,81992,1,0,0:0:0:0:
200,272,82152,6,0,P|192:232|200:192,1,60.0000022888184,2|0,0:0|0:0,0:0:0:0:
304,136,82471,2,0,P|305:165|297:194,1,60.0000022888184,8|0,0:0|0:0,0:0:0:0:
256,68,82790,2,0,P|304:56|352:68,1,90.0000034332277,2|0,0:0|0:0,0:0:0:0:
420,76,83109,2,0,P|403:117|370:144,1,60.0000022888184,8|0,0:0|0:0,0:0:0:0:
304,136,83428,5,2,0:0:0:0:
212,144,83588,1,0,0:0:0:0:
212,144,83747,2,0,P|220:168|240:200,1,60.0000022888184,8|0,0:0|0:0,0:0:0:0:
304,136,84067,5,2,0:0:0:0:
296,268,84226,1,0,0:0:0:0:
364,204,84386,1,8,0:0:0:0:
304,136,84545,1,0,0:0:0:0:
296,268,84705,6,0,L|292:320,3,30.0000011444092,2|0|0|0,3:2|3:0|3:0|3:0,0:0:0:0:
384,296,85024,2,0,L|380:348,3,30.0000011444092,8|0|0|0,3:2|3:0|3:0|3:0,0:0:0:0:
364,204,85343,1,8,0:3:0:0:
476,316,85503,1,4,0:3:0:0:
476,316,85662,1,4,0:3:0:0:
432,156,85822,6,0,P|444:200|432:260,1,80,2|0,0:0|0:0,0:0:0:0:
364,120,86141,2,0,P|361:80|373:42,1,80,2|8,0:0|0:0,0:0:0:0:
364,204,86460,1,8,0:0:0:0:
364,204,86540,1,8,0:0:0:0:
364,204,86620,1,2,0:0:0:0:
512,188,86779,5,4,0:3:0:0:
476,316,86939,1,10,0:0:0:0:
432,156,87098,1,2,0:0:0:0:
280,236,87258,6,0,P|216:236|160:216,1,120.000004577637,6|0,0:0|0:0,0:0:0:0:
72,128,87737,2,0,B|64:168|76:200|76:200|64:232|64:232|84:264|68:320,1,180.000006866455,2|0,0:0|0:0,0:0:0:0:
72,302,88535,6,0,P|136:302|192:322,1,120.000004577637,6|0,0:0|0:0,0:0:0:0:
308,364,89013,2,0,B|316:312|304:280|304:280|312:232,1,120.000004577637,2|8,0:0|0:3,0:0:0:0:
388,176,89492,2,0,L|400:240,1,60.0000022888184,4|4,0:3|0:3,0:0:0:0:
480,304,89811,6,0,P|504:228|484:172,1,120.000004577637,2|0,0:0|0:0,0:0:0:0:
448,112,90290,1,2,0:0:0:0:
208,120,90609,2,0,L|216:40,2,60.0000022888184
190,149,91008,1,0,0:0:0:0:
190,149,91088,6,0,L|200:232,1,80,2|0,0:0|0:0,0:0:0:0:
268,312,91407,1,8,0:0:0:0:
300,156,91567,1,8,0:0:0:0:
172,252,91726,2,0,L|181:334,1,80,2|8,0:0|0:0,0:0:0:0:
181,331,91965,1,0,0:0:0:0:
181,331,92045,1,8,0:0:0:0:
352,340,92205,1,0,0:0:0:0:
300,156,92364,6,0,B|244:180|244:180|200:144|128:152,1,160,4|8,0:0|0:0,0:0:0:0:
172,252,92843,1,0,0:0:0:0:
328,248,93003,2,0,P|364:228|388:188,1,80,2|0,0:0|0:0,0:0:0:0:
347,42,93322,1,8,0:0:0:0:
300,156,93481,1,2,0:0:0:0:
152,152,93641,6,0,L|162:244,1,80,2|0,0:0|0:0,0:0:0:0:
253,296,93960,1,8,0:0:0:0:
228,132,94120,2,0,P|179:77|96:97,1,160,2|0,0:0|0:0,0:0:0:0:
92,224,94598,1,8,0:0:0:0:
152,152,94758,1,2,0:0:0:0:
28,168,94918,6,0,B|4:216|4:216|40:336,1,160,0|8,0:0|0:0,0:0:0:0:
92,224,95396,1,0,0:0:0:0:
180,236,95556,2,0,P|164:275|122:307,1,80,2|0,0:0|0:0,0:0:0:0:
152,152,95875,2,0,P|167:112|209:80,1,80,8|2,0:0|0:0,0:0:0:0:
324,164,96194,5,2,0:0:0:0:
236,160,96354,1,0,0:0:0:0:
376,96,96513,1,8,0:0:0:0:
368,236,96673,2,0,B|376:348|376:348|328:320,1,160,2|0,0:0|0:0,0:0:0:0:
324,164,97152,1,8,0:0:0:0:
280,244,97311,1,2,0:0:0:0:
288,80,97471,6,0,B|204:64|228:128|120:104,1,160,0|8,0:0|0:0,0:0:0:0:
160,24,97950,1,0,0:0:0:0:
264,160,98109,2,0,P|272:200|264:244,1,80,2|0,0:0|0:0,0:0:0:0:
137,185,98428,2,0,P|129:145|137:101,1,80,8|2,0:0|0:0,0:0:0:0:
288,80,98747,5,2,0:0:0:0:
134,106,98907,1,2,0:0:0:0:
240,8,99067,1,8,0:0:0:0:
356,148,99226,2,0,B|376:44|376:44|312:-8,1,160,2|0,0:0|0:0,0:0:0:0:
264,164,99705,2,0,P|280:204|320:236,1,80,8|2,0:0|0:0,0:0:0:0:
288,80,100024,5,0,0:0:0:0:
288,80,100184,2,0,L|188:80,2,80,2|8|0,0:0|0:0|0:0,0:0:0:0:
356,148,100662,1,0,0:0:0:0:
356,148,100822,2,0,L|456:148,1,80,2|10,0:0|0:0,0:0:0:0:
306,228,101141,1,2,0:0:0:0:
304,72,101301,5,10,0:0:0:0:
308,252,101460,1,0,0:0:0:0:
220,140,101620,1,4,0:3:0:0:
388,236,101779,5,8,0:0:0:0:
388,236,101859,1,8,0:0:0:0:
388,236,101939,1,8,0:0:0:0:
220,232,102098,1,0,0:0:0:0:
304,72,102258,5,8,0:0:0:0:
274,75,102337,1,8,0:0:0:0:
248,89,102417,1,8,0:0:0:0:
228,111,102497,1,8,0:0:0:0:
220,140,102577,5,4,0:0:0:0:
128,68,102737,2,0,L|120:152,2,80,0|10|0,0:0|0:0|0:0,0:0:0:0:
32,144,103215,2,0,L|40:228,1,80,2|0,0:0|0:0,0:0:0:0:
116,320,103535,2,0,P|160:316|204:320,1,80,10|0,0:0|0:0,0:0:0:0:
312,360,103854,5,0,0:0:0:0:
236,248,104013,1,0,0:0:0:0:
364,296,104173,2,0,P|403:298|443:294,1,80,8|0,0:0|0:0,0:0:0:0:
404,128,104492,2,0,P|406:167|402:207,1,80
328,72,104811,1,8,0:0:0:0:
328,72,104971,1,0,0:0:0:0:
192,144,105130,5,0,0:0:0:0:
312,188,105290,1,0,0:0:0:0:
156,236,105450,1,10,0:0:0:0:
176,76,105609,1,0,0:0:0:0:
312,188,105769,2,0,P|308:248|296:288,1,80,2|0,0:0|0:0,0:0:0:0:
156,236,106088,2,0,P|110:275|73:295,1,80,10|0,0:0|0:0,0:0:0:0:
45,115,106407,6,0,P|133:107|197:151,1,160,0|8,0:0|0:0,0:0:0:0:
228,264,106886,1,0,0:0:0:0:
288,136,107045,2,0,P|280:80|288:44,1,80
460,56,107364,2,0,P|463:95|455:134,1,80,8|0,0:0|0:0,0:0:0:0:
372,240,107684,5,2,0:0:0:0:
372,240,107843,2,0,L|280:256,1,80,0|10,0:0|0:0,0:0:0:0:
244,336,108162,2,0,P|200:264|224:188,1,160
218,195,108641,1,10,0:0:0:0:
424,160,108801,6,0,P|468:232|444:308,1,160
449,300,109279,1,10,0:0:0:0:
293,253,109439,2,0,L|304:168,1,80,0|2,0:0|0:0,0:0:0:0:
336,72,109758,1,0,0:0:0:0:
372,240,109918,1,10,0:0:0:0:
248,120,110077,1,0,0:0:0:0:
212,288,110237,6,0,P|160:304|80:280,1,120,2|0,0:0|0:0,0:0:0:0:
80,248,110556,2,0,P|92:212|96:156,1,80,8|0,0:0|0:0,0:0:0:0:
20,64,110875,1,0,0:0:0:0:
144,52,111035,1,0,0:0:0:0:
20,64,111194,1,8,0:0:0:0:
144,144,111354,1,0,0:0:0:0:
313,26,111513,6,0,B|321:70|321:70|313:102|313:102|321:154,1,120,4|0,0:0|0:0,0:0:0:0:
400,252,112152,5,10,0:3:0:0:
400,252,112231,1,0,0:3:0:0:
400,252,112311,2,0,P|424:256|456:252,1,40,10|0,0:3|0:0,0:0:0:0:
484,132,112471,5,2,0:0:0:0:
484,132,112550,1,2,0:0:0:0:
484,132,112630,2,0,P|460:128|428:132,1,40,2|2,0:0|0:0,0:0:0:0:
320,144,112790,6,0,B|288:132|252:152|252:152|216:176|172:156,1,143.999995605469,4|0,0:0|0:0,0:0:0:0:
98,107,113109,2,0,P|84:153|92:200,1,95.9999970703126,10|0,0:0|0:0,0:0:0:0:
256,248,113428,1,0,0:0:0:0:
96,292,113588,1,2,0:0:0:0:
160,344,113747,2,0,P|174:298|166:251,1,95.9999970703126,8|0,0:0|0:0,0:0:0:0:
16,164,114067,5,0,0:0:0:0:
182,160,114226,1,2,0:0:0:0:
96,292,114386,2,0,P|82:246|90:199,1,95.9999970703126,8|0,0:0|0:0,0:0:0:0:
112,80,114705,1,2,0:0:0:0:
89,199,114864,1,2,0:0:0:0:
89,199,114944,1,0,0:0:0:0:
89,199,115024,1,8,0:0:0:0:
182,160,115184,6,0,B|224:168|256:156|256:156|296:176|296:176|340:160|380:172,1,191.999994140625,2|0,0:0|0:0,0:0:0:0:
406,307,115662,2,0,B|358:313|358:313|312:299,1,95.9999970703126,8|2,0:0|0:0,0:0:0:0:
166,251,115981,1,0,0:0:0:0:
257,365,116140,1,2,0:0:0:0:
256,208,116300,1,8,0:0:0:0:
152,340,116459,1,0,0:0:0:0:
104,196,116620,6,0,P|100:140|124:96,1,95.9999970703126,2|0,0:0|0:0,0:0:0:0:
256,208,116939,2,0,P|260:264|236:308,1,95.9999970703126,8|2,0:0|0:0,0:0:0:0:
192,156,117258,1,0,0:0:0:0:
340,88,117418,1,2,0:0:0:0:
340,88,117497,1,0,0:0:0:0:
340,88,117577,1,8,0:0:0:0:
332,252,117737,6,0,B|460:276|460:276|512:228,1,191.999994140625,2|2,0:0|0:0,0:0:0:0:
340,88,118215,1,8,0:0:0:0:
336,172,118375,2,0,P|388:160|420:112,1,95.9999970703126,2|0,0:0|0:0,0:0:0:0:
258,66,118694,2,0,P|206:78|174:126,1,95.9999970703126,2|8,0:0|0:0,0:0:0:0:
255,241,119013,6,0,L|255:141,1,95.9999970703126,2|0,0:0|0:0,0:0:0:0:
100,140,119332,2,0,L|100:240,1,95.9999970703126,2|8,0:0|0:0,0:0:0:0:
215,321,119652,2,0,B|279:349|327:301|327:301|359:337|411:321,1,191.999994140625,2|0,0:0|0:0,0:0:0:0:
255,145,120130,2,0,L|255:241,1,95.9999970703126,8|2,0:0|0:0,0:0:0:0:
335,128,120450,6,0,P|311:88|240:69,1,95.9999970703126
165,199,120769,2,0,L|165:295,1,95.9999970703126,8|0,0:0|0:0,0:0:0:0:
340,315,121088,1,2,0:0:0:0:
340,315,121247,1,0,0:0:0:0:
329,151,121407,2,0,P|305:111|234:92,1,95.9999970703126,8|2,0:0|0:0,0:0:0:0:
97,209,121726,6,0,L|209:229,1,80,4|0,0:3|0:0,0:0:0:0:
244,256,121965,1,0,0:0:0:0:
244,256,122045,2,0,P|252:228|252:208,1,40,8|0,0:0|0:0,0:0:0:0:
261,90,122205,2,0,P|254:108|252:128,1,40,4|0,0:3|0:0,0:0:0:0:
335,184,122364,5,0,0:0:0:0:
335,184,122444,1,8,0:0:0:0:
335,184,122524,1,8,0:0:0:0:
245,332,122684,1,8,0:0:0:0:
257,304,122763,1,8,0:0:0:0:
263,275,122843,1,8,0:3:0:0:
261,245,122923,1,4,0:3:0:0:
252,217,123003,6,0,P|236:176|276:108,1,95.9999970703126,4|0,0:0|0:0,0:0:0:0:
340,32,123322,2,0,P|284:24|192:64,1,143.999995605469,8|0,0:0|0:0,0:0:0:0:
176,100,123641,2,0,P|120:108|52:100,1,95.9999970703126,2|0,0:0|0:0,0:0:0:0:
16,24,123960,1,10,0:0:0:0:
20,164,124120,1,0,0:0:0:0:
156,136,124279,6,0,L|144:244,1,95.9999970703126,2|0,0:0|0:0,0:0:0:0:
20,164,124598,2,0,L|32:272,1,95.9999970703126,10|0,0:0|0:0,0:0:0:0:
139,278,124918,1,2,0:0:0:0:
52,352,125077,1,0,0:0:0:0:
224,376,125237,1,10,0:0:0:0:
139,278,125396,2,0,L|147:218,1,47.9999985351563,2|2,0:0|0:0,0:0:0:0:
156,136,125556,6,0,P|208:144|256:180,1,95.9999970703126,4|0,0:0|0:0,0:0:0:0:
320,272,125875,1,10,0:0:0:0:
316,104,126035,1,0,0:0:0:0:
232,264,126194,2,0,P|284:256|328:216,1,95.9999970703126,2|0,0:0|0:0,0:0:0:0:
376,332,126513,2,0,P|428:340|472:376,1,95.9999970703126,10|0,0:0|0:0,0:0:0:0:
448,208,126832,5,2,0:0:0:0:
368,356,126992,1,0,0:0:0:0:
324,196,127152,1,10,0:0:0:0:
484,288,127311,1,0,0:0:0:0:
484,112,127471,2,0,L|496:16,2,95.9999970703126,2|2|10,0:0|0:0|0:0,0:0:0:0:
356,216,127950,6,0,B|364:164|340:124|340:124|364:80|344:24,1,191.999994140625,2|2,0:0|0:0,0:0:0:0:
346,30,128428,1,8,0:0:0:0:
224,164,128588,2,0,P|224:104|248:48,1,95.9999970703126,2|0,0:0|0:0,0:0:0:0:
444,180,128907,2,0,P|444:240|424:292,1,95.9999970703126,2|8,0:0|0:0,0:0:0:0:
276,340,129226,6,0,B|240:328|200:344|200:344|176:336|176:336|132:356|80:340,1,191.999994140625,2|2,0:0|0:0,0:0:0:0:
0,276,129705,1,8,0:0:0:0:
120,164,129864,2,0,P|132:236|116:280,1,95.9999970703126,2|0,0:0|0:0,0:0:0:0:
20,156,130184,2,0,P|8:84|28:40,1,95.9999970703126,2|8,0:0|0:0,0:0:0:0:
168,32,130503,1,0,0:0:0:0:
255,187,130662,6,0,L|351:175,1,95.9999970703126,4|0,0:3|0:0,0:0:0:0:
351,176,130902,1,2,0:3:0:0:
351,176,130981,1,10,0:3:0:0:
448,264,131141,1,0,0:0:0:0:
452,104,131301,1,4,0:3:0:0:
452,104,131380,1,8,0:3:0:0:
452,104,131460,1,8,0:3:0:0:
448,264,131620,1,8,0:3:0:0:
344,160,131779,1,0,0:0:0:0:
384,320,131939,6,0,B|340:344|340:344|288:352,1,95.9999970703126,4|0,0:3|0:0,0:0:0:0:
156,320,132258,1,8,0:3:0:0:
156,320,132338,1,0,0:0:0:0:
156,320,132418,1,0,0:0:0:0:
64,224,132577,6,0,L|56:272,3,47.9999985351563,4|0|8|0,0:3|0:0|0:3|0:0,0:0:0:0:
144,132,132896,2,0,L|152:180,3,47.9999985351563,4|0|8|8,0:3|0:0|0:3|0:3,0:0:0:0:
144,276,133215,5,4,0:0:0:0:
224,228,133375,1,0,0:0:0:0:
300,276,133535,1,2,0:0:0:0:
220,324,133695,1,2,0:0:0:0:
224,228,133854,2,0,L|224:148,1,60.0000022888184
300,276,134173,2,0,L|300:356,1,60.0000022888184,2|2,0:0|0:0,0:0:0:0:
304,188,134492,5,2,0:0:0:0:
380,232,134652,1,2,0:0:0:0:
380,148,134811,2,0,P|356:120|312:104,1,60.0000022888184
248,112,135130,5,2,0:0:0:0:
172,156,135290,1,2,0:0:0:0:
172,72,135449,2,0,P|196:44|240:28,1,60.0000022888184,0|4,0:0|0:3,0:0:0:0:
248,112,135769,5,4,0:3:0:0:
248,196,135928,1,0,0:0:0:0:
92,156,136088,1,2,0:0:0:0:
172,156,136247,1,2,0:0:0:0:
56,228,136407,2,0,P|28:208|12:176,1,60.0000022888184
132,228,136726,2,0,L|132:300,1,60.0000022888184,2|2,0:0|0:0,0:0:0:0:
92,156,137045,5,2,0:0:0:0:
136,80,137205,1,2,0:0:0:0:
231,149,137364,2,0,L|159:157,1,60.0000022888184
260,72,137684,1,2,0:0:0:0:
310,129,137843,1,0,0:0:0:0:
292,204,138003,1,2,0:0:0:0:
220,232,138162,1,4,0:3:0:0:
140,224,138322,6,0,P|144:268|168:304,1,60.0000022888184
212,376,138641,2,0,P|222:347|222:318,1,60.0000022888184,2|2,0:0|0:0,0:0:0:0:
220,232,138960,2,0,P|216:180|232:104,1,120.000004577637,0|2,0:0|0:0,0:0:0:0:
268,28,139439,6,0,B|180:0|180:76|76:20,1,180.000006866455,0|2,0:0|0:0,0:0:0:0:
32,100,140077,1,0,0:0:0:0:
80,156,140237,2,0,P|100:132|104:96,1,60.0000022888184
4,176,140556,2,0,L|4:260,1,60.0000022888184,2|4,0:0|0:3,0:0:0:0:
22,334,140875,6,0,P|66:314|94:262,1,80,4|0,0:3|0:0,0:0:0:0:
136,192,141194,1,2,0:0:0:0:
85,94,141354,6,0,P|58:64|22:50,1,80,4|0,0:3|0:0,0:0:0:0:
0,148,141673,1,2,0:0:0:0:
136,192,141832,6,0,L|235:191,1,80,4|0,0:3|0:0,0:0:0:0:
176,112,142152,1,4,0:3:0:0:
224,304,142311,1,2,0:0:0:0:
328,212,142471,1,4,0:3:0:0:
276,368,142630,1,4,0:3:0:0:
215,191,142790,1,4,0:3:0:0:
304,296,142950,1,2,0:0:0:0:
340,132,143109,5,8,0:0:0:0:
340,132,143189,1,8,0:0:0:0:
340,132,143269,2,0,L|352:184,1,40,8|8,0:0|0:0,0:0:0:0:
448,212,143428,6,0,B|477:132|411:130|448:40,1,160,4|8,0:0|0:0,0:0:0:0:
442,56,143907,1,0,0:0:0:0:
336,20,144067,2,0,L|252:40,2,80,2|0|8,0:0|0:0|0:0,0:0:0:0:
232,112,144545,1,0,0:0:0:0:
136,52,144705,6,0,P|112:132|184:204,1,160,2|8,0:0|0:0,0:0:0:0:
240,264,145184,1,2,0:0:0:0:
240,264,145263,1,2,0:0:0:0:
240,264,145343,2,0,P|252:312|232:344,1,80,8|0,0:0|0:0,0:0:0:0:
78,192,145662,2,0,P|114:177|151:191,1,80,8|0,0:0|0:0,0:0:0:0:
316,216,145981,6,0,P|336:136|316:56,1,160,2|8,0:0|0:0,0:0:0:0:
224,32,146460,1,0,0:0:0:0:
292,140,146620,2,0,P|340:140|380:116,1,80,2|0,0:0|0:0,0:0:0:0:
492,80,146939,2,0,L|484:176,1,80,8|0,0:0|0:0,0:0:0:0:
488,336,147258,6,0,P|404:328|336:364,1,160,2|8,0:0|0:0,0:0:0:0:
338,361,147737,1,0,0:0:0:0:
264,288,147896,2,0,L|256:200,1,80,2|0,0:0|0:0,0:0:0:0:
88,200,148215,1,8,0:0:0:0:
180,340,148375,1,0,0:0:0:0:
180,340,148455,1,0,0:0:0:0:
180,340,148535,5,8,0:0:0:0:
172,196,148694,1,2,0:0:0:0:
120,280,148854,5,8,0:0:0:0:
181,153,149013,1,2,0:0:0:0:
88,200,149173,5,8,0:0:0:0:
210,121,149332,1,2,0:0:0:0:
108,116,149492,5,8,0:0:0:0:
252,108,149651,1,2,0:0:0:0:
156,44,149811,6,0,L|232:76,1,80,2|0,0:0|0:0,0:0:0:0:
294,117,150050,1,0,0:0:0:0:
294,117,150130,1,8,0:0:0:0:
360,28,150290,1,2,0:0:0:0:
448,140,150450,2,0,P|448:188|440:232,2,80,2|0|10,0:0|0:0|0:0,0:0:0:0:
294,117,150928,1,0,0:0:0:0:
384,292,151088,6,0,B|304:332|305:261|204:292,1,160,2|8,0:0|0:0,0:0:0:0:
144,347,151567,1,0,0:0:0:0:
60,288,151726,2,0,P|52:248|56:208,2,80,2|0|8,0:0|0:0|0:0,0:0:0:0:
112,152,152205,1,0,0:0:0:0:
32,32,152364,6,0,B|138:51|138:51|192:40,1,160,2|8,0:0|0:0,0:0:0:0:
288,8,152843,1,2,0:0:0:0:
312,136,153003,1,10,0:0:0:0:
189,40,153162,1,2,0:0:0:0:
176,204,153322,1,8,0:0:0:0:
208,212,153402,1,0,0:0:0:0:
240,220,153481,1,2,0:0:0:0:
272,228,153561,1,2,0:0:0:0:
300,236,153641,5,2,0:0:0:0:
171,295,153801,1,2,0:0:0:0:
241,357,153960,1,0,3:0:0:0:
208,212,154120,1,0,3:0:0:0:
385,240,154279,6,0,P|375:277|347:309,1,80,8|8,0:0|0:0,0:0:0:0:
208,212,154598,1,0,0:0:0:0:
388,151,154758,6,0,L|476:149,1,80,8|0,0:0|0:0,0:0:0:0:
300,236,155077,1,2,0:0:0:0:
360,62,155237,2,0,P|324:80|301:114,1,80,0|2,3:0|0:0,0:0:0:0:
208,212,155556,5,8,0:0:0:0:
152,40,155715,1,8,0:0:0:0:
123,191,155875,2,0,L|44:188,1,80,4|0,0:3|0:0,0:0:0:0:
220,289,156194,6,0,P|206:247|209:207,1,80,8|2,0:0|0:0,0:0:0:0:
392,256,156513,2,0,P|393:295|379:333,1,80,8|0,0:0|0:0,0:0:0:0:
288,240,156832,1,10,0:0:0:0:
412,152,156992,1,10,0:0:0:0:
264,24,157152,2,0,L|275:75,1,40,0|0,3:0|3:0,0:0:0:0:
339,115,157311,6,0,P|303:139|247:139,1,80,8|0,0:0|0:0,0:0:0:0:
92,76,157630,2,0,P|128:52|184:52,1,80,2|8,0:0|3:2,0:0:0:0:
163,47,157870,1,8,3:2:0:0:
163,47,157950,1,8,3:2:0:0:
208,212,158109,1,8,0:0:0:0:
40,140,158269,1,10,0:0:0:0:
188,136,158428,1,8,0:0:0:0:
80,284,158588,1,10,0:0:0:0:
208,212,158747,5,8,0:0:0:0:
40,140,158907,2,0,L|52:48,2,80,0|0|2,3:0|3:0|0:0,0:0:0:0:
80,284,159386,1,8,0:0:0:0:
188,136,159545,1,8,0:0:0:0:
228,296,159705,1,2,0:0:0:0:
124,196,159864,1,10,0:0:0:0:
327,215,160024,6,0,L|199:211,1,120,8|8,0:0|0:0,0:0:0:0:
207,211,160343,1,4,0:3:0:0:
260,329,160503,1,4,0:3:0:0:
143,284,160662,1,8,0:3:0:0:
330,294,160822,2,0,P|338:338|322:378,1,80,8|0,0:0|0:0,0:0:0:0:
143,284,161141,1,8,0:0:0:0:
328,216,161301,6,0,L|244:212,1,80,8|4,0:0|0:3,0:0:0:0:
127,119,161620,2,0,L|211:115,1,80,8|4,0:0|0:3,0:0:0:0:
324,128,161939,1,10,0:0:0:0:
228,296,162098,1,4,0:3:0:0:
164,216,162258,1,10,0:0:0:0:
328,216,162418,1,4,0:3:0:0:
228,296,162577,6,0,L|176:316,2,40,8|8|8,0:0|0:0|0:0,0:0:0:0:
328,216,162896,1,4,0:3:0:0:
308,352,163056,6,0,L|256:372,2,40,8|8|8,0:0|0:0|0:0,0:0:0:0:
412,272,163375,1,4,0:3:0:0:
488,324,163535,5,4,0:3:0:0:
498,294,163614,1,4,0:3:0:0:
499,262,163694,1,4,0:3:0:0:
490,231,163774,1,4,0:3:0:0:
471,206,163854,5,10,0:0:0:0:
384,189,164013,1,8,0:0:0:0:
412,272,164173,1,8,0:0:0:0:
441,128,164332,1,8,0:0:0:0:
328,258,164492,1,8,0:0:0:0:
501,288,164652,1,8,0:0:0:0:
384,189,164811,1,8,0:0:0:0:
356,338,164971,1,8,0:0:0:0:
471,206,165130,5,12,0:0:0:0:
80,156,172790,6,0,L|68:208,2,40,8|8|8,0:0|0:0|0:0,0:0:0:0:
200,80,173109,2,0,L|212:132,2,40,8|8|8,0:0|0:0|0:0,0:0:0:0:
328,176,173428,1,2,0:3:0:0:
448,100,173588,1,2,0:3:0:0:
328,176,173747,2,0,L|316:228,1,40,8|8,0:0|0:0,0:0:0:0:
292,324,173907,1,8,0:0:0:0:
256,192,174067,12,0,175184,0:0:0:0:
104,120,175343,6,0,P|171:117|260:108,1,143.999995605469,4|0,0:0|0:0,0:0:0:0:
316,52,175662,2,0,P|336:94|325:154,1,95.9999970703126,8|0,0:0|0:0,0:0:0:0:
184,192,175981,1,2,0:0:0:0:
232,32,176141,1,0,0:0:0:0:
272,204,176301,2,0,P|244:260|208:280,1,95.9999970703126,8|0,0:0|0:0,0:0:0:0:
248,108,176620,6,0,L|352:104,1,95.9999970703126,2|0,0:0|0:0,0:0:0:0:
184,192,176939,2,0,P|152:148|144:104,1,95.9999970703126,8|0,0:0|0:0,0:0:0:0:
232,32,177258,1,2,0:0:0:0:
272,204,177418,1,0,0:0:0:0:
144,107,177577,1,10,0:0:0:0:
149,268,177737,5,2,0:0:0:0:
149,268,177817,1,2,0:0:0:0:
149,268,177896,2,0,P|98:255|44:260,1,95.9999970703126,4|0,0:0|0:0,0:0:0:0:
228,278,178215,1,8,0:0:0:0:
95,340,178375,1,0,0:0:0:0:
102,173,178535,2,0,L|95:68,1,95.9999970703126,2|0,0:0|0:0,0:0:0:0:
213,187,178854,1,8,0:0:0:0:
253,18,179013,1,0,0:0:0:0:
316,103,179173,6,0,L|212:114,1,95.9999970703126,2|0,0:0|0:0,0:0:0:0:
228,278,179492,2,0,L|332:289,1,95.9999970703126,10|0,0:0|0:0,0:0:0:0:
316,103,179811,1,2,0:0:0:0:
184,192,179971,1,0,0:0:0:0:
321,199,180130,1,8,0:0:0:0:
228,278,180290,6,0,P|169:283|122:264,1,95.9999970703126,2|0,0:0|0:0,0:0:0:0:
176,96,180609,2,0,L|185:219,1,95.9999970703126,2|8,0:0|0:0,0:0:0:0:
372,208,180928,2,0,P|326:195|278:201,1,95.9999970703126,2|0,0:0|0:0,0:0:0:0:
330,383,181247,2,0,L|321:260,1,95.9999970703126,2|8,0:0|0:0,0:0:0:0:
182,191,181567,6,0,B|125:235|125:235|153:359,1,191.999994140625,2|2,0:0|0:0,0:0:0:0:
213,120,182045,1,8,0:0:0:0:
213,120,182205,2,0,B|170:100|121:138|121:138|70:170|26:145,1,191.999994140625,2|2,0:0|0:0,0:0:0:0:
191,283,182684,2,0,P|196:235|181:190,1,95.9999970703126,8|2,0:0|0:0,0:0:0:0:
69,78,183003,6,0,P|106:47|172:38,1,95.9999970703126,4|0,0:3|0:0,0:0:0:0:
165,38,183242,1,8,0:0:0:0:
174,42,183322,1,8,0:0:0:0:
181,190,183481,1,0,0:0:0:0:
30,150,183641,2,0,L|28:84,2,47.9999985351563,8|8|4,0:0|0:0|0:3,0:0:0:0:
104,184,183960,1,0,0:0:0:0:
184,42,184120,2,0,P|184:65|177:88,1,47.9999985351563,8|8,0:0|0:0,0:0:0:0:
181,190,184279,5,4,0:3:0:0:
303,142,184439,1,8,0:3:0:0:
268,304,184598,1,4,0:3:0:0:
224,91,184758,1,8,0:0:0:0:
224,91,184838,1,8,0:0:0:0:
224,91,184918,6,0,L|177:88,3,47.9999985351563,4|0|8|8,0:3|0:0|0:0|0:0,0:0:0:0:
336,137,185237,2,0,L|400:141,3,47.9999985351563,8|8|8|8,0:0|0:0|0:0|0:0,0:0:0:0:
456,180,185556,5,4,0:0:0:0:
472,256,185715,1,0,0:0:0:0:
436,324,185875,1,2,0:0:0:0:
364,352,186034,1,2,0:0:0:0:
288,336,186194,6,0,P|257:301|245:267,1,60.0000022888184
292,224,186513,1,2,0:0:0:0:
256,156,186672,1,2,0:0:0:0:
164,56,186832,6,0,L|196:120,1,60.0000022888184,2|2,0:0|0:0,0:0:0:0:
224,0,187151,1,0,0:0:0:0:
172,232,187471,6,0,L|136:160,1,60.0000022888184,2|2,0:0|0:0,0:0:0:0:
104,112,187790,1,0,0:0:0:0:
120,300,187949,5,4,0:3:0:0:
200,296,188109,2,0,L|227:350,1,60.0000022888184,4|0,0:3|0:0,0:0:0:0:
347,275,188428,1,2,0:0:0:0:
268,263,188588,1,2,0:0:0:0:
388,368,188747,2,0,L|415:314,1,60.0000022888184,2|0,0:0|0:0,0:0:0:0:
468,256,189066,1,0,0:0:0:0:
456,180,189226,1,2,0:0:0:0:
376,184,189386,5,2,0:0:0:0:
412,116,189545,1,0,0:0:0:0:
332,116,189705,2,0,P|308:84|302:40,1,60.0000022888184,0|2,0:0|0:0,0:0:0:0:
448,48,190024,5,2,0:0:0:0:
412,116,190183,1,2,0:0:0:0:
376,184,190343,2,0,P|352:216|346:260,1,60.0000022888184,2|4,0:0|0:3,0:0:0:0:
242,322,190662,6,0,L|160:317,1,60.0000022888184,4|0,0:3|0:0,0:0:0:0:
80,167,190981,2,0,L|162:162,1,60.0000022888184,2|2,0:0|0:0,0:0:0:0:
235,205,191300,1,2,0:0:0:0:
168,244,191460,1,0,0:0:0:0:
183,319,191620,2,0,P|226:346|249:349,1,60.0000022888184,0|2,0:0|0:0,0:0:0:0:
304,312,191939,6,0,L|298:252,1,60.0000022888184,2|2,0:0|0:0,0:0:0:0:
235,205,192258,1,2,0:0:0:0:
292,152,192417,1,0,0:0:0:0:
168,164,192577,6,0,L|161:91,1,60.0000022888184,2|2,0:0|0:0,0:0:0:0:
128,232,192896,1,2,0:0:0:0:
52,216,193055,1,4,0:3:0:0:
96,64,193215,6,0,P|140:32|220:52,1,120,4|0,0:3|0:0,0:0:0:0:
264,80,193535,2,0,L|256:164,1,80,8|0,0:3|0:0,0:0:0:0:
188,284,193854,1,0,0:0:0:0:
336,256,194013,1,2,0:3:0:0:
176,272,194173,1,4,0:3:0:0:
348,244,194332,1,0,0:0:0:0:
168,184,194492,5,4,0:3:0:0:
156,324,194652,1,2,0:3:0:0:
280,208,194811,5,4,0:3:0:0:
296,352,194971,1,8,0:3:0:0:
156,324,195130,5,4,0:3:0:0:
296,352,195290,1,0,0:0:0:0:
200,232,195450,5,2,0:0:0:0:
204,212,195529,1,2,0:0:0:0:
208,192,195609,1,2,0:0:0:0:
212,172,195689,1,2,0:0:0:0:
216,148,195769,6,0,L|316:156,1,88.000002685547,4|0,0:0|0:0,0:0:0:0:
168,80,196088,2,0,P|136:124|136:176,1,88.000002685547,8|0,0:0|0:0,0:0:0:0:
168,284,196407,1,2,0:0:0:0:
216,148,196567,1,0,0:0:0:0:
253,285,196726,1,8,0:0:0:0:
87,284,196886,1,0,0:0:0:0:
244,372,197045,2,0,L|253:276,1,88.000002685547,2|2,0:0|0:0,0:0:0:0:
288,192,197364,6,0,B|248:168|200:192|200:192|151:171|153:122,1,176.000005371094,8|2,0:0|0:0,0:0:0:0:
324,264,197843,1,2,0:0:0:0:
227,341,198003,2,0,P|191:364|148:368,1,88.000002685547,8|0,0:0|0:0,0:0:0:0:
324,264,198322,6,0,P|360:241|403:237,1,88.000002685547,2|0,0:0|0:0,0:0:0:0:
316,352,198641,1,8,0:0:0:0:
244,260,198801,1,0,0:0:0:0:
411,149,198960,2,0,L|403:241,1,88.000002685547,2|0,0:0|0:0,0:0:0:0:
244,260,199279,2,0,L|236:172,1,88.000002685547,8|0,0:0|0:0,0:0:0:0:
347,27,199598,6,0,L|339:119,2,88.000002685547,2|0|8,0:0|0:0|0:0,0:0:0:0:
412,148,200077,1,0,0:0:0:0:
264,48,200237,2,0,L|160:64,1,88.000002685547,2|2,0:0|0:0,0:0:0:0:
192,236,200556,2,0,P|196:180|168:136,1,88.000002685547,10|2,0:0|0:0,0:0:0:0:
84,32,200875,6,0,P|80:88|108:132,1,88.000002685547,2|0,0:0|0:0,0:0:0:0:
264,48,201194,1,8,0:0:0:0:
177,61,201354,1,0,0:0:0:0:
344,84,201513,6,0,P|348:28|320:-16,1,88.000002685547,2|0,0:0|0:0,0:0:0:0:
276,132,201832,2,0,P|322:163|374:161,1,88.000002685547,8|0,0:0|0:0,0:0:0:0:
424,124,202152,1,2,0:0:0:0:
264,48,202311,1,0,0:0:0:0:
264,48,202471,2,0,P|213:72|216:196,1,176.000005371094,8|2,0:0|0:0,0:0:0:0:
368,252,202950,1,0,0:0:0:0:
293,307,203109,2,0,P|275:267|280:224,1,88.000002685547,8|0,0:0|0:0,0:0:0:0:
276,132,203428,6,0,B|232:128|232:128|196:144|196:144|120:136,1,132.00000402832,4|0,0:0|0:0,0:0:0:0:
92,76,203747,2,0,B|132:60|132:60|184:64,1,88.000002685547,8|0,0:0|0:0,0:0:0:0:
244,212,204067,1,2,0:0:0:0:
153,217,204226,1,2,0:0:0:0:
202,292,204386,1,8,0:0:0:0:
199,137,204545,1,2,0:0:0:0:
108,297,204705,5,10,0:0:0:0:
294,285,204864,1,0,0:0:0:0:
153,217,205024,1,10,0:0:0:0:
156,372,205184,1,0,0:0:0:0:
199,137,205343,1,10,0:0:0:0:
0,214,205503,1,0,0:0:0:0:
202,292,205663,5,8,0:0:0:0:
221,294,205742,1,8,0:0:0:0:
243,293,205822,1,8,0:0:0:0:
264,287,205902,1,8,0:0:0:0:
281,277,205981,6,0,L|289:201,1,60.0000022888184,2|0,0:0|0:0,0:0:0:0:
392,192,206301,2,0,L|384:116,1,60.0000022888184,2|0,0:0|0:0,0:0:0:0:
308,56,206620,2,0,P|236:60|184:104,1,120.000004577637,2|2,0:0|0:0,0:0:0:0:
197,86,207098,1,0,0:0:0:0:
120,160,207258,6,0,P|124:196|116:232,1,60.0000022888184,2|0,0:0|0:0,0:0:0:0:
87,56,207577,2,0,P|159:60|211:104,1,120.000004577637,2|2,0:0|0:0,0:0:0:0:
48,132,208056,1,0,0:0:0:0:
32,216,208215,2,0,P|28:252|36:288,1,60.0000022888184,2|0,0:0|0:0,0:0:0:0:
100,352,208535,6,0,P|136:352|176:360,2,60.0000022888184,2|0|2,0:0|0:0|0:0,0:0:0:0:
100,352,209013,1,0,0:0:0:0:
216,296,209173,2,0,P|224:232|212:168,1,120.000004577637,2|2,0:0|0:0,0:0:0:0:
184,96,209652,1,0,0:0:0:0:
312,40,209811,6,0,L|300:116,1,60.0000022888184,2|0,0:0|0:0,0:0:0:0:
356,168,210130,2,0,P|347:227|355:286,1,120.000004577637,2|2,0:0|0:0,0:0:0:0:
355,286,210609,1,0,0:0:0:0:
445,157,210769,2,0,L|345:169,1,90.0000034332277
320,200,211088,6,0,P|280:200|240:184,1,68.0000012969971,2|0,0:0|0:0,0:0:0:0:
184,60,211407,2,0,P|184:100|200:140,1,68.0000012969971,2|0,0:0|0:0,0:0:0:0:
176,232,211726,2,0,P|176:304|156:368,1,136.000002593994,2|2,0:0|0:0,0:0:0:0:
72,360,212205,1,0,0:0:0:0:
24,256,212364,6,0,P|64:244|112:252,1,68.0000012969971,2|0,0:0|0:0,0:0:0:0:
200,304,212684,2,0,P|272:304|336:284,1,136.000002593994,2|2,0:0|0:0,0:0:0:0:
408,172,213162,1,0,0:0:0:0:
408,172,213322,2,0,L|416:248,1,68.0000012969971,2|0,0:0|0:0,0:0:0:0:
380,376,213641,6,0,L|372:308,1,68.0000012969971
328,168,213960,2,0,P|262:148|195:149,1,136.000002593994,0|8,0:0|0:0,0:0:0:0:
132,224,214439,1,8,0:0:0:0:
132,76,214598,1,8,0:0:0:0:
132,224,214758,1,10,0:0:0:0:
228,76,214918,6,0,L|300:68,1,68.0000012969971,6|0,0:0|0:0,0:0:0:0:
295,68,215157,1,0,0:0:0:0:
295,68,215237,1,0,0:0:0:0:
400,104,215396,6,0,B|388:144|400:172|400:172|392:188|392:188|408:224|396:264,1,160,4|0,0:0|0:0,0:0:0:0:
328,340,215875,1,2,0:0:0:0:
180,300,216035,6,0,B|132:280|132:280|260:260,1,180.000006866455,4|0,0:0|0:0,0:0:0:0:
