osu file format v14

[General]
AudioFilename: audio.mp3
AudioLeadIn: 0
PreviewTime: 35968
Countdown: 0
SampleSet: Soft
StackLeniency: 0.7
Mode: 0
LetterboxInBreaks: 0
WidescreenStoryboard: 0

[Editor]
Bookmarks: 543,5649,15862,26074,36287,56713,66925,77138,87351
DistanceSpacing: 0.5
BeatDivisor: 4
GridSize: 4
TimelineZoom: 4.899998

[Metadata]
Title:Uso no Hibana (TV Size)
TitleUnicode:嘘の火花
Artist:96neko
ArtistUnicode:96猫
Creator:Tanzeem
Version:Unrequited Love
Source:クズの本懐
Tags:Japanese Anime Scum's Wish Kuzu no Honkai xiqingwa fleuress Basensorex Lewski Lewdski
BeatmapID:1923629
BeatmapSetID:921183

[Difficulty]
HPDrainRate:6
CircleSize:4.5
OverallDifficulty:9
ApproachRate:9.6
SliderMultiplier:1.4
SliderTickRate:1

[Events]
//Background and Video events
0,0,"thumb.png",0,0
Video,0,"video.avi"
//Break Periods
//Storyboard Layer 0 (Background)
//Storyboard Layer 1 (Fail)
//Storyboard Layer 2 (Pass)
//Storyboard Layer 3 (Foreground)
//Storyboard Layer 4 (Overlay)
//Storyboard Sound Samples

[TimingPoints]
543,319.148936170213,4,2,13,60,1,0
543,-133.333333333333,4,2,13,60,0,0
4372,-66.6666666666667,4,2,13,60,0,0
5649,-54.054054054054,4,2,11,65,0,0
5808,-54.054054054054,4,2,10,70,0,0
5968,-54.054054054054,4,2,8,70,0,0
6128,-54.054054054054,4,2,5,70,0,0
6287,-54.054054054054,4,2,6,85,0,0
6606,-54.054054054054,4,2,8,70,0,0
6766,-54.054054054054,4,2,6,70,0,0
6925,-54.054054054054,4,2,5,80,0,0
7085,-54.054054054054,4,2,6,70,0,0
7245,-54.054054054054,4,2,8,85,0,0
7564,-54.054054054054,4,2,5,70,0,0
7723,-54.054054054054,4,2,6,70,0,0
7883,-54.054054054054,4,2,8,80,0,0
8202,-54.054054054054,4,2,11,70,0,0
8362,-54.054054054054,4,2,10,70,0,0
8521,-54.054054054054,4,2,8,70,0,0
8681,-54.054054054054,4,2,5,70,0,0
8840,-54.054054054054,4,2,6,70,0,0
9160,-54.054054054054,4,2,8,75,0,0
9319,-54.054054054054,4,2,6,70,0,0
9479,-54.054054054054,4,2,5,80,0,0
9638,-54.054054054054,4,2,6,70,0,0
9798,-54.054054054054,4,2,8,75,0,0
9957,-54.054054054054,4,2,6,75,0,0
10117,-54.054054054054,4,2,2,80,0,0
10277,-54.054054054054,4,2,3,70,0,0
10436,-54.054054054054,4,2,6,75,0,0
10596,-54.054054054054,4,2,8,70,0,0
10755,-54.054054054054,4,2,11,70,0,0
10915,-54.054054054054,4,2,10,70,0,0
11074,-54.054054054054,4,2,8,70,0,0
11234,-54.054054054054,4,2,5,70,0,0
11394,-54.054054054054,4,2,6,70,0,0
11713,-54.054054054054,4,2,8,70,0,0
11872,-54.054054054054,4,2,6,70,0,0
12032,-54.054054054054,4,2,5,80,0,0
12191,-54.054054054054,4,2,6,70,0,0
12351,-54.054054054054,4,2,8,80,0,0
12670,-54.054054054054,4,2,5,70,0,0
12830,-54.054054054054,4,2,6,70,0,0
12989,-54.054054054054,4,2,8,70,0,0
13308,-54.054054054054,4,2,2,70,0,0
13628,-54.054054054054,4,2,3,70,0,0
13787,-54.054054054054,4,2,6,70,0,0
13947,-54.054054054054,4,2,8,70,0,0
14106,-54.054054054054,4,2,6,70,0,0
14266,-54.054054054054,4,2,5,70,0,0
14425,-54.054054054054,4,2,6,70,0,0
14585,-54.054054054054,4,2,5,70,0,0
14745,-54.054054054054,4,2,6,70,0,0
14904,-54.054054054054,4,2,5,70,0,0
15064,-54.054054054054,4,2,3,70,0,0
15223,-54.054054054054,4,2,2,70,0,0
15383,-54.054054054054,4,2,3,70,0,0
15543,-54.054054054054,4,2,1,70,0,0
15862,-100,4,2,13,70,0,0
24798,-66.6666666666667,4,2,13,70,0,0
26074,-58.8235294117647,4,2,13,70,0,0
36128,-54.054054054054,4,2,5,70,0,0
36287,-54.054054054054,4,2,5,70,0,1
36606,-54.054054054054,4,2,6,70,0,1
36925,-54.054054054054,4,2,8,70,0,1
37245,-54.054054054054,4,2,10,70,0,1
37404,-54.054054054054,4,2,11,70,0,1
37564,-54.054054054054,4,2,10,70,0,1
37723,-54.054054054054,4,2,11,70,0,1
37883,-54.054054054054,4,2,10,70,0,1
38043,-54.054054054054,4,2,11,70,0,1
38202,-54.054054054054,4,2,10,70,0,1
38362,-54.054054054054,4,2,8,70,0,1
38681,-54.054054054054,4,2,5,70,0,1
39159,-54.054054054054,4,2,6,70,0,1
39478,-54.054054054054,4,2,10,70,0,1
39638,-54.054054054054,4,2,8,70,0,1
39798,-54.054054054054,4,2,10,70,0,1
39957,-54.054054054054,4,2,11,70,0,1
40117,-54.054054054054,4,2,10,70,0,1
40276,-54.054054054054,4,2,11,70,0,1
40436,-54.054054054054,4,2,10,70,0,1
40596,-54.054054054054,4,2,11,70,0,1
40755,-54.054054054054,4,2,10,70,0,1
40915,-54.054054054054,4,2,8,70,0,1
41234,-54.054054054054,4,2,10,70,0,1
41553,-54.054054054054,4,2,8,75,0,1
41872,-54.054054054054,4,2,10,70,0,1
42191,-54.054054054054,4,2,8,75,0,1
42511,-54.054054054054,4,2,10,70,0,1
42830,-54.054054054054,4,2,8,75,0,1
43149,-54.054054054054,4,2,6,70,0,1
43468,-54.054054054054,4,2,8,70,0,1
43628,-54.054054054054,4,2,10,70,0,1
43787,-54.054054054054,4,2,11,70,0,1
43947,-54.054054054054,4,2,12,70,0,1
44266,-54.054054054054,4,2,11,70,0,1
44585,-54.054054054054,4,2,10,70,0,1
44904,-54.054054054054,4,2,11,70,0,1
45064,-54.054054054054,4,2,10,70,0,1
45223,-66.6666666666667,4,2,8,70,0,0
45383,-66.6666666666667,4,2,10,70,0,0
45543,-66.6666666666667,4,2,11,70,0,0
45702,-66.6666666666667,4,2,11,70,0,0
45862,-66.6666666666667,4,2,10,70,0,0
46021,-66.6666666666667,4,2,8,70,0,0
46340,-66.6666666666667,4,2,2,70,0,0
46500,-54.054054054054,4,2,2,74,0,1
46819,-54.054054054054,4,2,4,74,0,1
47138,-54.054054054054,4,2,6,74,0,1
47457,-54.054054054054,4,2,7,74,0,1
47617,-54.054054054054,4,2,9,74,0,1
47777,-54.054054054054,4,2,7,74,0,1
47936,-54.054054054054,4,2,9,74,0,1
48096,-54.054054054054,4,2,7,74,0,1
48255,-54.054054054054,4,2,9,74,0,1
48415,-54.054054054054,4,2,7,74,0,1
48574,-54.054054054054,4,2,6,74,0,1
48893,-54.054054054054,4,2,2,74,0,1
49372,-54.054054054054,4,2,4,74,0,1
49691,-54.054054054054,4,2,6,74,0,1
50010,-54.054054054054,4,2,7,74,0,1
50170,-54.054054054054,4,2,9,74,0,1
50330,-54.054054054054,4,2,7,74,0,1
50489,-54.054054054054,4,2,9,74,0,1
50649,-54.054054054054,4,2,7,74,0,1
50808,-54.054054054054,4,2,9,74,0,1
50968,-54.054054054054,4,2,7,74,0,1
51127,-54.054054054054,4,2,6,74,0,1
51447,-54.054054054054,4,2,7,74,0,1
51766,-54.054054054054,4,2,6,77,0,1
52085,-54.054054054054,4,2,7,74,0,1
52404,-54.054054054054,4,2,6,77,0,1
52723,-54.054054054054,4,2,7,74,0,1
53043,-54.054054054054,4,2,6,77,0,1
53362,-54.054054054054,4,2,4,74,0,1
53681,-54.054054054054,4,2,6,74,0,1
53840,-54.054054054054,4,2,7,74,0,1
54000,-54.054054054054,4,2,9,74,0,1
54160,-54.054054054054,4,2,11,74,0,1
54479,-54.054054054054,4,2,9,74,0,1
54798,-54.054054054054,4,2,7,74,0,1
55117,-54.054054054054,4,2,9,74,0,1
55277,-54.054054054054,4,2,7,74,0,1
55436,-54.054054054054,4,2,6,74,0,1
55596,-54.054054054054,4,2,7,74,0,1
55755,-54.054054054054,4,2,9,74,0,1
55915,-54.054054054054,4,2,7,74,0,1
56234,-54.054054054054,4,2,6,74,0,1
56553,-54.054054054054,4,2,2,74,0,1
56713,-136.986301369863,4,2,13,60,0,0
59106,-100,4,2,13,60,0,0
64372,-66.6666666666667,4,2,13,60,0,0
66925,-54.054054054054,4,2,11,80,0,1
67085,-54.054054054054,4,2,10,70,0,1
67245,-54.054054054054,4,2,8,70,0,1
67404,-54.054054054054,4,2,5,70,0,1
67564,-54.054054054054,4,2,6,80,0,1
67883,-54.054054054054,4,2,8,70,0,1
68043,-54.054054054054,4,2,6,70,0,1
68202,-54.054054054054,4,2,5,80,0,1
68362,-54.054054054054,4,2,6,70,0,1
68521,-54.054054054054,4,2,8,80,0,1
68840,-54.054054054054,4,2,5,80,0,1
69000,-54.054054054054,4,2,6,70,0,1
69160,-54.054054054054,4,2,8,80,0,1
69479,-54.054054054054,4,2,11,70,0,1
69639,-54.054054054054,4,2,10,70,0,1
69799,-54.054054054054,4,2,8,70,0,1
69958,-54.054054054054,4,2,5,70,0,1
70118,-54.054054054054,4,2,6,80,0,1
70436,-54.054054054054,4,2,8,70,0,1
70596,-54.054054054054,4,2,6,70,0,1
70755,-54.054054054054,4,2,5,80,0,1
70915,-54.054054054054,4,2,6,70,0,1
71074,-54.054054054054,4,2,8,70,0,1
71234,-54.054054054054,4,2,6,70,0,1
71394,-54.054054054054,4,2,2,80,0,1
71553,-54.054054054054,4,2,3,70,0,1
71713,-54.054054054054,4,2,6,70,0,1
71872,-54.054054054054,4,2,8,70,0,1
72032,-54.054054054054,4,2,11,80,0,1
72192,-54.054054054054,4,2,10,70,0,1
72352,-54.054054054054,4,2,8,70,0,1
72511,-54.054054054054,4,2,5,70,0,1
72671,-54.054054054054,4,2,6,80,0,1
72990,-54.054054054054,4,2,8,70,0,1
73150,-54.054054054054,4,2,6,70,0,1
73309,-54.054054054054,4,2,5,80,0,1
73469,-54.054054054054,4,2,6,70,0,1
73628,-54.054054054054,4,2,8,80,0,1
73947,-54.054054054054,4,2,5,80,0,1
74107,-54.054054054054,4,2,6,70,0,1
74267,-54.054054054054,4,2,8,80,0,1
74585,-54.054054054054,4,2,2,80,0,1
74904,-54.054054054054,4,2,3,70,0,1
75064,-54.054054054054,4,2,6,70,0,1
75223,-54.054054054054,4,2,8,80,0,1
75383,-54.054054054054,4,2,6,70,0,1
75543,-54.054054054054,4,2,5,70,0,1
75702,-54.054054054054,4,2,6,70,0,1
75862,-54.054054054054,4,2,5,80,0,1
76021,-54.054054054054,4,2,6,70,0,1
76181,-54.054054054054,4,2,5,80,0,1
76340,-54.054054054054,4,2,3,70,0,1
76500,-54.054054054054,4,2,2,80,0,1
76660,-54.054054054054,4,2,3,70,0,1
76819,-54.054054054054,4,2,1,80,0,1
77138,-66.6666666666667,4,2,13,60,0,0
82245,-58.8235294117647,4,2,13,60,0,0
87191,-100,4,2,13,60,0,0
87351,-100,4,2,13,5,0,0

[Colours]
Combo1 : 255,0,128
Combo2 : 128,0,128

[HitObjects]
328,38,543,6,0,P|295:70|284:130,1,105.000004005432,4|0,1:2|0:0,0:0:0:0:
377,116,1021,2,0,P|428:109|475:133,1,105.000004005432,0|0,0:0|0:0,0:0:0:0:
430,301,1500,2,0,P|436:250|413:203,1,105.000004005432,0|0,0:0|0:0,0:0:0:0:
342,264,1978,2,0,P|305:301|255:311,1,105.000004005432,0|0,0:0|0:0,0:0:0:0:
262,217,2457,5,0,0:0:0:0:
168,225,2617,1,0,1:2:0:0:
283,126,2777,1,0,1:2:0:0:
262,217,2936,1,0,1:2:0:0:
201,77,3096,6,0,P|237:39|288:29,1,105.000004005432,2|0,1:2|0:0,0:0:0:0:
168,225,3574,2,0,P|116:231|70:208,1,105.000004005432,0|8,0:0|0:2,0:0:0:0:
37,119,4053,1,8,0:2:0:0:
15,324,4213,1,8,0:2:0:0:
15,324,4293,1,8,0:2:0:0:
15,324,4372,5,8,1:2:0:0:
262,217,4532,1,8,0:2:0:0:
70,208,4691,1,8,0:2:0:0:
175,323,4851,1,8,0:2:0:0:
175,323,4931,1,8,0:2:0:0:
175,323,5011,5,8,0:2:0:0:
219,73,5170,1,8,0:2:0:0:
219,73,5250,1,8,0:2:0:0:
219,73,5330,2,0,L|164:66,1,52.5000020027161,8|0,0:2|0:0,0:0:0:0:
286,247,5489,2,0,L|340:240,1,52.5000020027161,8|8,0:2|0:2,0:0:0:0:
83,228,5649,6,0,B|99:260|83:292|83:292|67:324|83:356,1,129.499999505997,6|2,1:2|0:2,0:0:0:0:
241,183,5968,2,0,B|213:147|213:147|117:135,1,129.499999505997,10|2,0:2|0:2,0:0:0:0:
175,323,6287,2,0,P|227:364|296:355,1,129.499999505997,2|0,1:2|0:0,0:0:0:0:
449,223,6606,5,10,0:2:0:0:
415,344,6766,1,2,0:2:0:0:
337,150,6925,1,2,1:2:0:0:
288,355,7085,1,2,0:2:0:0:
237,235,7245,2,0,L|105:251,1,129.499999505997,10|0,0:2|0:0,0:0:0:0:
51,37,7564,5,2,1:2:0:0:
100,242,7724,1,2,0:2:0:0:
200,126,7884,2,0,L|331:142,1,129.499999505997,10|0,0:2|0:0,0:0:0:0:
447,347,8202,6,0,B|432:318|448:286|448:286|464:254|448:222,1,129.499999505997,2|2,1:2|0:2,0:0:0:0:
433,78,8521,2,0,B|387:83|387:83|335:149,1,129.499999505997,10|2,0:2|0:2,0:0:0:0:
296,324,8840,2,0,P|228:343|171:320,1,129.499999505997,2|0,1:2|0:0,0:0:0:0:
178,145,9160,1,10,0:2:0:0:
237,235,9319,1,2,0:2:0:0:
333,46,9479,5,2,1:2:0:0:
285,140,9638,1,2,0:2:0:0:
119,56,9798,1,10,0:2:0:0:
226,51,9957,1,2,0:2:0:0:
22,245,10117,5,2,1:2:0:0:
13,61,10277,1,2,0:2:0:0:
178,145,10436,1,10,0:2:0:0:
130,239,10596,1,2,0:2:0:0:
344,230,10755,6,0,B|360:262|344:294|344:294|328:326|344:358,1,129.499999505997,6|2,1:2|0:2,0:0:0:0:
259,184,11074,2,0,B|287:148|287:148|383:136,1,129.499999505997,10|2,0:2|0:2,0:0:0:0:
207,286,11394,2,0,P|155:327|86:318,1,129.499999505997,2|0,1:2|0:0,0:0:0:0:
71,150,11713,5,10,0:2:0:0:
130,239,11872,1,2,0:2:0:0:
146,59,12032,1,2,1:2:0:0:
79,142,12191,1,2,0:2:0:0:
237,105,12351,2,0,L|371:121,1,129.499999505997,10|0,0:2|0:0,0:0:0:0:
358,277,12670,5,2,1:2:0:0:
425,194,12829,1,2,0:2:0:0:
259,239,12989,2,0,L|124:255,1,129.499999505997,10|0,0:2|0:0,0:0:0:0:
72,25,13308,6,0,B|88:57|72:89|72:89|56:121|72:153,1,129.499999505997,2|0,1:2|0:0,0:0:0:0:
355,42,13628,1,10,0:2:0:0:
237,105,13787,1,2,0:2:0:0:
393,259,13947,5,2,1:2:0:0:
453,137,14106,1,2,0:2:0:0:
259,239,14266,1,10,0:2:0:0:
308,365,14425,1,2,0:2:0:0:
462,128,14585,5,10,1:2:0:0:
249,229,14745,1,10,0:2:0:0:
344,31,14904,1,2,1:2:0:0:
405,271,15064,1,10,0:2:0:0:
180,47,15223,5,10,1:2:0:0:
140,355,15383,1,2,0:2:0:0:
140,355,15463,1,8,0:2:0:0:
140,355,15543,2,0,L|63:345,3,64.7499997529984,10|8|8|8,0:2|0:2|0:2|0:2,0:0:0:0:
30,341,15862,5,6,1:2:0:0:
215,5,16181,1,2,0:2:0:0:
237,105,16340,1,0,1:2:0:0:
139,74,16500,1,0,0:0:0:0:
139,74,16819,1,0,0:0:0:0:
313,36,17138,6,0,B|340:87|340:87|321:169,1,140,2|2,1:2|0:2,0:0:0:0:
419,243,17617,2,0,B|392:192|392:192|411:110,1,140,0|2,1:2|0:2,0:0:0:0:
495,174,18096,1,2,0:2:0:0:
499,170,18255,1,0,0:0:0:0:
343,312,18415,5,2,1:2:0:0:
223,181,18734,1,2,0:2:0:0:
245,281,18893,1,0,1:2:0:0:
321,212,19053,1,0,0:0:0:0:
321,212,19373,1,0,1:2:0:0:
169,350,19691,6,0,L|26:332,1,140,2|2,1:2|0:2,0:0:0:0:
106,263,20170,2,0,L|248:280,1,140,0|2,1:2|0:2,0:0:0:0:
201,81,20649,1,2,0:2:0:0:
223,181,20808,1,0,0:0:0:0:
125,150,20968,5,2,1:2:0:0:
299,112,21287,1,2,0:2:0:0:
201,81,21446,1,0,1:2:0:0:
223,181,21606,1,0,0:0:0:0:
223,181,21925,1,0,1:2:0:0:
375,43,22245,6,0,B|391:79|375:111|375:111|359:143|375:179,1,140,2|2,1:2|0:2,0:0:0:0:
512,135,22723,2,0,L|442:143,1,70,0|0,1:2|0:0,0:0:0:0:
278,12,23043,1,2,0:2:0:0:
299,112,23202,1,2,0:2:0:0:
223,181,23362,1,0,0:0:0:0:
284,6,23521,5,2,1:2:0:0:
305,106,23681,1,2,0:0:0:0:
327,207,23840,1,2,0:2:0:0:
244,282,24000,2,0,L|157:271,1,70,0|0,1:2|0:0,0:0:0:0:
99,44,24319,5,0,1:2:0:0:
22,113,24478,1,0,1:2:0:0:
44,215,24638,1,0,0:0:0:0:
244,282,24798,5,8,0:2:0:0:
244,282,24878,1,8,0:2:0:0:
244,282,24957,1,8,0:2:0:0:
127,152,25117,1,0,1:2:0:0:
72,324,25277,1,8,0:2:0:0:
72,324,25356,1,8,0:2:0:0:
72,324,25436,1,8,0:2:0:0:
22,113,25596,5,0,1:2:0:0:
171,357,25755,1,8,0:2:0:0:
202,379,25834,1,8,0:2:0:0:
241,388,25914,1,8,0:2:0:0:
279,381,25994,1,8,0:2:0:0:
312,360,26074,5,4,1:2:0:0:
399,218,26234,1,2,0:2:0:0:
244,282,26394,1,8,0:2:0:0:
408,320,26553,1,2,0:2:0:0:
298,194,26713,1,0,1:2:0:0:
312,360,26872,1,2,0:2:0:0:
414,209,27032,2,0,L|428:86,1,119.000002269745,8|2,0:2|0:2,0:0:0:0:
184,191,27351,6,0,B|210:175|242:191|242:191|274:207|302:191,1,119.000002269745,0|2,1:2|0:2,0:0:0:0:
201,77,27670,1,8,0:2:0:0:
50,209,27830,1,2,0:2:0:0:
97,12,27989,1,0,1:2:0:0:
176,199,28149,1,2,0:2:0:0:
4,94,28308,1,8,0:2:0:0:
209,69,28468,1,2,0:2:0:0:
42,217,28628,5,0,1:2:0:0:
229,322,28787,1,2,0:2:0:0:
34,225,28947,1,8,0:2:0:0:
311,182,29106,2,0,P|365:224|385:278,1,119.000002269745,2|0,0:2|1:2,0:0:0:0:
504,80,29425,2,0,P|450:122|430:176,1,119.000002269745,2|8,0:2|0:2,0:0:0:0:
320,56,29745,6,0,B|292:20|292:20|212:10,1,119.000002269745,2|0,0:2|1:2,0:0:0:0:
126,90,30064,2,0,B|161:117|161:117|241:108,1,119.000002269745,2|8,0:2|0:2,0:0:0:0:
12,25,30383,2,0,L|26:144,1,119.000002269745,2|0,0:2|1:2,0:0:0:0:
111,208,30702,2,0,L|126:80,1,119.000002269745,2|8,0:2|0:2,0:0:0:0:
13,307,31021,2,0,B|39:291|71:307|71:307|103:323|131:307,1,119.000002269745,2|0,0:2|1:2,0:0:0:0:
216,121,31340,5,2,0:2:0:0:
111,208,31500,1,8,0:2:0:0:
332,194,31660,2,0,P|352:259|329:322,1,119.000002269745,2|0,0:2|1:2,0:0:0:0:
111,208,31979,5,2,0:2:0:0:
161,334,32139,1,8,0:2:0:0:
216,121,32298,2,0,B|180:92|180:92|100:102,1,119.000002269745,2|0,0:2|1:2,0:0:0:0:
332,194,32617,5,2,0:2:0:0:
111,208,32777,1,8,0:2:0:0:
297,326,32936,2,0,L|443:343,1,119.000002269745,2|0,0:2|1:2,0:0:0:0:
419,156,33255,6,0,B|384:147|349:167|332:194|332:194|296:178|296:178|279:206|251:221|213:221,1,238.00000453949,2|2,0:2|0:2,0:0:0:0:
73,122,33734,2,0,B|64:156|84:191|111:208|111:208|95:244|95:244|123:261|138:289|138:327,2,238.00000453949,0|8|0,1:2|0:2|1:2,0:0:0:0:
132,11,34532,5,2,0:2:0:0:
192,100,34691,1,8,0:2:0:0:
84,107,34851,1,0,1:2:0:0:
84,107,35011,1,0,1:2:0:0:
84,107,35649,5,8,0:2:0:0:
353,129,35808,1,8,0:2:0:0:
96,272,35968,1,8,0:2:0:0:
96,272,36048,1,8,0:2:0:0:
96,272,36128,6,0,B|128:256|160:272|160:272|192:288|224:272,1,129.499999505997,6|0,1:2|1:2,0:0:0:0:
353,129,36447,1,2,0:2:0:0:
191,203,36606,1,10,0:2:0:0:
366,239,36766,1,2,0:2:0:0:
137,108,36925,5,2,1:2:0:0:
317,25,37085,1,2,0:2:0:0:
265,284,37245,1,10,0:2:0:0:
246,108,37404,1,2,0:2:0:0:
355,349,37564,5,2,1:2:0:0:
455,173,37723,1,2,0:2:0:0:
157,307,37883,2,0,L|28:291,1,129.499999505997,10|2,0:2|0:2,0:0:0:0:
137,108,38202,1,2,1:2:0:0:
191,203,38362,1,2,0:2:0:0:
301,13,38521,1,8,0:2:0:0:
265,284,38681,6,0,B|317:308|364:266|364:266|405:290|405:290|453:260|505:283,1,258.999999011993,2|2,0:2|0:2,0:0:0:0:
412,15,39160,1,10,0:2:0:0:
300,203,39319,1,2,0:2:0:0:
301,13,39479,5,2,1:2:0:0:
410,204,39638,1,2,0:2:0:0:
246,108,39798,1,10,0:2:0:0:
245,299,39957,1,2,0:2:0:0:
356,109,40117,5,2,1:2:0:0:
191,203,40277,1,2,0:2:0:0:
192,13,40436,1,10,0:2:0:0:
300,203,40596,1,2,0:2:0:0:
136,107,40755,1,2,1:2:0:0:
135,298,40915,1,2,0:2:0:0:
246,108,41074,1,8,0:2:0:0:
16,204,41234,6,0,B|48:188|80:204|80:204|112:220|144:204,1,129.499999505997,2|0,0:2|1:2,0:0:0:0:
253,316,41553,2,0,B|225:330|193:314|193:314|161:298|129:314,1,129.499999505997,2|8,0:2|0:2,0:0:0:0:
431,359,41872,6,0,B|399:327|399:327|399:231,1,129.499999505997,2|0,0:2|1:2,0:0:0:0:
459,92,42191,2,0,B|491:124|491:124|491:220,1,129.499999505997,2|8,0:2|0:2,0:0:0:0:
191,32,42511,6,0,P|128:24|80:65,1,129.499999505997,2|0,0:2|1:2,0:0:0:0:
264,152,42830,2,0,P|326:159|374:118,1,129.499999505997,2|8,0:2|0:2,0:0:0:0:
4,164,43149,6,0,B|20:196|4:228|4:228|-12:260|4:292,1,129.499999505997,2|0,0:2|1:2,0:0:0:0:
157,118,43468,1,2,0:2:0:0:
122,320,43628,1,10,0:2:0:0:
264,152,43787,1,2,0:2:0:0:
282,342,43947,6,0,P|341:363|402:342,1,129.499999505997,2|0,1:2|0:0,0:0:0:0:
185,242,44266,2,0,P|137:282|125:345,1,129.499999505997,10|0,0:2|0:0,0:0:0:0:
320,207,44585,2,0,P|308:145|260:103,1,129.499999505997,2|0,1:2|0:0,0:0:0:0:
288,336,44904,1,10,0:2:0:0:
461,166,45064,1,2,0:2:0:0:
191,236,45223,5,2,1:2:0:0:
423,301,45383,1,10,0:2:0:0:
423,301,45463,1,8,0:2:0:0:
423,301,45543,1,10,0:2:0:0:
364,68,45702,1,10,0:2:0:0:
288,336,45862,5,10,1:2:0:0:
288,336,45941,1,8,0:2:0:0:
288,336,46021,1,10,0:2:0:0:
470,157,46181,1,8,1:2:0:0:
470,157,46261,1,8,0:2:0:0:
470,157,46340,1,10,1:2:0:0:
41,270,46500,5,4,1:2:0:0:
311,200,46660,1,2,0:2:0:0:
52,98,46819,1,10,0:2:0:0:
202,333,46979,1,2,0:2:0:0:
219,55,47138,5,2,1:2:0:0:
369,290,47298,1,2,0:2:0:0:
110,189,47457,1,10,0:2:0:0:
386,118,47617,1,2,0:2:0:0:
97,361,47777,5,2,1:2:0:0:
318,193,47936,1,2,0:2:0:0:
41,270,48096,1,10,0:2:0:0:
377,298,48255,1,2,0:2:0:0:
52,98,48415,1,2,1:2:0:0:
373,27,48574,2,0,B|402:12|434:28|434:28|466:44|498:28,1,129.499999505997,2|8,0:2|0:2,0:0:0:0:
208,225,48894,6,0,B|213:176|213:176|201:143|201:143|207:95,1,129.499999505997,2|0,0:2|1:2,0:0:0:0:
41,270,49213,1,2,0:2:0:0:
120,14,49372,1,10,0:2:0:0:
217,234,49532,1,2,0:2:0:0:
42,88,49691,5,2,1:2:0:0:
32,279,49851,1,2,0:2:0:0:
219,55,50011,1,10,0:2:0:0:
202,333,50170,1,2,0:2:0:0:
143,123,50330,5,2,1:2:0:0:
301,372,50489,1,2,0:2:0:0:
379,119,50649,1,10,0:2:0:0:
194,345,50808,1,2,0:2:0:0:
322,29,50968,1,2,1:2:0:0:
386,374,51128,6,0,B|434:368|434:368|467:380|467:380|515:374,1,129.499999505997,2|8,0:2|0:2,0:0:0:0:
207,244,51447,6,0,P|145:259|116:314,1,129.499999505997,2|0,0:2|1:2,0:0:0:0:
336,271,51766,2,0,P|397:255|426:200,1,129.499999505997,2|8,0:2|0:2,0:0:0:0:
225,24,52085,6,0,B|141:34|141:34|113:69,1,129.499999505997,2|0,0:2|1:2,0:0:0:0:
314,154,52404,2,0,B|341:189|341:189|425:198,1,129.499999505997,2|8,0:2|0:2,0:0:0:0:
141,363,52723,6,0,L|125:233,1,129.499999505997,2|0,0:2|1:2,0:0:0:0:
237,11,53043,2,0,L|221:140,1,129.499999505997,2|8,0:2|0:2,0:0:0:0:
364,368,53362,6,0,B|396:384|428:368|428:368|460:352|492:368,1,129.499999505997,2|0,0:2|1:2,0:0:0:0:
402,121,53681,1,2,0:2:0:0:
305,251,53840,1,10,0:2:0:0:
308,40,54000,1,2,0:2:0:0:
64,356,54160,6,0,P|66:292|20:244,1,129.499999505997,2|8,1:2|0:2,0:0:0:0:
192,144,54399,1,8,0:2:0:0:
174,162,54479,2,0,B|146:197|146:197|157:292,1,129.499999505997,10|8,0:2|1:2,0:0:0:0:
411,112,54798,5,2,1:2:0:0:
411,112,54878,1,8,0:2:0:0:
411,112,54957,1,8,0:2:0:0:
294,262,55117,1,10,0:2:0:0:
254,30,55277,1,2,1:2:0:0:
247,68,55356,1,8,0:2:0:0:
273,92,55436,6,0,P|295:117|301:159,1,64.7499997529984,10|8,1:2|0:2,0:0:0:0:
465,173,55596,2,0,P|444:196|436:228,1,64.7499997529984,10|8,1:2|0:2,0:0:0:0:
374,297,55755,2,0,P|395:320|404:352,1,64.7499997529984,10|8,1:2|0:2,0:0:0:0:
269,212,55915,1,10,0:2:0:0:
257,254,55995,1,8,0:2:0:0:
230,280,56074,6,0,P|199:288|167:281,1,64.7499997529984,8|8,1:2|0:2,0:0:0:0:
78,338,56234,1,10,0:2:0:0:
59,299,56313,1,8,0:2:0:0:
59,256,56393,1,8,1:2:0:0:
78,218,56473,1,8,0:2:0:0:
97,179,56553,1,10,0:2:0:0:
96,137,56632,1,8,0:2:0:0:
78,99,56713,6,0,B|142:63|199:99|199:99|257:133|327:99|327:99|393:61|396:-2|302:-59|231:9|249:91|327:99|327:99|393:61|441:87|470:113,1,715.400019649048,12|0,1:2|0:0,0:0:0:0:
389,189,59106,5,0,1:2:0:0:
441,281,59266,2,0,B|389:309|341:281|341:281|293:253|241:281,1,210,0|0,1:2|0:0,0:0:0:0:
162,350,59904,2,0,P|220:384|287:371,1,140,0|0,0:0|0:0,0:0:0:0:
198,183,60383,1,0,0:0:0:0:
70,296,60543,6,0,L|-3:286,1,70,0|0,0:0|0:0,0:0:0:0:
91,194,60862,1,0,0:0:0:0:
241,280,61021,1,0,0:0:0:0:
70,296,61181,1,0,0:0:0:0:
221,78,61340,1,0,0:0:0:0:
91,194,61500,1,0,0:0:0:0:
127,23,61660,1,0,1:2:0:0:
241,280,61819,6,0,B|293:308|341:280|341:280|389:252|441:280,1,210,0|0,1:2|0:0,0:0:0:0:
390,356,62457,2,0,L|409:197,1,140,0|0,0:0|0:0,0:0:0:0:
315,141,62936,1,0,0:0:0:0:
228,232,63096,6,0,L|237:311,1,70,0|0,0:0|0:0,0:0:0:0:
304,128,63415,2,0,L|230:137,1,70,0|0,0:0|0:0,0:0:0:0:
390,66,63734,1,0,0:0:0:0:
465,141,63894,1,0,0:0:0:0:
390,216,64053,1,0,0:0:0:0:
288,39,64213,1,0,1:2:0:0:
240,310,64372,6,0,P|184:328|132:311,1,105.000004005432,8|0,0:2|0:0,0:0:0:0:
94,99,64691,1,0,0:0:0:0:
185,229,64851,1,8,0:2:0:0:
188,71,65011,5,0,0:0:0:0:
93,198,65170,1,0,0:0:0:0:
245,152,65330,1,8,0:2:0:0:
7,147,65489,1,0,0:0:0:0:
281,242,65649,5,0,1:2:0:0:
94,99,65808,1,8,0:2:0:0:
287,63,65968,1,8,0:2:0:0:
113,294,66128,1,8,0:2:0:0:
116,3,66287,5,8,0:2:0:0:
281,242,66447,1,0,0:2:0:0:
7,147,66606,1,8,0:2:0:0:
2,108,66685,1,8,0:2:0:0:
26,78,66765,1,8,0:2:0:0:
64,74,66845,1,8,0:2:0:0:
93,98,66925,5,6,1:2:0:0:
113,294,67085,1,2,0:2:0:0:
263,81,67245,1,10,0:2:0:0:
103,196,67405,1,2,0:2:0:0:
283,278,67564,2,0,B|315:294|347:278|347:278|379:262|411:278,1,129.499999505997,2|0,1:2|0:0,0:0:0:0:
343,22,67883,5,10,0:2:0:0:
273,179,68043,1,2,0:2:0:0:
173,40,68202,1,2,1:2:0:0:
353,122,68362,1,2,0:2:0:0:
103,196,68521,2,0,L|86:328,1,129.499999505997,10|0,0:2|0:0,0:0:0:0:
375,320,68841,5,2,1:2:0:0:
195,238,69001,1,2,0:2:0:0:
445,164,69160,2,0,L|461:31,1,129.499999505997,10|0,0:2|0:0,0:0:0:0:
315,237,69479,5,2,1:2:0:0:
255,52,69638,1,2,0:2:0:0:
195,238,69797,1,10,0:2:0:0:
353,122,69957,1,2,0:2:0:0:
157,123,70117,2,0,B|125:107|93:123|93:123|61:139|29:123,1,129.499999505997,2|0,1:2|0:0,0:0:0:0:
255,52,70436,5,10,0:2:0:0:
315,237,70595,1,2,0:2:0:0:
157,123,70755,5,2,1:2:0:0:
138,319,70914,1,2,0:2:0:0:
269,134,71074,1,10,0:2:0:0:
92,216,71234,1,2,0:2:0:0:
109,21,71393,5,2,1:2:0:0:
203,225,71553,1,2,0:2:0:0:
43,112,71712,1,10,0:2:0:0:
26,308,71872,1,2,0:2:0:0:
157,123,72032,6,0,L|310:141,1,129.499999505997,6|2,1:2|0:2,0:0:0:0:
427,249,72351,1,10,0:2:0:0:
203,225,72511,1,2,0:2:0:0:
337,44,72670,2,0,L|486:58,1,129.499999505997,2|0,1:2|0:0,0:0:0:0:
427,249,72989,5,10,0:2:0:0:
337,44,73149,1,2,0:2:0:0:
315,237,73308,1,2,1:2:0:0:
382,146,73468,1,2,0:2:0:0:
473,352,73628,2,0,B|441:368|409:352|409:352|377:336|345:352,1,129.499999505997,10|0,0:2|0:0,0:0:0:0:
270,134,73947,5,2,1:2:0:0:
248,327,74106,1,2,0:2:0:0:
140,140,74266,2,0,B|172:124|204:140|204:140|236:156|268:140,1,129.499999505997,10|0,0:2|0:0,0:0:0:0:
8,376,74585,6,0,B|2:328|2:328|14:295|14:295|8:247,1,129.499999505997,2|0,1:2|0:2,0:0:0:0:
65,115,74904,1,10,0:2:0:0:
164,170,75064,1,2,0:2:0:0:
227,68,75223,5,2,1:2:0:0:
80,206,75383,1,2,0:2:0:0:
167,0,75543,1,10,0:2:0:0:
239,223,75702,1,2,0:2:0:0:
86,36,75862,5,2,1:2:0:0:
115,281,76021,1,2,0:2:0:0:
286,5,76181,1,10,0:2:0:0:
4,158,76340,1,2,0:2:0:0:
384,139,76500,5,2,1:2:0:0:
3,20,76660,1,2,0:2:0:0:
124,380,76819,1,10,0:2:0:0:
140,353,76898,1,8,0:2:0:0:
167,336,76978,1,8,0:2:0:0:
195,319,77058,1,8,0:2:0:0:
213,293,77138,5,6,1:2:0:0:
285,351,77298,1,0,0:0:0:0:
362,301,77457,1,0,1:2:0:0:
338,211,77617,1,0,0:0:0:0:
415,160,77777,1,0,1:2:0:0:
415,160,78096,5,0,3:2:0:0:
338,211,78255,1,0,0:0:0:0:
265,152,78415,1,0,1:2:0:0:
187,203,78574,1,0,0:0:0:0:
114,143,78734,1,0,1:2:0:0:
114,143,79053,5,0,1:2:0:0:
98,236,79213,1,0,0:0:0:0:
187,203,79372,1,0,3:2:0:0:
187,203,79691,5,0,1:2:0:0:
114,143,79851,1,0,0:0:0:0:
147,56,80011,1,0,1:2:0:0:
240,61,80170,1,0,0:0:0:0:
265,152,80330,1,0,1:2:0:0:
265,152,80649,5,0,3:2:0:0:
345,100,80808,1,0,0:0:0:0:
418,160,80968,1,0,1:2:0:0:
498,108,81128,1,0,0:0:0:0:
424,49,81287,1,0,1:2:0:0:
424,49,81606,5,0,1:2:0:0:
418,160,81766,1,0,0:0:0:0:
412,270,81925,1,0,3:2:0:0:
320,210,82085,1,0,0:0:0:0:
313,338,82245,6,0,L|184:322,1,119.000002269745,0|0,1:2|0:0,0:0:0:0:
171,351,82564,2,0,L|42:366,1,119.000002269745,8|0,0:2|0:0,0:0:0:0:
8,264,82883,2,0,P|-12:208|4:144,1,119.000002269745,0|0,1:2|0:0,0:0:0:0:
92,112,83202,2,0,P|112:56|96:-8,1,119.000002269745,8|0,0:2|0:0,0:0:0:0:
328,4,83521,6,0,B|296:44|296:44|305:119,1,119.000002269745,0|0,1:2|0:0,0:0:0:0:
200,192,83840,2,0,B|231:232|231:232|222:307,1,119.000002269745,8|0,0:2|0:0,0:0:0:0:
477,350,84160,2,0,B|462:321|477:293|477:293|491:264|477:236,1,119.000002269745,0|0,1:2|0:0,0:0:0:0:
430,35,84479,2,0,B|415:63|430:91|430:91|444:120|430:148,1,119.000002269745,8|0,0:2|0:0,0:0:0:0:
307,189,84798,5,0,1:2:0:0:
275,113,84957,1,0,0:2:0:0:
226,178,85117,1,8,0:2:0:0:
356,124,85277,1,0,0:2:0:0:
258,254,85436,5,8,0:2:0:0:
226,178,85596,1,8,0:2:0:0:
194,102,85755,1,8,0:2:0:0:
209,320,85915,1,8,0:2:0:0:
388,200,86074,5,0,3:2:0:0:
95,233,86234,1,8,0:2:0:0:
95,233,86314,1,8,0:2:0:0:
95,233,86394,1,8,0:2:0:0:
324,48,86553,6,0,B|352:33|380:48|380:48|409:62|437:48,1,119.000002269745,4|0,1:2|0:0,0:0:0:0:
144,167,86872,1,8,0:2:0:0:
356,124,87032,1,8,0:2:0:0:
74,10,87191,6,0,B|15:25|-9:83|8:145|55:166|55:166|81:137|81:137|116:155|142:142|132:134|170:120|203:148,1,350,4|0,1:2|0:0,0:0:0:0:
