osu file format v14

[General]
AudioFilename: audio.mp3
AudioLeadIn: 0
PreviewTime: 35968
Countdown: 0
SampleSet: Soft
StackLeniency: 0.7
Mode: 0
LetterboxInBreaks: 0
WidescreenStoryboard: 1

[Editor]
Bookmarks: 543,5649,15862,26074,36287,56713,66925,77138,87351
DistanceSpacing: 1
BeatDivisor: 8
GridSize: 8
TimelineZoom: 4.899998

[Metadata]
Title:Uso no Hibana (TV Size)
TitleUnicode:嘘の火花
Artist:96neko
ArtistUnicode:96猫
Creator:Tanzeem
Version:Extra
Source:クズの本懐
Tags:Japanese Anime Scum's Wish Kuzu no Honkai xiqingwa fleuress Basensorex Lewski Lewdski
BeatmapID:2033846
BeatmapSetID:921183

[Difficulty]
HPDrainRate:5
CircleSize:4
OverallDifficulty:8
ApproachRate:9.3
SliderMultiplier:1.2
SliderTickRate:1

[Events]
//Background and Video events
0,0,"thumb.png",0,0
Video,0,"video.avi"
//Break Periods
//Storyboard Layer 0 (Background)
//Storyboard Layer 1 (Fail)
//Storyboard Layer 2 (Pass)
//Storyboard Layer 3 (Foreground)
//Storyboard Layer 4 (Overlay)
//Storyboard Sound Samples

[TimingPoints]
543,319.148936170213,4,2,13,60,1,0
543,-133.333333333333,4,2,13,60,0,0
4372,-66.6666666666667,4,2,13,60,0,0
5649,-54.054054054054,4,2,11,65,0,0
5808,-54.054054054054,4,2,10,70,0,0
5968,-54.054054054054,4,2,8,70,0,0
6128,-54.054054054054,4,2,5,70,0,0
6287,-54.054054054054,4,2,6,85,0,0
6606,-54.054054054054,4,2,8,70,0,0
6766,-54.054054054054,4,2,6,70,0,0
6925,-54.054054054054,4,2,5,80,0,0
7085,-54.054054054054,4,2,6,70,0,0
7245,-54.054054054054,4,2,8,85,0,0
7564,-54.054054054054,4,2,5,70,0,0
7723,-54.054054054054,4,2,6,70,0,0
7883,-54.054054054054,4,2,8,80,0,0
8202,-54.054054054054,4,2,11,70,0,0
8362,-54.054054054054,4,2,10,70,0,0
8521,-54.054054054054,4,2,8,70,0,0
8681,-54.054054054054,4,2,5,70,0,0
8840,-54.054054054054,4,2,6,70,0,0
9160,-54.054054054054,4,2,8,75,0,0
9319,-54.054054054054,4,2,6,70,0,0
9479,-54.054054054054,4,2,5,80,0,0
9638,-54.054054054054,4,2,6,70,0,0
9798,-54.054054054054,4,2,8,75,0,0
9957,-54.054054054054,4,2,6,75,0,0
10117,-54.054054054054,4,2,2,80,0,0
10277,-54.054054054054,4,2,3,70,0,0
10436,-54.054054054054,4,2,6,75,0,0
10596,-54.054054054054,4,2,8,70,0,0
10755,-54.054054054054,4,2,11,70,0,0
10915,-54.054054054054,4,2,10,70,0,0
11074,-54.054054054054,4,2,8,70,0,0
11234,-54.054054054054,4,2,5,70,0,0
11394,-54.054054054054,4,2,6,70,0,0
11713,-54.054054054054,4,2,8,70,0,0
11872,-54.054054054054,4,2,6,70,0,0
12032,-54.054054054054,4,2,5,80,0,0
12191,-54.054054054054,4,2,6,70,0,0
12351,-54.054054054054,4,2,8,80,0,0
12670,-54.054054054054,4,2,5,70,0,0
12830,-54.054054054054,4,2,6,70,0,0
12989,-54.054054054054,4,2,8,70,0,0
13308,-54.054054054054,4,2,2,70,0,0
13628,-54.054054054054,4,2,3,70,0,0
13787,-54.054054054054,4,2,6,70,0,0
13947,-54.054054054054,4,2,8,70,0,0
14106,-54.054054054054,4,2,6,70,0,0
14266,-54.054054054054,4,2,5,70,0,0
14425,-54.054054054054,4,2,6,70,0,0
14585,-54.054054054054,4,2,5,70,0,0
14745,-54.054054054054,4,2,6,70,0,0
14904,-54.054054054054,4,2,5,70,0,0
15064,-54.054054054054,4,2,3,70,0,0
15223,-54.054054054054,4,2,2,70,0,0
15383,-54.054054054054,4,2,3,70,0,0
15543,-54.054054054054,4,2,1,70,0,0
15862,-100,4,2,13,70,0,0
24798,-66.6666666666667,4,2,13,70,0,0
26074,-58.8235294117647,4,2,13,70,0,0
36128,-54.054054054054,4,2,5,70,0,0
36287,-54.054054054054,4,2,5,70,0,1
36606,-54.054054054054,4,2,6,70,0,1
36925,-54.054054054054,4,2,8,70,0,1
37245,-54.054054054054,4,2,10,70,0,1
37404,-54.054054054054,4,2,11,70,0,1
37564,-54.054054054054,4,2,10,70,0,1
37723,-54.054054054054,4,2,11,70,0,1
37883,-54.054054054054,4,2,10,70,0,1
38043,-54.054054054054,4,2,11,70,0,1
38202,-54.054054054054,4,2,10,70,0,1
38362,-54.054054054054,4,2,8,70,0,1
38681,-54.054054054054,4,2,5,70,0,1
39159,-54.054054054054,4,2,6,70,0,1
39478,-54.054054054054,4,2,10,70,0,1
39638,-54.054054054054,4,2,8,70,0,1
39798,-54.054054054054,4,2,10,70,0,1
39957,-54.054054054054,4,2,11,70,0,1
40117,-54.054054054054,4,2,10,70,0,1
40276,-54.054054054054,4,2,11,70,0,1
40436,-54.054054054054,4,2,10,70,0,1
40596,-54.054054054054,4,2,11,70,0,1
40755,-54.054054054054,4,2,10,70,0,1
40915,-54.054054054054,4,2,8,70,0,1
41234,-54.054054054054,4,2,10,70,0,1
41553,-54.054054054054,4,2,8,75,0,1
41872,-54.054054054054,4,2,10,70,0,1
42191,-54.054054054054,4,2,8,75,0,1
42511,-54.054054054054,4,2,10,70,0,1
42830,-54.054054054054,4,2,8,75,0,1
43149,-54.054054054054,4,2,6,70,0,1
43468,-54.054054054054,4,2,8,70,0,1
43628,-54.054054054054,4,2,10,70,0,1
43787,-54.054054054054,4,2,11,70,0,1
43947,-54.054054054054,4,2,12,70,0,1
44266,-54.054054054054,4,2,11,70,0,1
44585,-54.054054054054,4,2,10,70,0,1
44904,-54.054054054054,4,2,11,70,0,1
45064,-54.054054054054,4,2,10,70,0,1
45223,-66.6666666666667,4,2,8,70,0,0
45383,-66.6666666666667,4,2,10,70,0,0
45543,-66.6666666666667,4,2,11,70,0,0
45702,-66.6666666666667,4,2,11,70,0,0
45862,-66.6666666666667,4,2,10,70,0,0
46021,-66.6666666666667,4,2,8,70,0,0
46340,-66.6666666666667,4,2,2,70,0,0
46500,-54.054054054054,4,2,2,74,0,1
46819,-54.054054054054,4,2,4,74,0,1
47138,-54.054054054054,4,2,6,74,0,1
47457,-54.054054054054,4,2,7,74,0,1
47617,-54.054054054054,4,2,9,74,0,1
47777,-54.054054054054,4,2,7,74,0,1
47936,-54.054054054054,4,2,9,74,0,1
48096,-54.054054054054,4,2,7,74,0,1
48255,-54.054054054054,4,2,9,74,0,1
48415,-54.054054054054,4,2,7,74,0,1
48574,-54.054054054054,4,2,6,74,0,1
48893,-54.054054054054,4,2,2,74,0,1
49372,-54.054054054054,4,2,4,74,0,1
49691,-54.054054054054,4,2,6,74,0,1
50010,-54.054054054054,4,2,7,74,0,1
50170,-54.054054054054,4,2,9,74,0,1
50330,-54.054054054054,4,2,7,74,0,1
50489,-54.054054054054,4,2,9,74,0,1
50649,-54.054054054054,4,2,7,74,0,1
50808,-54.054054054054,4,2,9,74,0,1
50968,-54.054054054054,4,2,7,74,0,1
51127,-54.054054054054,4,2,6,74,0,1
51447,-54.054054054054,4,2,7,74,0,1
51766,-54.054054054054,4,2,6,77,0,1
52085,-54.054054054054,4,2,7,74,0,1
52404,-54.054054054054,4,2,6,77,0,1
52723,-54.054054054054,4,2,7,74,0,1
53043,-54.054054054054,4,2,6,77,0,1
53362,-54.054054054054,4,2,4,74,0,1
53681,-54.054054054054,4,2,6,74,0,1
53840,-54.054054054054,4,2,7,74,0,1
54000,-54.054054054054,4,2,9,74,0,1
54160,-54.054054054054,4,2,11,74,0,1
54479,-54.054054054054,4,2,9,74,0,1
54798,-54.054054054054,4,2,7,74,0,1
55117,-54.054054054054,4,2,9,74,0,1
55277,-54.054054054054,4,2,7,74,0,1
55436,-54.054054054054,4,2,6,74,0,1
55596,-54.054054054054,4,2,7,74,0,1
55755,-54.054054054054,4,2,9,74,0,1
55915,-54.054054054054,4,2,7,74,0,1
56234,-54.054054054054,4,2,6,74,0,1
56553,-54.054054054054,4,2,2,74,0,1
56713,-133.333333333333,4,2,13,60,0,0
59106,-100,4,2,13,60,0,0
64372,-66.6666666666667,4,2,13,60,0,0
66925,-54.054054054054,4,2,11,80,0,1
67085,-54.054054054054,4,2,10,70,0,1
67245,-54.054054054054,4,2,8,70,0,1
67404,-54.054054054054,4,2,5,70,0,1
67564,-54.054054054054,4,2,6,80,0,1
67883,-54.054054054054,4,2,8,70,0,1
68043,-54.054054054054,4,2,6,70,0,1
68202,-54.054054054054,4,2,5,80,0,1
68362,-54.054054054054,4,2,6,70,0,1
68521,-54.054054054054,4,2,8,80,0,1
68840,-54.054054054054,4,2,5,80,0,1
69000,-54.054054054054,4,2,6,70,0,1
69160,-54.054054054054,4,2,8,80,0,1
69479,-54.054054054054,4,2,11,70,0,1
69639,-54.054054054054,4,2,10,70,0,1
69799,-54.054054054054,4,2,8,70,0,1
69958,-54.054054054054,4,2,5,70,0,1
70118,-54.054054054054,4,2,6,80,0,1
70436,-54.054054054054,4,2,8,70,0,1
70596,-54.054054054054,4,2,6,70,0,1
70755,-54.054054054054,4,2,5,80,0,1
70915,-54.054054054054,4,2,6,70,0,1
71074,-54.054054054054,4,2,8,70,0,1
71234,-54.054054054054,4,2,6,70,0,1
71394,-54.054054054054,4,2,2,80,0,1
71553,-54.054054054054,4,2,3,70,0,1
71713,-54.054054054054,4,2,6,70,0,1
71872,-54.054054054054,4,2,8,70,0,1
72032,-54.054054054054,4,2,11,80,0,1
72192,-54.054054054054,4,2,10,70,0,1
72352,-54.054054054054,4,2,8,70,0,1
72511,-54.054054054054,4,2,5,70,0,1
72671,-54.054054054054,4,2,6,80,0,1
72990,-54.054054054054,4,2,8,70,0,1
73150,-54.054054054054,4,2,6,70,0,1
73309,-54.054054054054,4,2,5,80,0,1
73469,-54.054054054054,4,2,6,70,0,1
73628,-54.054054054054,4,2,8,80,0,1
73947,-54.054054054054,4,2,5,80,0,1
74107,-54.054054054054,4,2,6,70,0,1
74267,-54.054054054054,4,2,8,80,0,1
74585,-54.054054054054,4,2,2,80,0,1
74904,-54.054054054054,4,2,3,70,0,1
75064,-54.054054054054,4,2,6,70,0,1
75223,-54.054054054054,4,2,8,80,0,1
75383,-54.054054054054,4,2,6,70,0,1
75543,-54.054054054054,4,2,5,70,0,1
75702,-54.054054054054,4,2,6,70,0,1
75862,-54.054054054054,4,2,5,80,0,1
76021,-54.054054054054,4,2,6,70,0,1
76181,-54.054054054054,4,2,5,80,0,1
76340,-54.054054054054,4,2,3,70,0,1
76500,-54.054054054054,4,2,2,80,0,1
76660,-54.054054054054,4,2,3,70,0,1
76819,-54.054054054054,4,2,1,80,0,1
77138,-66.6666666666667,4,2,13,60,0,0
82245,-71.4285714285714,4,2,13,60,0,0
87191,-100,4,2,13,60,0,0
87351,-100,4,2,13,5,0,0

[Colours]
Combo1 : 255,0,128
Combo2 : 128,0,128

[HitObjects]
336,238,543,6,0,L|424:227,1,90.0000034332277,4|0,1:2|0:2,0:2:0:0:
283,166,1021,2,0,L|248:248,1,90.0000034332277,0|0,0:2|0:2,0:2:0:0:
371,156,1500,2,0,L|288:45,2,135.000005149841,0|0|0,0:2|0:2|0:2,0:2:0:0:
247,248,2617,5,0,1:2:0:0:
282,165,2777,1,0,1:2:0:0:
336,238,2936,1,0,1:2:0:0:
194,176,3096,6,0,L|102:187,1,90.0000034332277,2|0,1:2|0:2,0:2:0:0:
247,248,3574,2,0,L|282:163,1,90.0000034332277,0|8,0:2|0:2,0:2:0:0:
159,258,4053,1,8,0:2:0:0:
300,320,4213,1,8,0:2:0:0:
300,320,4293,1,8,0:2:0:0:
300,320,4372,5,8,1:2:0:0:
124,340,4532,1,8,0:2:0:0:
247,248,4691,1,8,0:2:0:0:
104,186,4851,1,8,0:2:0:0:
104,186,4931,1,8,0:2:0:0:
104,186,5011,5,8,0:2:0:0:
212,330,5170,2,0,L|264:323,1,45.0000017166138,8|8,0:2|0:2,0:2:0:0:
281,164,5330,2,0,L|326:159,1,45.0000017166138,8|0,0:2|0:2,0:2:0:0:
390,306,5489,2,0,L|442:299,1,45.0000017166138,8|8,0:2|0:2,0:2:0:0:
459,140,5649,6,0,P|454:88|405:50,1,110.999999576569,6|2,1:2|0:2,0:2:0:0:
281,164,5968,2,0,B|308:128|308:128|300:56,1,110.999999576569,10|2,0:2|0:2,0:2:0:0:
134,84,6287,2,0,B|110:73|82:85|82:85|54:97|26:85,1,110.999999576569,2|0,1:2|0:2,0:2:0:0:
209,13,6606,1,10,0:2:0:0:
178,177,6766,1,2,0:2:0:0:
300,62,6925,5,2,1:2:0:0:
134,84,7085,1,2,0:2:0:0:
281,164,7245,2,0,L|392:177,1,110.999999576569,10|0,0:2|0:2,0:2:0:0:
280,372,7564,5,2,1:2:0:0:
446,350,7724,1,2,0:2:0:0:
299,270,7884,2,0,L|186:283,1,110.999999576569,10|0,0:2|0:2,0:2:0:0:
67,158,8202,6,0,P|84:108|141:83,1,110.999999576569,2|2,1:2|0:2,0:2:0:0:
188,283,8521,2,0,B|152:310|152:310|80:302,1,110.999999576569,10|2,0:2|0:2,0:2:0:0:
281,164,8840,2,0,B|304:153|332:164|332:164|360:176|388:164,1,110.999999576569,2|0,1:2|0:2,0:2:0:0:
235,70,9160,1,10,0:2:0:0:
204,236,9319,1,2,0:2:0:0:
132,83,9479,5,2,1:2:0:0:
113,187,9638,1,2,0:2:0:0:
32,118,9798,1,10,0:2:0:0:
13,223,9957,1,2,0:2:0:0:
52,14,10117,5,2,1:2:0:0:
113,187,10277,1,2,0:2:0:0:
235,70,10436,1,10,0:2:0:0:
132,83,10596,1,2,0:2:0:0:
305,267,10755,6,0,P|360:274|410:244,1,110.999999576569,6|2,1:2|0:2,0:2:0:0:
336,89,11074,2,0,B|299:62|299:62|228:70,1,110.999999576569,10|2,0:2|0:2,0:2:0:0:
113,187,11394,2,0,B|85:199|57:187|57:187|29:175|5:186,1,110.999999576569,2|0,1:2|0:2,0:2:0:0:
132,83,11713,1,10,0:2:0:0:
204,236,11872,1,2,0:2:0:0:
234,69,12032,5,2,1:2:0:0:
113,187,12191,1,2,0:2:0:0:
281,164,12351,2,0,L|400:178,1,110.999999576569,10|0,0:2|0:2,0:2:0:0:
204,236,12670,5,2,1:2:0:0:
325,354,12829,1,2,0:2:0:0:
157,331,12989,2,0,L|38:345,1,110.999999576569,10|0,0:2|0:2,0:2:0:0:
114,79,13308,6,0,B|126:107|114:135|114:135|102:163|113:187,1,110.999999576569,2|0,1:2|0:2,0:2:0:0:
281,164,13628,1,10,0:2:0:0:
204,236,13787,1,2,0:2:0:0:
234,69,13947,5,2,1:2:0:0:
281,164,14106,1,2,0:2:0:0:
401,44,14266,1,10,0:2:0:0:
234,69,14425,1,2,0:2:0:0:
385,148,14585,5,10,1:2:0:0:
204,236,14745,1,10,0:2:0:0:
403,272,14904,1,2,1:2:0:0:
281,164,15064,1,10,0:2:0:0:
317,324,15223,5,10,1:2:0:0:
127,308,15383,1,2,0:2:0:0:
127,308,15463,1,8,0:2:0:0:
127,308,15543,2,0,L|66:315,3,55.4999997882843,10|8|8|8,0:2|0:2|0:2|0:2,0:2:0:0:
19,323,15862,5,6,1:2:0:0:
171,59,16181,1,2,0:2:0:0:
123,142,16340,1,0,1:2:0:0:
76,59,16500,1,0,0:2:0:0:
76,59,16819,1,0,0:2:0:0:
170,225,17138,6,0,P|115:239|50:203,1,120,2|2,1:2|0:2,0:2:0:0:
123,142,17617,2,0,P|178:128|243:164,1,120,0|2,1:2|0:2,0:2:0:0:
170,225,18096,1,2,0:2:0:0:
219,307,18255,1,0,0:2:0:0:
312,285,18415,5,2,1:2:0:0:
312,285,18734,1,2,0:2:0:0:
284,376,18894,1,0,1:2:0:0:
219,307,19053,1,0,0:2:0:0:
219,307,19372,1,0,1:2:0:0:
377,354,19691,6,0,B|404:318|404:318|492:307,1,120,2|2,1:2|0:2,0:2:0:0:
500,198,20170,2,0,B|472:233|472:233|384:244,1,120,0|2,1:2|0:2,0:2:0:0:
341,77,20649,1,2,0:2:0:0:
369,160,20808,1,0,0:2:0:0:
397,242,20968,5,2,1:2:0:0:
283,142,21287,1,2,0:2:0:0:
225,207,21447,1,0,1:2:0:0:
311,225,21606,1,0,0:2:0:0:
311,225,21925,1,0,1:2:0:0:
197,124,22245,6,0,L|73:139,1,120,2|2,1:2|0:2,0:2:0:0:
44,34,22723,2,0,L|111:42,1,60,0|0,1:2|0:2,0:2:0:0:
51,235,23043,1,2,0:2:0:0:
77,138,23202,1,2,0:2:0:0:
103,41,23362,1,0,0:0:0:0:
148,209,23521,5,2,1:2:0:0:
77,138,23681,1,0,0:2:0:0:
148,209,23840,1,2,0:2:0:0:
219,280,24000,2,0,L|280:287,1,60,0|0,1:2|0:2,0:2:0:0:
51,234,24319,5,0,1:2:0:0:
148,209,24478,1,0,1:2:0:0:
245,183,24638,1,0,0:2:0:0:
77,138,24798,6,0,L|70:86,2,45.0000017166138,8|8|8,0:2|0:2|0:2,0:2:0:0:
122,305,25117,1,0,1:2:0:0:
245,183,25277,2,0,L|252:240,2,45.0000017166138,8|8|8,0:2|0:2|0:2,0:2:0:0:
122,305,25596,1,0,1:2:0:0:
271,87,25755,5,8,0:2:0:0:
299,99,25834,1,8,0:2:0:0:
322,119,25914,1,8,0:2:0:0:
338,145,25994,1,8,0:2:0:0:
344,175,26074,5,4,1:2:0:0:
219,280,26234,1,2,0:2:0:0:
383,271,26394,1,8,0:2:0:0:
245,183,26553,1,2,0:2:0:0:
304,335,26713,2,0,B|324:362|324:362|392:371,1,102.000001945496,0|2,1:2|0:2,0:2:0:0:
476,284,27032,2,0,B|449:262|449:262|381:270,1,102.000001945496,8|2,0:2|0:2,0:2:0:0:
245,183,27351,6,0,B|266:172|292:183|292:183|317:194|343:183,1,102.000001945496,0|2,1:2|0:2,0:2:0:0:
348,11,27670,1,8,0:2:0:0:
317,99,27830,1,2,0:2:0:0:
194,7,27989,1,0,1:2:0:0:
223,98,28149,1,2,0:2:0:0:
70,94,28308,1,8,0:2:0:0:
100,6,28468,1,2,0:2:0:0:
145,151,28628,5,0,1:2:0:0:
194,7,28787,1,2,0:2:0:0:
70,94,28947,1,8,0:2:0:0:
230,193,29106,2,0,B|220:214|230:240|230:240|242:265|230:291,1,102.000001945496,2|0,0:2|1:2,0:2:0:0:
153,369,29425,2,0,B|163:348|153:322|153:322|141:297|153:271,1,102.000001945496,2|8,0:2|0:2,0:2:0:0:
304,312,29745,6,0,L|409:312,1,102.000001945496,2|0,0:2|1:2,0:2:0:0:
484,224,30064,2,0,L|379:224,1,102.000001945496,2|8,0:2|0:2,0:2:0:0:
379,37,30383,2,0,P|427:21|475:37,1,102.000001945496,2|0,0:2|1:2,0:2:0:0:
480,132,30702,2,0,P|432:148|384:132,1,102.000001945496,2|8,0:2|0:2,0:2:0:0:
234,40,31021,2,0,B|261:60|261:60|270:128,1,102.000001945496,2|0,0:2|1:2,0:2:0:0:
32,100,31340,5,2,0:2:0:0:
133,70,31500,1,8,0:2:0:0:
108,172,31660,2,0,L|95:277,1,102.000001945496,2|0,0:2|1:2,0:2:0:0:
297,333,31979,5,2,0:2:0:0:
196,303,32139,1,8,0:2:0:0:
272,231,32299,2,0,L|259:125,1,102.000001945496,2|0,0:2|0:2,0:2:0:0:
461,69,32616,5,2,0:2:0:0:
360,99,32776,1,8,0:2:0:0:
436,171,32936,2,0,L|423:276,1,102.000001945496,2|0,0:2|1:2,0:2:0:0:
254,246,33255,6,0,B|228:229|194:233|172:250|172:250|148:226|148:226|125:242|99:243|68:230,1,204.000003890991,2|2,0:2|0:2,0:2:0:0:
73,148,33734,2,0,B|90:174|86:208|69:230|69:230|93:254|93:254|77:277|76:303|89:334,2,204.000003890991,0|8|0,1:2|0:2|1:2,0:2:0:0:
199,24,34532,5,2,0:2:0:0:
136,86,34691,1,8,0:2:0:0:
222,110,34851,1,0,1:2:0:0:
222,110,35011,1,0,1:2:0:0:
222,110,35649,5,8,0:2:0:0:
50,62,35808,1,8,0:2:0:0:
95,235,35968,1,8,0:2:0:0:
95,235,36048,1,8,0:2:0:0:
95,235,36128,6,0,B|117:224|146:235|146:235|173:248|202:235,1,110.999999576569,6|0,1:2|1:2,0:2:0:0:
394,158,36447,1,2,0:2:0:0:
222,110,36606,1,10,0:2:0:0:
372,72,36766,1,2,0:2:0:0:
244,196,36925,5,2,1:2:0:0:
416,244,37085,1,2,0:2:0:0:
308,134,37245,1,10,0:2:0:0:
458,96,37404,1,2,0:2:0:0:
330,220,37564,5,2,1:2:0:0:
502,268,37723,1,2,0:2:0:0:
288,368,37883,2,0,L|176:354,1,110.999999576569,10|2,0:2|0:2,0:2:0:0:
159,171,38202,1,2,1:2:0:0:
70,268,38362,2,0,L|181:254,1,110.999999576569,2|8,0:2|0:2,0:2:0:0:
328,30,38681,6,0,B|302:72|329:116|329:116|312:151|312:151|337:194|312:237,1,221.999999153137,2|2,0:2|0:2,0:2:0:0:
159,171,39160,1,10,0:2:0:0:
202,340,39319,1,2,0:2:0:0:
244,196,39479,5,2,1:2:0:0:
118,316,39638,1,2,0:2:0:0:
75,146,39798,1,10,0:2:0:0:
181,255,39957,1,2,0:2:0:0:
222,109,40117,5,2,1:2:0:0:
96,230,40277,1,2,0:2:0:0:
55,63,40436,1,10,0:2:0:0:
181,255,40596,1,2,0:2:0:0:
200,22,40755,1,2,1:2:0:0:
11,206,40915,2,0,L|-2:93,1,110.999999576569,2|8,0:2|0:2,0:2:0:0:
118,316,41234,6,0,B|81:289|81:289|10:297,1,110.999999576569,2|0,0:2|1:2,0:2:0:0:
143,228,41553,2,0,B|180:255|180:255|251:247,1,110.999999576569,2|8,0:2|0:2,0:2:0:0:
318,147,41872,6,0,L|194:161,1,110.999999576569,2|0,0:2|1:2,0:2:0:0:
235,340,42191,2,0,L|345:327,1,110.999999576569,2|8,0:2|0:2,0:2:0:0:
511,256,42511,6,0,P|523:203|500:154,1,110.999999576569,2|0,0:2|1:2,0:2:0:0:
398,170,42830,2,0,P|388:224|412:273,1,110.999999576569,2|8,0:2|0:2,0:2:0:0:
442,63,43149,6,0,B|418:73|390:62|390:62|363:49|334:62,1,110.999999576569,2|0,0:2|1:2,0:2:0:0:
200,132,43468,1,2,0:2:0:0:
352,154,43628,1,10,0:2:0:0:
243,49,43787,1,2,0:2:0:0:
266,199,43947,6,0,L|148:184,1,110.999999576569,2|0,1:2|0:2,0:2:0:0:
28,112,44266,2,0,L|145:97,1,110.999999576569,10|0,0:2|0:2,0:2:0:0:
172,273,44585,2,0,L|61:286,1,110.999999576569,2|0,1:2|0:2,0:2:0:0:
155,185,44904,1,10,0:2:0:0:
188,360,45064,1,2,0:2:0:0:
266,199,45223,5,2,1:2:0:0:
107,281,45383,2,0,L|56:287,2,45.0000017166138,10|8|10,0:2|0:2|0:2,0:2:0:0:
286,308,45702,1,10,0:2:0:0:
155,185,45862,6,0,L|104:178,2,45.0000017166138,10|8|10,1:2|0:2|0:2,0:2:0:0:
405,103,46181,1,8,1:2:0:0:
405,103,46261,1,8,0:2:0:0:
405,103,46340,1,10,1:2:0:0:
134,76,46500,5,4,1:2:0:0:
266,199,46660,1,2,0:2:0:0:
313,97,46819,1,10,0:2:0:0:
155,185,46979,1,2,0:2:0:0:
349,276,47138,5,2,1:2:0:0:
199,289,47298,1,2,0:2:0:0:
377,188,47457,1,10,0:2:0:0:
282,366,47617,1,2,0:2:0:0:
266,199,47777,5,2,1:2:0:0:
432,353,47936,1,2,0:2:0:0:
467,168,48096,1,10,0:2:0:0:
349,276,48255,1,2,0:2:0:0:
313,97,48415,1,2,1:2:0:0:
459,263,48574,2,0,L|340:276,1,110.999999576569,2|8,0:2|0:2,0:2:0:0:
202,84,48894,6,0,L|321:97,1,110.999999576569,2|0,0:2|1:2,0:2:0:0:
61,158,49213,1,2,0:2:0:0:
132,14,49372,1,10,0:2:0:0:
158,171,49532,1,2,0:2:0:0:
44,60,49691,5,2,1:2:0:0:
4,220,49851,1,2,0:2:0:0:
118,96,50011,1,10,0:2:0:0:
198,246,50170,1,2,0:2:0:0:
231,52,50330,5,2,1:2:0:0:
101,233,50489,1,2,0:2:0:0:
118,96,50649,1,10,0:2:0:0:
198,246,50808,1,2,0:2:0:0:
0,131,50968,1,2,1:2:0:0:
0,359,51128,2,0,B|32:379|32:379|103:371,1,110.999999576569,2|8,0:2|0:2,0:2:0:0:
102,119,51447,6,0,P|48:106|0:129,1,110.999999576569,2|0,0:2|1:2,0:2:0:0:
15,232,51766,2,0,P|68:242|118:218,1,110.999999576569,2|8,0:2|0:2,0:2:0:0:
310,147,52085,6,0,L|200:160,1,110.999999576569,2|0,0:2|1:2,0:2:0:0:
227,340,52404,2,0,L|337:327,1,110.999999576569,2|8,0:2|0:2,0:2:0:0:
411,168,52723,6,0,B|448:195|448:195|519:187,1,110.999999576569,2|0,0:2|1:2,0:2:0:0:
386,256,53043,2,0,B|349:229|349:229|278:237,1,110.999999576569,2|8,0:2|0:2,0:2:0:0:
412,60,53362,6,0,B|422:84|411:112|411:112|398:139|411:168,1,110.999999576569,2|0,0:2|1:2,0:2:0:0:
507,369,53681,1,2,0:2:0:0:
512,187,53840,1,10,0:2:0:0:
401,332,54000,1,2,0:2:0:0:
406,150,54160,6,0,B|382:140|354:151|354:151|327:164|298:151,1,110.999999576569,2|8,1:2|0:2,0:2:0:0:
247,91,54399,1,8,0:2:0:0:
247,91,54479,2,0,P|193:70|141:92,1,110.999999576569,10|8,0:2|1:2,0:2:0:0:
192,248,54798,6,0,L|183:317,2,55.4999997882843,2|8|8,1:2|0:2|0:2,0:2:0:0:
145,87,55117,1,10,0:2:0:0:
29,208,55277,2,0,L|102:217,1,55.4999997882843,2|8,1:2|0:2,0:2:0:0:
185,303,55436,5,10,1:2:0:0:
225,307,55515,1,8,0:2:0:0:
267,313,55595,1,10,1:2:0:0:
308,318,55675,1,8,0:2:0:0:
349,323,55755,2,0,L|414:331,3,55.4999997882843,10|8|10|8,1:2|0:2|0:2|0:2,0:2:0:0:
478,238,56074,6,0,L|485:175,1,55.4999997882843,8|8,1:2|0:2,0:2:0:0:
397,97,56234,2,0,L|404:160,1,55.4999997882843,10|8,0:2|0:2,0:2:0:0:
313,218,56394,2,0,L|320:155,1,55.4999997882843,8|8,1:2|0:2,0:2:0:0:
233,76,56553,2,0,L|240:139,1,55.4999997882843,10|8,0:2|0:2,0:2:0:0:
146,231,56713,6,0,B|101:276|114:341|114:341|66:276|114:180|114:180|164:85|92:46|92:46|25:68|44:130,1,540.000020599366,12|0,1:2|0:2,0:2:0:0:
40,115,59106,5,0,1:2:0:0:
40,115,59266,2,0,B|84:91|125:115|125:115|166:138|210:115,1,180,0|0,1:2|0:2,0:2:0:0:
275,49,59904,2,0,P|222:23|165:36,1,120,0|0,0:2|0:2,0:2:0:0:
211,114,60383,1,0,0:2:0:0:
211,114,60543,6,0,L|220:194,1,60,0|0,0:2|0:2,0:2:0:0:
68,186,60862,2,0,L|147:201,1,60,0|0,0:2|0:2,0:2:0:0:
92,344,61181,2,0,L|131:273,1,60,0|0,0:2|0:2,0:2:0:0:
249,369,61500,1,0,0:2:0:0:
215,270,61660,1,0,1:2:0:0:
215,270,61819,6,0,B|259:246|300:270|300:270|341:293|385:270,1,180,0|0,1:2|0:2,0:2:0:0:
447,183,62457,2,0,L|461:63,1,120,0|0,0:2|0:2,0:2:0:0:
363,13,62936,1,0,0:2:0:0:
363,13,63096,6,0,L|372:88,1,60,0|0,0:2|0:2,0:2:0:0:
278,162,63415,2,0,L|285:102,1,60,0|0,0:2|0:2,0:2:0:0:
182,34,63734,1,0,0:2:0:0:
182,34,63894,2,0,L|191:113,1,60,0|0,0:2|0:2,0:2:0:0:
109,141,64213,1,0,1:2:0:0:
32,13,64372,6,0,B|56:57|32:98|32:98|9:139|32:183,1,180,8|0,0:2|0:2,0:2:0:0:
109,141,64851,1,8,0:2:0:0:
162,290,65011,2,0,L|174:186,1,90.0000034332277,0|0,0:2|0:2,0:2:0:0:
50,271,65330,2,0,L|60:360,1,90.0000034332277,8|0,0:2|0:2,0:2:0:0:
272,307,65649,5,0,1:2:0:0:
162,290,65808,1,8,0:2:0:0:
307,145,65968,1,8,0:2:0:0:
223,228,66127,1,8,0:2:0:0:
418,322,66287,1,8,0:2:0:0:
272,307,66447,1,0,0:2:0:0:
487,256,66606,5,8,0:2:0:0:
505,282,66685,1,8,0:2:0:0:
512,315,66765,1,8,0:2:0:0:
510,349,66845,1,8,0:2:0:0:
496,381,66925,6,0,B|474:370|446:382|446:382|418:394|389:381,1,110.999999576569,6|2,1:2|0:2,0:2:0:0:
223,228,67245,2,0,B|188:256|188:256|178:328,1,110.999999576569,10|2,0:2|0:2,0:2:0:0:
39,148,67564,2,0,P|92:139|135:171,1,110.999999576569,2|0,1:2|0:2,0:2:0:0:
356,138,67883,5,10,0:2:0:0:
223,228,68043,1,2,0:2:0:0:
384,233,68202,1,2,1:2:0:0:
255,135,68362,1,2,0:2:0:0:
402,60,68521,2,0,L|522:45,1,110.999999576569,10|0,0:2|0:2,0:2:0:0:
223,228,68841,5,2,1:2:0:0:
356,138,69000,1,2,0:2:0:0:
209,57,69160,2,0,L|89:42,1,110.999999576569,10|0,0:2|0:2,0:2:0:0:
302,289,69479,5,2,1:2:0:0:
356,138,69638,1,2,0:2:0:0:
223,228,69798,1,10,0:2:0:0:
304,55,69957,1,2,0:2:0:0:
384,233,70117,2,0,B|406:222|435:233|435:233|462:246|491:233,1,110.999999576569,2|0,1:2|0:2,0:2:0:0:
210,327,70436,5,10,0:2:0:0:
391,332,70596,1,2,0:2:0:0:
256,136,70755,5,2,1:2:0:0:
384,233,70915,1,2,0:2:0:0:
223,228,71074,1,10,0:2:0:0:
356,138,71234,1,2,0:2:0:0:
122,225,71394,5,2,1:2:0:0:
256,136,71554,1,2,0:2:0:0:
94,132,71713,1,10,0:2:0:0:
222,228,71873,1,2,0:2:0:0:
28,203,72032,6,0,P|-1:145|10:88,1,110.999999576569,6|2,1:2|0:2,0:2:0:0:
173,76,72351,1,10,0:2:0:0:
94,132,72511,1,2,0:2:0:0:
222,228,72670,2,0,P|200:289|151:320,1,110.999999576569,2|0,1:2|0:2,0:2:0:0:
173,76,72989,5,10,0:2:0:0:
122,225,73148,1,2,0:2:0:0:
85,35,73308,1,2,1:2:0:0:
256,136,73468,1,2,0:2:0:0:
122,225,73628,2,0,B|100:214|71:225|71:225|44:238|15:225,1,110.999999576569,10|0,0:2|0:2,0:2:0:0:
173,76,73947,5,2,1:2:0:0:
222,228,74106,1,2,0:2:0:0:
304,55,74266,2,0,B|326:44|355:55|355:55|382:68|411:55,1,110.999999576569,10|0,0:2|0:2,0:2:0:0:
495,272,74585,6,0,B|460:300|460:300|450:372,1,110.999999576569,2|0,1:2|0:2,0:2:0:0:
266,205,74904,1,10,0:2:0:0:
314,377,75063,1,2,0:2:0:0:
414,163,75223,5,2,1:2:0:0:
290,291,75382,1,2,0:2:0:0:
242,119,75542,1,10,0:2:0:0:
352,227,75702,1,2,0:2:0:0:
304,55,75862,5,2,1:2:0:0:
204,269,76021,1,2,0:2:0:0:
414,163,76181,1,10,0:2:0:0:
314,377,76340,1,2,0:2:0:0:
180,183,76500,5,2,1:2:0:0:
376,313,76660,1,2,0:2:0:0:
142,334,76819,1,10,0:2:0:0:
126,315,76898,1,8,0:2:0:0:
116,293,76978,1,8,0:2:0:0:
113,269,77058,1,8,0:2:0:0:
117,245,77138,5,6,1:2:0:0:
179,182,77298,1,0,0:2:0:0:
138,103,77457,1,0,1:2:0:0:
200,39,77617,1,0,0:2:0:0:
280,78,77777,1,0,1:2:0:0:
280,78,78096,5,0,3:2:0:0:
341,13,78255,1,0,0:2:0:0:
421,50,78415,1,0,1:2:0:0:
411,137,78574,1,0,0:2:0:0:
490,173,78734,1,0,1:2:0:0:
490,173,79053,5,0,1:2:0:0:
411,137,79213,1,0,0:2:0:0:
420,224,79372,1,0,3:2:0:0:
420,224,79691,5,0,1:2:0:0:
341,189,79851,1,0,0:2:0:0:
283,253,80011,1,0,1:2:0:0:
204,217,80170,1,0,0:2:0:0:
145,281,80330,1,0,1:2:0:0:
145,281,80649,5,0,3:2:0:0:
65,244,80808,1,0,0:2:0:0:
73,332,80968,1,0,1:2:0:0:
145,281,81128,1,0,0:2:0:0:
65,244,81287,1,0,1:2:0:0:
65,244,81606,5,0,1:2:0:0:
137,193,81766,1,0,0:2:0:0:
57,156,81925,1,0,3:2:0:0:
129,105,82085,1,0,0:2:0:0:
49,68,82245,6,0,L|49:-34,1,83.9999974365235,0|0,1:2|0:0,0:0:0:0:
129,105,82564,2,0,L|140:11,1,83.9999974365235,8|0,0:2|0:0,0:0:0:0:
219,146,82883,2,0,L|241:54,1,83.9999974365235,0|0,1:2|0:0,0:0:0:0:
327,195,83202,2,0,L|356:116,1,83.9999974365235,8|0,0:2|0:0,0:0:0:0:
504,229,83521,6,0,L|480:134,1,83.9999974365235,0|0,1:2|0:0,0:0:0:0:
326,194,83840,2,0,L|357:273,1,83.9999974365235,8|0,0:2|0:0,0:0:0:0:
390,114,84160,2,0,L|350:40,1,83.9999974365235,0|0,1:2|0:0,0:0:0:0:
147,107,84479,2,0,L|195:175,1,83.9999974365235,8|0,0:2|0:0,0:0:0:0:
35,127,84798,6,0,L|79:43,1,83.9999974365235,0|0,1:2|0:0,0:0:0:0:
317,148,85117,2,0,L|263:224,1,83.9999974365235,8|0,0:2|0:0,0:0:0:0:
94,344,85436,1,8,0:2:0:0:
155,257,85595,1,8,0:2:0:0:
50,248,85755,1,8,0:2:0:0:
199,353,85915,5,8,0:2:0:0:
215,171,86074,1,0,3:2:0:0:
365,276,86234,2,0,L|372:329,2,41.9999987182618,8|8|8,0:2|0:2|0:2,0:2:0:0:
334,93,86553,6,0,B|292:116|254:93|254:93|215:72|174:93,1,167.999994873047,4|8,1:2|0:2,0:2:0:0:
215,171,87032,1,8,0:2:0:0:
87,249,87191,6,0,B|132:225|173:249|173:249|215:272|258:249,1,180,4|0,1:2|0:2,0:2:0:0:
