osu file format v14

[General]
AudioFilename: audio.mp3
AudioLeadIn: 0
PreviewTime: 36048
Countdown: 0
SampleSet: Drum
StackLeniency: 0.7
Mode: 2
LetterboxInBreaks: 0
WidescreenStoryboard: 1

[Editor]
DistanceSpacing: 1.6
BeatDivisor: 4
GridSize: 16
TimelineZoom: 2.4

[Metadata]
Title:Uso no Hibana (TV Size)
TitleUnicode:嘘の火花 (TV Size)
Artist:96neko
ArtistUnicode:96猫
Creator:Rocma
Version:Rain
Source:クズの本懐
Tags:jpop j-pop Kuzu no honkai Scum's Wish Lying scums opening op Fireworks Japanese Anime
BeatmapID:3035612
BeatmapSetID:1442335

[Difficulty]
HPDrainRate:5
CircleSize:4
OverallDifficulty:9
ApproachRate:9
SliderMultiplier:1.92
SliderTickRate:1

[Events]
//Background and Video events
0,0,"BG.jpg",0,0
//Break Periods
//Storyboard Layer 0 (Background)
//Storyboard Layer 1 (Fail)
//Storyboard Layer 2 (Pass)
//Storyboard Layer 3 (Foreground)
//Storyboard Layer 4 (Overlay)
//Storyboard Sound Samples

[TimingPoints]
543,319.148936170213,4,3,3,50,1,0
2617,-100,4,3,3,70,0,0
3096,-100,4,3,3,50,0,0
4372,-100,4,3,3,70,0,0
15862,-100,4,3,3,60,0,0
26074,-100,4,3,3,80,0,0
34851,-100,4,3,3,60,0,0
36128,-100,4,3,3,80,0,1
36606,-100,4,3,4,80,0,1
36925,-100,4,3,5,80,0,1
37245,-100,4,3,6,80,0,1
37404,-100,4,3,7,80,0,1
37564,-100,4,3,6,80,0,1
37723,-100,4,3,7,80,0,1
37883,-100,4,3,6,80,0,1
38043,-100,4,3,7,80,0,1
38202,-100,4,3,6,80,0,1
38362,-100,4,3,5,80,0,1
38681,-100,4,3,3,80,0,1
39160,-100,4,3,4,80,0,1
39479,-100,4,3,5,80,0,1
39798,-100,4,3,6,80,0,1
39957,-100,4,3,7,80,0,1
40117,-100,4,3,6,80,0,1
40277,-100,4,3,7,80,0,1
40436,-100,4,3,6,80,0,1
40596,-100,4,3,7,80,0,1
40755,-100,4,3,6,80,0,1
40915,-100,4,3,5,80,0,1
41234,-100,4,3,6,80,0,1
41553,-100,4,3,5,80,0,1
41872,-100,4,3,6,80,0,1
42191,-100,4,3,5,80,0,1
42511,-100,4,3,6,80,0,1
42830,-100,4,3,5,80,0,1
43149,-100,4,3,4,80,0,1
43468,-100,4,3,5,80,0,1
43628,-100,4,3,6,80,0,1
43787,-100,4,3,7,80,0,1
43947,-100,4,3,8,80,0,1
44266,-100,4,3,7,80,0,1
44585,-100,4,3,6,80,0,1
44904,-100,4,3,7,80,0,1
45064,-100,4,3,6,80,0,1
45223,-100,4,3,5,75,0,0
45383,-100,4,3,6,75,0,0
45543,-100,4,3,7,75,0,0
45862,-100,4,3,6,75,0,0
46021,-100,4,3,5,75,0,0
46340,-100,4,3,9,80,0,1
46819,-100,4,3,14,80,0,1
47138,-100,4,3,4,80,0,1
47457,-100,4,3,11,80,0,1
47617,-100,4,3,13,80,0,1
47777,-100,4,3,11,80,0,1
47936,-100,4,3,13,80,0,1
48096,-100,4,3,11,80,0,1
48255,-100,4,3,13,80,0,1
48415,-100,4,3,11,80,0,1
48574,-100,4,3,4,80,0,1
48894,-100,4,3,9,80,0,1
49372,-100,4,3,14,80,0,1
49691,-100,4,3,4,80,0,1
50011,-100,4,3,11,80,0,1
50170,-100,4,3,13,80,0,1
50330,-100,4,3,11,80,0,1
50489,-100,4,3,13,80,0,1
50649,-100,4,3,11,80,0,1
50808,-100,4,3,13,80,0,1
50968,-100,4,3,11,80,0,1
51128,-100,4,3,4,80,0,1
51447,-100,4,3,11,80,0,1
51766,-100,4,3,4,80,0,1
52085,-100,4,3,11,80,0,1
52404,-100,4,3,4,80,0,1
52723,-100,4,3,11,80,0,1
53043,-100,4,3,4,80,0,1
53362,-100,4,3,14,80,0,1
53681,-100,4,3,4,80,0,1
53840,-100,4,3,11,80,0,1
54000,-100,4,3,13,80,0,1
54160,-100,4,3,7,80,0,1
54479,-100,4,3,13,80,0,1
54798,-100,4,3,11,80,0,1
55117,-100,4,3,13,80,0,1
55277,-100,4,3,11,80,0,1
55436,-100,4,3,4,80,0,1
55596,-100,4,3,11,80,0,1
55755,-100,4,3,13,80,0,1
55915,-100,4,3,11,80,0,1
56234,-100,4,3,4,80,0,1
56553,-100,4,3,15,60,0,0
56713,-100,4,3,3,60,0,0
65649,-100,4,3,3,70,0,0
66925,-100,4,3,7,80,0,1
67085,-100,4,3,6,80,0,1
67245,-100,4,3,5,80,0,1
67404,-100,4,3,3,80,0,1
67564,-100,4,3,4,80,0,1
67883,-100,4,3,5,80,0,1
68043,-100,4,3,4,80,0,1
68202,-100,4,3,3,80,0,1
68362,-100,4,3,4,80,0,1
68521,-100,4,3,5,80,0,1
68840,-100,4,3,3,80,0,1
69000,-100,4,3,4,80,0,1
69160,-100,4,3,5,80,0,1
69479,-100,4,3,7,80,0,1
69638,-100,4,3,6,80,0,1
69798,-100,4,3,5,80,0,1
69957,-100,4,3,3,80,0,1
70117,-100,4,3,4,80,0,1
70436,-100,4,3,5,80,0,1
70596,-100,4,3,4,80,0,1
70755,-100,4,3,3,80,0,1
70915,-100,4,3,4,80,0,1
71074,-100,4,3,5,80,0,1
71234,-100,4,3,4,80,0,1
71394,-100,4,3,9,80,0,1
71553,-100,4,3,10,80,0,1
71713,-100,4,3,4,80,0,1
71872,-100,4,3,5,80,0,1
72032,-100,4,3,7,80,0,1
72191,-100,4,3,6,80,0,1
72351,-100,4,3,5,80,0,1
72511,-100,4,3,3,80,0,1
72670,-100,4,3,4,80,0,1
72989,-100,4,3,5,80,0,1
73149,-100,4,3,4,80,0,1
73308,-100,4,3,3,80,0,1
73468,-100,4,3,4,80,0,1
73628,-100,4,3,5,80,0,1
73947,-100,4,3,3,80,0,1
74106,-100,4,3,4,80,0,1
74266,-100,4,3,5,80,0,1
74585,-100,4,3,9,80,0,1
74904,-100,4,3,10,80,0,1
75064,-100,4,3,4,80,0,1
75223,-100,4,3,5,80,0,1
75383,-100,4,3,4,80,0,1
75543,-100,4,3,3,80,0,1
75702,-100,4,3,4,80,0,1
75862,-100,4,3,3,80,0,1
76021,-100,4,3,4,80,0,1
76181,-100,4,3,3,80,0,1
76340,-100,4,3,10,80,0,1
76500,-100,4,3,9,80,0,1
76660,-100,4,3,10,80,0,1
76819,-100,4,3,12,80,0,1
77138,-100,4,3,3,70,0,0
87351,-100,4,3,3,50,0,0
88628,-100,4,3,3,30,0,0
89266,-100,4,3,3,10,0,0

[Colours]
Combo1 : 50,205,170
Combo2 : 255,147,201

[HitObjects]
192,288,543,6,0,P|128:224|192:180,1,192,4|0,0:0|0:0,0:0:0:0:
320,288,1021,2,0,P|384:224|320:180,1,192,0|0,0:0|0:0,0:0:0:0:
192,144,1500,1,0,0:0:0:0:
400,240,1979,2,0,P|456:175|391:103,1,192,0|0,0:0|0:0,0:0:0:0:
304,112,2457,1,0,0:0:0:0:
176,112,2617,2,0,L|80:112,2,96,4|4|4,0:0|0:0|0:0,0:0:0:0:
304,256,3096,6,0,P|368:208|272:160,1,192,4|0,0:0|0:0,0:0:0:0:
208,256,3574,2,0,L|416:256,1,192,0|0,0:0|0:0,0:0:0:0:
304,192,4053,1,0,0:0:0:0:
176,80,4213,2,0,L|112:80,1,48,0|0,0:0|0:0,0:0:0:0:
304,64,4372,5,4,0:0:0:0:
416,128,4532,1,0,0:0:0:0:
368,128,4611,1,0,0:0:0:0:
320,128,4691,1,0,0:0:0:0:
192,192,4851,1,0,0:0:0:0:
240,192,4930,1,0,0:0:0:0:
400,208,5011,5,4,0:0:0:0:
512,272,5171,1,0,0:0:0:0:
464,272,5250,1,0,0:0:0:0:
416,272,5330,1,0,0:0:0:0:
288,336,5490,1,0,0:0:0:0:
240,336,5569,1,0,0:0:0:0:
416,352,5649,6,0,L|528:352,1,96,4|0,0:0|0:0,0:0:0:0:
384,304,5968,2,0,L|272:304,1,96,8|0,0:0|0:0,0:0:0:0:
384,240,6287,2,0,P|448:192|368:128,1,192,0|8,0:0|0:0,0:0:0:0:
288,112,6766,1,0,0:0:0:0:
64,112,6925,5,0,0:0:0:0:
16,192,7084,1,0,0:0:0:0:
64,272,7245,2,0,L|160:272,1,96,8|0,0:0|0:0,0:0:0:0:
384,176,7564,5,0,0:0:0:0:
432,256,7723,1,0,0:0:0:0:
384,336,7884,2,0,L|288:336,1,96,8|0,0:0|0:0,0:0:0:0:
64,256,8202,6,0,L|192:256,1,96,4|0,0:0|0:0,0:0:0:0:
288,208,8521,2,0,L|160:208,1,96,8|0,0:0|0:0,0:0:0:0:
96,192,8840,2,0,P|48:160|109:56,1,192,0|8,0:0|0:0,0:0:0:0:
192,48,9319,1,0,0:0:0:0:
416,96,9479,5,0,0:0:0:0:
512,128,9638,2,0,L|496:224,1,96,0|8,0:0|0:0,0:0:0:0:
400,208,9957,1,0,0:0:0:0:
160,176,10117,5,0,0:0:0:0:
288,192,10276,2,0,L|304:288,1,96,0|8,0:0|0:0,0:0:0:0:
176,320,10595,1,0,0:0:0:0:
400,144,10755,6,0,L|416:256,1,96,4|0,0:0|0:0,0:0:0:0:
288,176,11074,2,0,L|272:288,1,96,8|0,0:0|0:0,0:0:0:0:
368,272,11394,2,0,P|336:352|224:368,1,192,0|8,0:0|0:0,0:0:0:0:
144,352,11872,1,0,0:0:0:0:
384,112,12032,5,0,0:0:0:0:
432,192,12191,1,0,0:0:0:0:
384,272,12352,2,0,L|288:272,1,96,8|0,0:0|0:0,0:0:0:0:
64,176,12671,5,0,0:0:0:0:
16,256,12830,1,0,0:0:0:0:
64,336,12989,2,0,L|160:336,1,96,8|0,0:0|0:0,0:0:0:0:
400,144,13308,6,0,P|464:208|368:240,1,192,4|8,0:0|0:0,0:0:0:0:
304,256,13787,1,0,0:0:0:0:
176,256,13947,2,0,L|272:256,1,96,0|0,0:0|0:0,0:0:0:0:
401,256,14266,2,0,L|304:256,1,96,8|0,0:0|0:0,0:0:0:0:
48,240,14585,6,0,L|32:128,1,96,0|0,0:0|0:0,0:0:0:0:
128,96,14904,2,0,L|224:96,1,96,8|0,0:0|0:0,0:0:0:0:
96,176,15223,2,0,L|80:288,1,96,8|0,0:0|0:0,0:0:0:0:
131,288,15463,1,0,0:0:0:0:
304,320,15543,1,8,0:0:0:0:
324,278,15622,1,0,0:0:0:0:
305,235,15702,1,0,0:0:0:0:
252,223,15782,1,0,0:0:0:0:
80,208,15862,6,0,P|18:158|112:96,1,192,4|0,0:0|0:0,0:0:0:0:
176,80,16340,1,0,0:0:0:0:
304,80,16500,1,0,0:0:0:0:
128,144,16819,1,0,0:0:0:0:
368,144,17138,6,0,L|384:240,1,96,0|0,0:0|0:0,0:0:0:0:
240,112,17617,2,0,L|208:320,1,192,0|0,0:0|0:0,0:0:0:0:
304,304,18096,1,0,0:0:0:0:
210,301,18255,1,0,0:0:0:0:
80,304,18415,5,4,0:0:0:0:
288,288,18734,2,0,L|384:288,2,96,0|0|0,0:0|0:0|0:0,0:0:0:0:
128,240,19372,1,0,0:0:0:0:
368,176,19691,6,0,L|480:176,1,96,0|0,0:0|0:0,0:0:0:0:
288,320,20170,2,0,P|238:224|304:208,1,192,0|0,0:0|0:0,0:0:0:0:
384,192,20649,1,0,0:0:0:0:
288,176,20808,1,0,0:0:0:0:
416,144,20968,5,4,0:0:0:0:
224,144,21287,2,0,L|128:144,2,96,0|0|0,0:0|0:0|0:0,0:0:0:0:
400,176,21925,1,0,0:0:0:0:
176,192,22245,6,0,L|162:287,1,96,0|0,0:0|0:0,0:0:0:0:
336,240,22723,2,0,L|352:16,1,192,0|0,0:0|0:0,0:0:0:0:
256,48,23202,1,0,0:0:0:0:
349,48,23362,1,0,0:0:0:0:
480,48,23521,5,4,0:0:0:0:
368,64,23681,2,0,L|352:176,1,96,0|0,0:0|0:0,0:0:0:0:
464,256,24000,2,0,P|422:171|336:133,1,192,0|0,0:0|0:0,0:0:0:0:
240,176,24479,1,0,0:0:0:0:
336,192,24638,1,0,0:0:0:0:
96,288,24798,6,0,L|32:288,1,48,4|0,0:0|0:0,0:0:0:0:
32,242,24957,2,0,L|48:290,1,48,0|0,0:0|0:0,0:0:0:0:
96,288,25117,1,0,0:0:0:0:
336,256,25277,6,0,L|400:256,1,48,4|0,0:0|0:0,0:0:0:0:
400,210,25436,2,0,L|384:258,1,48,0|0,0:0|0:0,0:0:0:0:
336,256,25596,1,0,0:0:0:0:
96,176,25755,2,0,L|32:176,1,48,4|0,0:0|0:0,0:0:0:0:
48,176,25915,2,0,L|112:176,1,48,0|0,0:0|0:0,0:0:0:0:
304,176,26074,5,4,0:0:0:0:
416,160,26234,2,0,L|432:48,1,96,0|8,0:0|0:0,0:0:0:0:
320,48,26553,1,0,0:0:0:0:
176,176,26713,6,0,P|134:112|183:93,1,144,0|0,0:0|0:0,0:0:0:0:
256,80,27032,2,0,L|368:80,1,96,8|0,0:0|0:0,0:0:0:0:
80,288,27351,6,0,L|0:192,1,96,0|0,0:0|0:0,0:0:0:0:
80,144,27670,1,8,0:0:0:0:
192,144,27830,1,0,0:0:0:0:
416,208,27989,6,0,L|496:112,1,96,0|0,0:0|0:0,0:0:0:0:
416,64,28308,1,8,0:0:0:0:
304,64,28468,1,0,0:0:0:0:
80,80,28628,5,4,0:0:0:0:
176,80,28787,2,0,L|192:208,1,96,0|8,0:0|0:0,0:0:0:0:
64,192,29106,2,0,P|11:272|80:320,1,192,0|0,0:0|0:0,0:0:0:0:
176,304,29585,1,8,0:0:0:0:
400,240,29745,6,0,L|192:240,1,192,0|0,0:0|0:0,0:0:0:0:
304,240,30223,1,8,0:0:0:0:
432,224,30383,2,0,P|496:160|416:128,1,192,0|0,0:0|0:0,0:0:0:0:
336,112,30862,1,8,0:0:0:0:
432,112,31021,1,0,0:0:0:0:
160,112,31181,5,4,0:0:0:0:
64,112,31340,1,0,0:0:0:0:
288,64,31500,1,8,0:0:0:0:
384,64,31659,1,0,0:0:0:0:
272,224,31819,5,0,0:0:0:0:
368,224,31979,1,0,0:0:0:0:
144,240,32138,1,8,0:0:0:0:
48,240,32297,1,0,0:0:0:0:
160,160,32457,5,0,0:0:0:0:
256,160,32617,1,0,0:0:0:0:
496,128,32777,1,8,0:0:0:0:
400,128,32937,1,0,0:0:0:0:
304,128,33096,5,0,0:0:0:0:
80,256,33255,2,0,L|192:256,2,96,0|8|0,0:0|0:0|0:0,0:0:0:0:
320,320,33734,6,0,P|381:255|320:192,1,192,4|8,0:0|0:0,0:0:0:0:
224,192,34213,1,0,0:0:0:0:
80,112,34372,2,0,L|176:112,1,96
272,96,34691,1,8,0:0:0:0:
144,112,34851,6,0,P|71:149|39:276,2,192,0|0|0,0:0|0:0|0:0,0:0:0:0:
272,112,35649,2,0,L|336:112,1,48,0|0,0:0|0:0,0:0:0:0:
341,69,35808,2,0,L|309:133,1,48,0|0,0:0|0:0,0:0:0:0:
144,256,35968,2,0,L|80:256,1,48,0|0,0:0|0:0,0:0:0:0:
176,256,36128,6,0,P|238:203|156:141,1,192,6|2,0:0|0:0,0:0:0:0:
48,80,36606,2,0,L|160:80,1,96,10|2,0:0|0:0,0:0:0:0:
368,80,36925,2,0,L|384:192,1,96,2|2,0:0|0:0,0:0:0:0:
256,224,37245,2,0,L|128:224,1,96,10|2,0:0|0:0,0:0:0:0:
384,304,37564,5,6,0:0:0:0:
496,304,37723,1,2,0:0:0:0:
384,304,37883,1,10,0:0:0:0:
496,304,38042,1,2,0:0:0:0:
368,272,38202,2,0,L|272:272,2,96,2|2|8,0:0|0:0|0:0,0:0:0:0:
144,240,38681,6,0,P|84:183|152:116,1,192,6|2,0:0|0:0,0:0:0:0:
272,112,39160,2,0,L|384:112,1,96,10|2,0:0|0:0,0:0:0:0:
144,144,39479,2,0,L|240:144,1,96,2|2,0:0|0:0,0:0:0:0:
368,96,39798,2,0,L|256:96,1,96,10|2,0:0|0:0,0:0:0:0:
48,208,40117,5,2,0:0:0:0:
144,208,40276,1,2,0:0:0:0:
48,208,40436,1,10,0:0:0:0:
144,208,40595,1,2,0:0:0:0:
272,272,40755,2,0,L|144:272,1,96,2|2,0:0|0:0,0:0:0:0:
64,272,41074,1,8,0:0:0:0:
304,272,41234,6,0,P|360:212|272:144,1,192,6|2,0:0|0:0,0:0:0:0:
208,144,41713,1,8,0:0:0:0:
336,240,41872,2,0,P|421:200|448:112,1,192,2|2,0:0|0:0,0:0:0:0:
352,96,42351,1,8,0:0:0:0:
128,272,42511,6,0,P|72:212|160:144,1,192,2|2,0:0|0:0,0:0:0:0:
224,144,42990,1,8,0:0:0:0:
448,176,43149,2,0,P|507:124|420:51,1,192,2|2,0:0|0:0,0:0:0:0:
320,48,43628,2,0,L|224:48,1,96,10|2,0:0|0:0,0:0:0:0:
464,304,43947,6,0,L|480:192,1,96,6|0,0:0|0:0,0:0:0:0:
381,208,44266,2,0,L|477:208,1,96,10|0,0:0|0:0,0:0:0:0:
352,160,44585,2,0,L|336:48,1,96,2|0,0:0|0:0,0:0:0:0:
448,48,44904,1,10,0:0:0:0:
336,32,45064,1,2,0:0:0:0:
112,288,45223,6,0,L|208:288,1,96,2|2,0:0|0:0,0:0:0:0:
233,224,45463,1,0,0:0:0:0:
208,160,45543,2,0,L|96:160,1,96,2|2,0:0|0:0,0:0:0:0:
240,128,45862,1,2,0:0:0:0:
282,146,45941,1,0,0:0:0:0:
299,190,46021,1,2,0:0:0:0:
279,232,46101,1,0,0:0:0:0:
235,248,46181,1,8,0:0:0:0:
176,256,46261,1,0,0:0:0:0:
336,208,46340,6,0,P|400:160|336:96,1,192,6|2,0:0|0:0,0:0:0:0:
112,80,46819,2,0,L|240:80,1,96,10|2,0:0|0:0,0:0:0:0:
432,160,47138,1,2,0:0:0:0:
480,240,47297,1,2,0:0:0:0:
432,320,47457,2,0,L|336:320,1,96,10|2,0:0|0:0,0:0:0:0:
32,176,47777,5,2,0:0:0:0:
144,128,47936,1,2,0:0:0:0:
368,64,48096,1,10,0:0:0:0:
256,112,48255,1,2,0:0:0:0:
128,192,48415,2,0,L|112:304,1,96,2|2,0:0|0:0,0:0:0:0:
240,320,48734,1,8,0:0:0:0:
480,304,48894,6,0,L|288:304,1,192,6|2,0:0|0:0,0:0:0:0:
64,272,49372,2,0,L|48:144,1,96,10|2,0:0|0:0,0:0:0:0:
272,192,49691,2,0,L|288:64,1,96,2|2,0:0|0:0,0:0:0:0:
160,160,50011,2,0,L|144:32,1,96,10|2,0:0|0:0,0:0:0:0:
384,64,50330,5,2,0:0:0:0:
496,48,50489,1,2,0:0:0:0:
272,80,50649,1,10,0:0:0:0:
160,64,50808,1,2,0:0:0:0:
288,144,50968,2,0,L|384:144,2,96,2|2|8,0:0|0:0|0:0,0:0:0:0:
64,256,51447,6,0,L|288:256,1,192,6|2,0:0|0:0,0:0:0:0:
160,256,51925,1,8,0:0:0:0:
304,240,52085,2,0,P|361:190|274:115,1,192,2|2,0:0|0:0,0:0:0:0:
208,112,52564,1,8,0:0:0:0:
432,224,52723,2,0,P|489:174|402:99,1,192,2|2,0:0|0:0,0:0:0:0:
336,96,53202,1,8,0:0:0:0:
96,160,53361,6,0,L|288:160,1,192,2|2,0:0|0:0,0:0:0:0:
160,240,53840,2,0,L|48:240,1,96,10|2,0:0|0:0,0:0:0:0:
304,336,54160,6,0,L|320:208,1,96,6|0,0:0|0:0,0:0:0:0:
256,224,54399,1,0,0:0:0:0:
176,208,54479,2,0,L|160:80,1,96,10|0,0:0|0:0,0:0:0:0:
288,96,54798,1,2,0:0:0:0:
332,109,54877,1,0,0:0:0:0:
344,153,54957,1,0,0:0:0:0:
313,187,55037,1,0,0:0:0:0:
144,224,55117,2,0,L|32:224,1,96,10|2,0:0|0:0,0:0:0:0:
96,224,55356,1,0,0:0:0:0:
256,224,55436,6,0,L|368:224,2,96,2|2|10,0:0|0:0|0:0,0:0:0:0:
128,224,55915,1,6,0:0:0:0:
82,222,55994,1,0,0:0:0:0:
64,180,56074,1,0,0:0:0:0:
93,145,56154,1,0,0:0:0:0:
288,128,56234,1,10,0:0:0:0:
336,128,56313,1,0,0:0:0:0:
176,80,56394,1,4,0:0:0:0:
128,80,56473,1,0,0:0:0:0:
384,32,56553,5,10,0:0:0:0:
256,192,56713,12,0,58947,0:0:0:0:
208,112,59266,5,4,0:0:0:0:
182,177,59426,1,0,0:0:0:0:
210,241,59586,1,0,0:0:0:0:
336,256,59745,1,0,0:0:0:0:
416,272,59905,1,0,0:0:0:0:
224,240,60224,1,0,0:0:0:0:
144,224,60384,1,0,0:0:0:0:
224,240,60543,5,0,0:0:0:0:
252,176,60703,1,0,0:0:0:0:
226,111,60863,1,0,0:0:0:0:
162,84,61021,1,0,0:0:0:0:
224,240,61182,1,0,0:0:0:0:
320,208,61340,1,4,0:0:0:0:
208,160,61500,1,4,0:0:0:0:
336,128,61660,1,4,0:0:0:0:
112,80,61819,6,0,P|16:144|144:224,1,288,4|0,0:0|0:0,0:0:0:0:
256,96,62457,2,0,P|316:169|228:210,1,192,0|0,0:0|0:0,0:0:0:0:
32,288,62936,6,0,P|95:194|200:292,1,288,4|0,0:0|0:0,0:0:0:0:
128,304,63734,2,0,L|64:192,1,96,0|0,0:0|0:0,0:0:0:0:
128,128,64053,1,0,0:0:0:0:
224,128,64212,1,0,0:0:0:0:
448,224,64372,6,0,L|240:224,1,192,4|0,0:0|0:0,0:0:0:0:
224,96,64851,1,0,0:0:0:0:
352,80,65011,2,0,L|368:176,1,96,4|0,0:0|0:0,0:0:0:0:
240,208,65330,2,0,L|224:304,1,96,0|0,0:0|0:0,0:0:0:0:
480,304,65649,6,0,L|384:304,3,96,4|0|0|0,0:0|0:0|0:0|0:0,0:0:0:0:
160,320,66287,2,0,L|48:320,1,96,4|0,0:0|0:0,0:0:0:0:
336,192,66606,2,0,L|384:192,1,48,0|0,0:0|0:0,0:0:0:0:
384,192,66766,2,0,L|336:192,1,48,0|0,0:0|0:0,0:0:0:0:
144,256,66925,5,6,0:0:0:0:
54,232,67084,1,2,0:0:0:0:
15,148,67244,1,10,0:0:0:0:
56,64,67403,1,0,0:0:0:0:
304,48,67564,2,0,L|528:48,1,192,2|10,0:0|0:0,0:0:0:0:
400,48,68043,1,2,0:0:0:0:
144,96,68202,6,0,L|48:96,3,96,2|2|10|0,0:0|0:0|0:0|0:0,0:0:0:0:
304,160,68840,2,0,L|400:160,1,96,2|2,0:0|0:0,0:0:0:0:
256,192,69160,2,0,L|160:192,1,96,10|0,0:0|0:0,0:0:0:0:
384,112,69479,5,6,0:0:0:0:
425,196,69638,1,2,0:0:0:0:
386,280,69798,1,10,0:0:0:0:
296,304,69957,1,0,0:0:0:0:
64,320,70117,2,0,L|256:320,1,192,2|10,0:0|0:0,0:0:0:0:
160,320,70596,1,2,0:0:0:0:
384,304,70755,6,0,L|400:192,1,96,2|2,0:0|0:0,0:0:0:0:
272,224,71074,2,0,L|256:112,1,96,10|2,0:0|0:0,0:0:0:0:
496,176,71394,2,0,L|400:176,3,96,2|2|10|2,0:0|0:0|0:0|0:0,0:0:0:0:
176,320,72032,5,6,0:0:0:0:
262,283,72191,1,2,0:0:0:0:
297,197,72351,1,10,0:0:0:0:
262,111,72510,1,2,0:0:0:0:
32,128,72670,2,0,L|240:128,1,192,2|10,0:0|0:0,0:0:0:0:
128,128,73149,1,2,0:0:0:0:
384,128,73308,2,0,L|512:128,3,96,2|2|10|0,0:0|0:0|0:0|0:0,0:0:0:0:
224,192,73947,2,0,L|128:192,1,96,2|2,0:0|0:0,0:0:0:0:
272,240,74266,2,0,L|384:240,1,96,10|0,0:0|0:0,0:0:0:0:
96,336,74585,6,0,P|43:305|128:224,1,192,6|10,0:0|0:0,0:0:0:0:
224,224,75064,1,2,0:0:0:0:
448,208,75223,2,0,L|352:208,1,96,2|2,0:0|0:0,0:0:0:0:
224,160,75543,2,0,L|320:160,1,96,10|2,0:0|0:0,0:0:0:0:
96,176,75862,6,0,L|80:64,1,96,2|2,0:0|0:0,0:0:0:0:
224,112,76181,2,0,L|240:0,1,96,10|2,0:0|0:0,0:0:0:0:
16,64,76500,2,0,L|128:64,1,96,2|2,0:0|0:0,0:0:0:0:
352,144,76819,2,0,L|416:144,1,48,10|0,0:0|0:0,0:0:0:0:
240,208,76979,2,0,L|192:208,1,48,0|0,0:0|0:0,0:0:0:0:
400,64,77138,5,4,0:0:0:0:
426,129,77298,1,0,0:0:0:0:
398,193,77458,1,0,0:0:0:0:
304,208,77617,1,0,0:0:0:0:
398,193,77777,1,0,0:0:0:0:
224,208,78096,1,0,0:0:0:0:
144,176,78256,1,0,0:0:0:0:
272,144,78415,5,0,0:0:0:0:
352,112,78575,1,0,0:0:0:0:
272,144,78735,1,0,0:0:0:0:
400,144,79054,1,0,0:0:0:0:
480,112,79213,1,0,0:0:0:0:
400,144,79372,1,0,0:0:0:0:
144,64,79691,5,4,0:0:0:0:
118,129,79851,1,0,0:0:0:0:
146,193,80011,1,0,0:0:0:0:
240,208,80170,1,0,0:0:0:0:
146,193,80330,1,0,0:0:0:0:
320,208,80649,1,0,0:0:0:0:
400,176,80809,1,0,0:0:0:0:
272,144,80968,5,0,0:0:0:0:
192,112,81128,1,0,0:0:0:0:
272,144,81288,1,0,0:0:0:0:
112,208,81606,1,0,0:0:0:0:
32,192,81766,2,0,L|16:144,2,48,0|0|0,0:0|0:0|0:0,0:0:0:0:
112,208,82085,1,0,0:0:0:0:
352,224,82245,5,4,0:0:0:0:
395,204,82324,1,0,0:0:0:0:
412,160,82404,1,0,0:0:0:0:
395,117,82484,1,0,0:0:0:0:
352,98,82564,1,8,0:0:0:0:
256,96,82723,1,0,0:0:0:0:
112,224,82883,5,0,0:0:0:0:
70,204,82962,1,0,0:0:0:0:
53,160,83042,1,0,0:0:0:0:
70,117,83122,1,0,0:0:0:0:
113,98,83202,1,8,0:0:0:0:
208,96,83361,1,0,0:0:0:0:
464,224,83521,6,0,L|480:160,1,48,0|0,0:0|0:0,0:0:0:0:
464,224,83681,1,0,0:0:0:0:
416,224,83760,1,0,0:0:0:0:
336,272,83840,6,0,L|320:208,1,48,8|0,0:0|0:0,0:0:0:0:
336,272,84000,1,0,0:0:0:0:
384,272,84079,1,0,0:0:0:0:
464,288,84160,1,0,0:0:0:0:
336,224,84319,2,0,L|320:112,1,96,0|8,0:0|0:0,0:0:0:0:
448,176,84638,1,0,0:0:0:0:
160,224,84798,5,4,0:0:0:0:
117,204,84877,1,0,0:0:0:0:
100,160,84957,1,0,0:0:0:0:
117,117,85037,1,0,0:0:0:0:
160,98,85117,1,8,0:0:0:0:
256,96,85276,1,0,0:0:0:0:
400,224,85436,5,0,0:0:0:0:
442,204,85515,1,0,0:0:0:0:
459,160,85595,1,0,0:0:0:0:
442,117,85675,1,0,0:0:0:0:
399,98,85755,1,8,0:0:0:0:
176,112,85915,1,0,0:0:0:0:
400,176,86074,2,0,L|496:176,1,96,4|0,0:0|0:0,0:0:0:0:
448,176,86314,1,0,0:0:0:0:
288,176,86394,2,0,L|224:176,1,48,8|0,0:0|0:0,0:0:0:0:
400,272,86553,6,0,P|448:224|377:118,1,192,4|0,0:0|0:0,0:0:0:0:
64,112,87032,2,0,L|192:112,1,96,8|8,0:0|0:2,0:0:0:0:
256,192,87351,12,0,89266,0:0:0:0:
