osu file format v14

[General]
AudioFilename: audio.mp3
AudioLeadIn: 0
PreviewTime: 36048
Countdown: 0
SampleSet: Drum
StackLeniency: 0.7
Mode: 2
LetterboxInBreaks: 0
WidescreenStoryboard: 1

[Editor]
DistanceSpacing: 1.6
BeatDivisor: 4
GridSize: 16
TimelineZoom: 2.4

[Metadata]
Title:Uso no Hibana (TV Size)
TitleUnicode:嘘の火花 (TV Size)
Artist:96neko
ArtistUnicode:96猫
Creator:Rocma
Version:Cup
Source:クズの本懐
Tags:jpop j-pop Kuzu no honkai Scum's Wish Lying scums opening op Fireworks Japanese Anime
BeatmapID:3023237
BeatmapSetID:1442335

[Difficulty]
HPDrainRate:2
CircleSize:2.5
OverallDifficulty:6
ApproachRate:6
SliderMultiplier:1.28
SliderTickRate:1

[Events]
//Background and Video events
0,0,"BG.jpg",0,0
//Break Periods
2,59466,63322
2,77338,80716
//Storyboard Layer 0 (Background)
//Storyboard Layer 1 (Fail)
//Storyboard Layer 2 (Pass)
//Storyboard Layer 3 (Foreground)
//Storyboard Layer 4 (Overlay)
//Storyboard Sound Samples

[TimingPoints]
543,319.148936170213,4,3,3,50,1,0
2617,-100,4,3,3,70,0,0
3096,-100,4,3,3,50,0,0
4372,-100,4,3,3,70,0,0
15862,-100,4,3,3,60,0,0
26074,-100,4,3,3,80,0,0
34851,-100,4,3,3,60,0,0
36128,-100,4,3,3,80,0,1
45223,-100,4,3,3,60,0,0
46340,-100,4,3,3,80,0,1
56553,-100,4,3,3,60,0,0
65649,-100,4,3,3,70,0,0
66925,-100,4,3,3,80,0,1
77138,-100,4,3,3,70,0,0
87351,-100,4,3,3,50,0,0
88628,-100,4,3,3,30,0,0
89266,-100,4,3,3,10,0,0

[Colours]
Combo1 : 50,205,170
Combo2 : 255,147,201

[HitObjects]
352,256,543,6,0,P|447:207|464:112,2,192,4|0|0,0:0|0:0|0:0,0:0:0:0:
176,256,1979,2,0,P|120:209|185:121,1,192,0|0,0:0|0:0,0:0:0:0:
256,112,2617,5,4,0:0:0:0:
288,32,2777,1,4,0:0:0:0:
256,112,2936,1,4,0:0:0:0:
176,128,3096,1,4,0:0:0:0:
288,128,4372,6,0,L|432:128,1,128,4|0,0:0|0:0,0:0:0:0:
288,208,5011,2,0,L|144:208,1,128,4|0,0:0|0:0,0:0:0:0:
304,320,5649,6,0,P|368:288|384:208,2,128,4|8|0,0:0|0:0|0:0,0:0:0:0:
176,320,6606,2,0,L|160:240,1,64,8|0,0:0|0:0,0:0:0:0:
240,240,6925,6,0,L|256:96,1,128,0|8,0:0|0:0,0:0:0:0:
128,192,7564,2,0,L|112:48,1,128,0|8,0:0|0:0,0:0:0:0:
256,32,8202,6,0,P|240:80|160:112,1,128,4|8,0:0|0:0,0:0:0:0:
48,112,8840,1,0,0:0:0:0:
176,176,9160,2,0,L|256:176,1,64,8|0,0:0|0:0,0:0:0:0:
176,256,9479,6,0,P|136:207|192:174,1,128,0|8,0:0|0:0,0:0:0:0:
304,160,10117,2,0,L|448:160,1,128,0|8,0:0|0:0,0:0:0:0:
288,240,10755,6,0,L|144:240,2,128,4|8|0,0:0|0:0|0:0,0:0:0:0:
160,320,11713,2,0,L|144:240,1,64,8|0,0:0|0:0,0:0:0:0:
224,240,12032,6,0,L|240:96,1,128,0|8,0:0|0:0,0:0:0:0:
112,192,12671,2,0,L|96:48,1,128,0|8,0:0|0:0,0:0:0:0:
240,96,13308,6,0,L|384:96,1,128,4|8,0:0|0:0,0:0:0:0:
400,128,13787,1,0,0:0:0:0:
368,96,13947,2,0,L|240:96,1,128,0|8,0:0|0:0,0:0:0:0:
112,112,14585,6,0,P|80:128|130:189,1,128,0|8,0:0|0:0,0:0:0:0:
176,192,15064,1,0,0:0:0:0:
240,192,15223,2,0,P|272:208|222:269,1,128,8|8,0:0|0:0,0:0:0:0:
96,272,15862,5,4,0:0:0:0:
304,272,17138,2,0,L|320:80,1,192,0|0,0:0|0:0,0:0:0:0:
160,64,18096,1,0,0:0:0:0:
288,48,18415,5,4,0:0:0:0:
496,272,19691,2,0,L|480:80,1,192,0|0,0:0|0:0,0:0:0:0:
320,64,20649,1,0,0:0:0:0:
192,64,20968,5,4,0:0:0:0:
32,144,22245,2,0,P|48:208|160:256,1,192,0|0,0:0|0:0,0:0:0:0:
320,256,23202,1,0,0:0:0:0:
144,208,23681,6,0,P|93:184|64:112,1,128,0|0,0:0|0:0,0:0:0:0:
192,112,24319,2,0,P|243:88|272:16,1,128,0|0,0:0|0:0,0:0:0:0:
224,16,24798,5,4,0:0:0:0:
48,144,25277,1,4,0:0:0:0:
224,240,25755,1,4,0:0:0:0:
384,256,26074,6,0,P|448:224|464:160,1,128,4|8,0:0|0:0,0:0:0:0:
352,112,26713,1,0,0:0:0:0:
224,128,27032,2,0,L|208:208,1,64,8|0,0:0|0:0,0:0:0:0:
288,192,27351,6,0,L|304:336,1,128,0|8,0:0|0:0,0:0:0:0:
176,336,27989,1,0,0:0:0:0:
304,336,28308,1,8,0:0:0:0:
448,320,28628,6,0,L|304:320,1,128,4|8,0:0|0:0,0:0:0:0:
192,288,29266,1,0,0:0:0:0:
320,256,29585,1,8,0:0:0:0:
368,240,29745,6,0,P|339:167|281:148,1,128,0|4,0:0|0:0,0:0:0:0:
160,176,30383,2,0,P|105:144|89:84,2,128,0|0|4,0:0|0:0|0:0,0:0:0:0:
336,272,31340,6,0,B|352:208|352:208,2,64,0|8|0,0:0|0:0|0:0,0:0:0:0:
192,176,31979,2,0,B|176:112|176:112,2,64,0|8|0,0:0|0:0|0:0,0:0:0:0:
352,176,32617,5,0,0:0:0:0:
416,176,32776,1,8,0:0:0:0:
432,96,32936,1,0,0:0:0:0:
304,112,33255,2,0,L|176:112,1,128,4|0,0:0|0:0,0:0:0:0:
256,96,33734,6,0,P|292:158|256:176,1,128,4|8,0:0|0:0,0:0:0:0:
128,192,34372,2,0,L|64:192,2,64,0|0|8,0:0|0:0|0:0,0:0:0:0:
208,192,34851,6,0,L|304:80,2,128,0|0|0,0:0|0:0|0:0,0:0:0:0:
144,192,35649,1,0,0:0:0:0:
144,192,35968,1,0,0:0:0:0:
240,224,36128,6,0,L|384:224,1,128,4|0,0:0|0:0,0:0:0:0:
304,224,36606,1,8,0:0:0:0:
176,224,36925,2,0,L|48:224,1,128,0|8,0:0|0:0,0:0:0:0:
192,160,37564,6,0,P|224:128|173:55,1,128,4|8,0:0|0:0,0:0:0:0:
64,128,38202,2,0,P|32:96|83:23,1,128,0|8,0:0|0:0,0:0:0:0:
144,32,38681,6,0,L|288:32,1,128,4|0,0:0|0:0,0:0:0:0:
336,32,39160,1,8,0:0:0:0:
464,128,39479,2,0,L|320:128,1,128,0|8,0:0|0:0,0:0:0:0:
208,144,40117,6,0,P|167:176|208:224,1,128,0|8,0:0|0:0,0:0:0:0:
336,208,40755,2,0,P|377:240|336:288,1,128,0|8,0:0|0:0,0:0:0:0:
256,288,41234,6,0,L|112:288,1,128,4|0,0:0|0:0,0:0:0:0:
272,192,41872,2,0,L|128:192,1,128,0|0,0:0|0:0,0:0:0:0:
288,288,42511,6,0,L|432:288,1,128,4|0,0:0|0:0,0:0:0:0:
288,288,43149,2,0,B|160:288|160:288|240:288,1,192,4|8,0:0|0:0,0:0:0:0:
352,288,43947,6,0,P|384:256|334:185,1,128,4|8,0:0|0:0,0:0:0:0:
224,176,44585,1,0,0:0:0:0:
352,160,44904,2,0,L|416:160,2,64,8|0|0,0:0|0:0|0:0,0:0:0:0:
144,176,46340,6,0,L|0:176,1,128,4|0,0:0|0:0,0:0:0:0:
80,176,46819,1,8,0:0:0:0:
208,224,47138,2,0,L|336:224,1,128,0|8,0:0|0:0,0:0:0:0:
208,320,47777,6,0,P|160:304|128:224,1,128,0|8,0:0|0:0,0:0:0:0:
256,208,48415,2,0,P|304:192|336:112,1,128,0|8,0:0|0:0,0:0:0:0:
256,96,48894,6,0,L|128:96,1,128,4|0,0:0|0:0,0:0:0:0:
192,96,49372,1,8,0:0:0:0:
320,176,49691,2,0,L|176:176,1,128,0|8,0:0|0:0,0:0:0:0:
64,208,50330,6,0,P|64:256|144:288,1,128,0|8,0:0|0:0,0:0:0:0:
256,256,50968,2,0,P|256:304|176:336,1,128,0|8,0:0|0:0,0:0:0:0:
112,336,51447,6,0,L|96:192,1,128,4|0,0:0|0:0,0:0:0:0:
224,176,52085,2,0,L|96:176,1,128,0|0,0:0|0:0,0:0:0:0:
240,240,52723,6,0,L|256:96,1,128,4|0,0:0|0:0,0:0:0:0:
128,80,53361,2,0,L|336:80,1,192,4|8,0:0|0:0,0:0:0:0:
176,144,54160,6,0,P|117:170|96:240,1,128,4|8,0:0|0:0,0:0:0:0:
224,240,54798,2,0,P|283:266|304:336,1,128,0|8,0:0|0:0,0:0:0:0:
240,352,55277,1,0,0:0:0:0:
176,336,55436,6,0,L|32:336,1,128,0|8,0:0|0:0,0:0:0:0:
112,304,55915,1,4,0:0:0:0:
256,240,56234,1,8,0:0:0:0:
80,176,56553,1,8,0:0:0:0:
256,192,56872,12,4,59266,0:0:0:0:
256,272,64372,6,0,L|400:272,1,128,4|0,0:0|0:0,0:0:0:0:
448,272,64851,2,0,P|485:225|427:176,1,128,0|0,0:0|0:0,0:0:0:0:
384,176,65330,1,0,0:0:0:0:
256,176,65649,6,0,L|112:176,1,128,4|0,0:0|0:0,0:0:0:0:
256,256,66287,2,0,L|320:256,2,64,0|0|0,0:0|0:0|0:0,0:0:0:0:
80,256,66925,5,4,0:0:0:0:
224,208,67245,1,8,0:0:0:0:
368,176,67564,1,0,0:0:0:0:
224,160,67883,1,8,0:0:0:0:
160,160,68043,1,0,0:0:0:0:
224,160,68202,6,0,L|368:160,1,128,0|8,0:0|0:0,0:0:0:0:
352,256,68840,2,0,L|224:256,1,128,0|8,0:0|0:0,0:0:0:0:
368,304,69479,5,4,0:0:0:0:
496,256,69798,1,8,0:0:0:0:
368,208,70117,1,0,0:0:0:0:
240,256,70436,1,8,0:0:0:0:
176,256,70595,1,0,0:0:0:0:
240,256,70755,6,0,P|272:224|208:160,1,128,0|8,0:0|0:0,0:0:0:0:
96,144,71394,2,0,L|224:144,1,128,0|8,0:0|0:0,0:0:0:0:
368,160,72032,5,4,0:0:0:0:
224,208,72351,1,8,0:0:0:0:
80,256,72670,1,0,0:0:0:0:
224,288,72989,2,0,L|304:288,1,64,8|0,0:0|0:0,0:0:0:0:
224,288,73308,6,0,L|96:288,1,128,0|8,0:0|0:0,0:0:0:0:
96,224,73947,2,0,L|240:224,1,128,0|8,0:0|0:0,0:0:0:0:
384,224,74585,6,0,P|419:176|357:128,1,128,4|8,0:0|0:0,0:0:0:0:
320,128,75064,1,0,0:0:0:0:
256,128,75223,1,0,0:0:0:0:
128,128,75543,1,8,0:0:0:0:
288,208,75862,6,0,L|432:208,1,128,0|8,0:0|0:0,0:0:0:0:
256,208,76500,2,0,L|112:208,1,128,0|8,0:0|0:0,0:0:0:0:
192,208,76979,1,0,0:0:0:0:
256,208,77138,5,4,0:0:0:0:
352,320,81766,5,0,0:0:0:0:
224,320,82085,6,0,P|176:304|256:112,1,320,4|0,0:0|0:0,0:0:0:0:
416,112,83362,5,0,0:0:0:0:
160,128,84319,1,0,0:0:0:0:
288,320,84638,6,0,P|336:304|256:112,1,320,4|0,0:0|0:0,0:0:0:0:
96,144,85915,6,0,L|240:144,1,128,4|0,0:0|0:0,0:0:0:0:
352,224,86553,2,0,L|208:224,1,128,4|0,0:0|0:0,0:0:0:0:
160,192,87032,1,8,0:0:0:0:
224,144,87191,1,8,0:2:0:0:
256,192,87511,12,0,89266,0:0:0:0:
