osu file format v14

[General]
AudioFilename: audio.mp3
AudioLeadIn: 0
PreviewTime: 36040
Countdown: 0
SampleSet: Soft
StackLeniency: 0.7
Mode: 3
LetterboxInBreaks: 0
SpecialStyle: 0
WidescreenStoryboard: 1

[Editor]
DistanceSpacing: 1
BeatDivisor: 4
GridSize: 4
TimelineZoom: 2

[Metadata]
Title:Uso no Hibana (TV Size)
TitleUnicode:嘘の火花 (TV Size)
Artist:96neko
ArtistUnicode:96猫
Creator:Nakazawa
Version:Normal
Source:クズの本懐
Tags:Kuzu No Honkai Scum's Wish scums opening op FAMoss 谷口尚久 Naohisa Taniguchi Theme SRCL-9350 jpop j-pop pop Anime Japanese Hanabi Yasuraoka 安楽岡 花火 Mugi Awaya 粟屋 麦 vocal female
BeatmapID:1308948
BeatmapSetID:620764

[Difficulty]
HPDrainRate:7.4
CircleSize:4
OverallDifficulty:7.2
ApproachRate:5
SliderMultiplier:1.4
SliderTickRate:1

[Events]
//Background and Video events
Video,0,"Video.avi"
0,0,"BG2.jpg",0,0
//Break Periods
//Storyboard Layer 0 (Background)
//Storyboard Layer 1 (Fail)
//Storyboard Layer 2 (Pass)
//Storyboard Layer 3 (Foreground)
//Storyboard Layer 4 (Overlay)
//Storyboard Sound Samples

[TimingPoints]
455,319.148936170213,4,2,1,40,1,0
455,-100,4,2,1,40,0,0
36199,-100,4,2,1,50,0,1
45135,-100,4,2,1,40,0,0
46412,-100,4,2,1,50,0,1
56625,-100,4,2,1,40,0,0
66837,-100,4,2,1,50,0,1
77050,-100,4,2,1,40,0,0

[HitObjects]
64,192,455,128,6,933:0:0:0:0:
192,192,933,128,0,1412:0:0:0:0:
320,192,1412,128,0,1891:0:0:0:0:
448,192,1891,128,0,2529:0:0:0:0:
64,192,2529,1,0,0:0:0:70:LR_Tom Hit.wav
192,192,2689,1,0,0:0:0:70:LR_Tom Hit 2.wav
320,192,2848,1,0,0:0:0:70:LR_Tom Hit 3.wav
448,192,3008,128,0,3486:0:0:0:70:LR_Tom Drop.wav
64,192,3486,128,0,3965:0:0:0:0:
448,192,3965,1,0,0:0:0:0:
320,192,4125,1,8,0:0:0:0:
192,192,4284,1,2,0:0:0:0:
448,192,4284,1,0,0:0:0:0:
64,192,4444,1,8,0:0:0:0:
320,192,4603,1,8,0:0:0:0:
192,192,4763,1,8,0:0:0:0:
448,192,4923,1,8,0:0:0:0:
320,192,5082,1,2,0:0:0:0:
192,192,5242,1,2,0:0:0:0:
320,192,5401,1,2,0:0:0:0:
64,192,5561,1,2,0:0:0:0:
448,192,5561,1,4,0:0:0:0:
192,192,5720,1,0,0:0:0:0:
320,192,5880,1,8,0:0:0:0:
448,192,6040,1,0,0:0:0:0:
320,192,6199,1,2,0:0:0:0:
64,192,6518,1,8,0:0:0:0:
448,192,6518,1,0,0:0:0:0:
320,192,6678,1,0,0:0:0:0:
192,192,6837,1,2,0:0:0:0:
64,192,6997,1,0,0:0:0:0:
192,192,7157,1,8,0:0:0:0:
448,192,7476,1,2,0:0:0:0:
320,192,7635,1,0,0:0:0:0:
192,192,7795,1,8,0:0:0:0:
64,192,8114,1,2,0:0:0:0:
448,192,8114,1,0,0:0:0:0:
192,192,8274,1,0,0:0:0:0:
320,192,8433,1,8,0:0:0:0:
448,192,8593,1,0,0:0:0:0:
320,192,8752,1,2,0:0:0:0:
64,192,9072,1,8,0:0:0:0:
448,192,9072,1,0,0:0:0:0:
320,192,9231,1,0,0:0:0:0:
192,192,9391,1,2,0:0:0:0:
320,192,9550,1,0,0:0:0:0:
192,192,9710,1,8,0:0:0:0:
64,192,9869,1,0,0:0:0:0:
448,192,10029,1,2,0:0:0:0:
320,192,10189,1,0,0:0:0:0:
192,192,10348,1,8,0:0:0:0:
320,192,10508,1,0,0:0:0:0:
64,192,10667,1,2,0:0:0:0:
448,192,10667,1,0,0:0:0:0:
192,192,10827,1,0,0:0:0:0:
320,192,10986,1,8,0:0:0:0:
448,192,11146,1,0,0:0:0:0:
320,192,11306,1,2,0:0:0:0:
64,192,11625,1,8,0:0:0:0:
448,192,11625,1,0,0:0:0:0:
320,192,11784,1,0,0:0:0:0:
192,192,11944,1,2,0:0:0:0:
64,192,12103,1,0,0:0:0:0:
192,192,12263,1,8,0:0:0:0:
448,192,12582,1,2,0:0:0:0:
320,192,12742,1,0,0:0:0:0:
192,192,12901,1,8,0:0:0:0:
64,192,13220,1,2,0:0:0:0:
448,192,13220,1,0,0:0:0:0:
320,192,13540,1,8,0:0:0:0:
192,192,13699,1,0,0:0:0:0:
320,192,13859,1,2,0:0:0:0:
448,192,14018,1,0,0:0:0:0:
64,192,14178,1,8,0:0:0:0:
192,192,14337,1,0,0:0:0:0:
320,192,14497,1,8,0:0:0:0:
448,192,14497,1,0,0:0:0:0:
192,192,14657,1,0,0:0:0:0:
448,192,14816,1,2,0:0:0:0:
64,192,14976,1,8,0:0:0:0:
192,192,15135,1,2,0:0:0:0:
320,192,15295,1,8,0:0:0:0:
448,192,15455,1,2,0:0:0:0:
64,192,15774,1,2,0:0:0:0:
320,192,15774,1,4,0:0:0:0:
192,192,16093,1,0,0:0:0:0:
64,192,16252,1,2,0:0:0:0:
448,192,16252,1,0,0:0:0:0:
192,192,16731,1,0,0:0:0:0:
64,192,17050,1,2,0:0:0:0:
448,192,17050,1,0,0:0:0:0:
192,192,17369,1,0,0:0:0:0:
64,192,17529,1,2,0:0:0:0:
448,192,17529,1,0,0:0:0:0:
320,192,17848,1,0,0:0:0:0:
192,192,18008,1,0,0:0:0:0:
64,192,18327,1,2,0:0:0:0:
448,192,18327,1,0,0:0:0:0:
192,192,18646,1,0,0:0:0:0:
64,192,18806,1,2,0:0:0:0:
448,192,18806,1,0,0:0:0:0:
192,192,19284,1,0,0:0:0:0:
64,192,19603,1,2,0:0:0:0:
448,192,19603,1,0,0:0:0:0:
192,192,19923,1,0,0:0:0:0:
320,192,20082,1,2,0:0:0:0:
448,192,20082,1,0,0:0:0:0:
192,192,20401,1,0,0:0:0:0:
320,192,20561,1,0,0:0:0:0:
64,192,20880,1,2,0:0:0:0:
448,192,20880,1,0,0:0:0:0:
192,192,21199,1,0,0:0:0:0:
64,192,21359,1,2,0:0:0:0:
448,192,21359,1,0,0:0:0:0:
320,192,21837,1,0,0:0:0:0:
64,192,22157,1,2,0:0:0:0:
448,192,22157,1,0,0:0:0:0:
320,192,22476,1,0,0:0:0:0:
64,192,22635,1,2,0:0:0:0:
192,192,22635,1,0,0:0:0:0:
320,192,23114,1,0,0:0:0:0:
192,192,23433,1,2,0:0:0:0:
448,192,23433,1,0,0:0:0:0:
64,192,23752,1,0,0:0:0:0:
192,192,23912,1,2,0:0:0:0:
320,192,23912,1,0,0:0:0:0:
64,192,24391,1,0,0:0:0:0:
320,192,24710,1,2,0:0:0:0:
448,192,24710,1,8,0:0:0:0:
192,192,24869,1,2,0:0:0:0:
64,192,25029,1,2,0:0:0:0:
320,192,25189,1,8,0:0:0:0:
448,192,25189,1,0,0:0:0:0:
192,192,25348,1,2,0:0:0:0:
320,192,25508,1,2,0:0:0:0:
192,192,25667,1,8,0:0:0:0:
448,192,25667,128,0,25986:0:0:0:0:
64,192,25827,128,8,25986:0:0:0:0:
192,192,25986,1,2,0:0:0:0:
320,192,25986,1,4,0:0:0:0:
448,192,26146,1,0,0:0:0:0:
192,192,26306,1,8,0:0:0:0:
64,192,26465,1,0,0:0:0:0:
448,192,26625,1,2,0:0:0:0:
64,192,26784,1,0,0:0:0:0:
448,192,26944,1,8,0:0:0:0:
192,192,27103,1,0,0:0:0:0:
64,192,27263,1,2,0:0:0:0:
320,192,27263,1,0,0:0:0:0:
448,192,27423,1,0,0:0:0:0:
192,192,27582,1,8,0:0:0:0:
64,192,27742,1,0,0:0:0:0:
448,192,27901,1,2,0:0:0:0:
64,192,28061,1,0,0:0:0:0:
448,192,28220,1,8,0:0:0:0:
64,192,28380,1,0,0:0:0:0:
192,192,28540,1,2,0:0:0:0:
448,192,28540,1,0,0:0:0:0:
320,192,28699,1,0,0:0:0:0:
192,192,28859,1,8,0:0:0:0:
448,192,29018,1,0,0:0:0:0:
64,192,29178,1,2,0:0:0:0:
192,192,29337,1,0,0:0:0:0:
320,192,29497,1,8,0:0:0:0:
64,192,29657,1,0,0:0:0:0:
192,192,29816,1,2,0:0:0:0:
448,192,29816,1,0,0:0:0:0:
320,192,29976,1,0,0:0:0:0:
448,192,30135,1,8,0:0:0:0:
192,192,30295,1,0,0:0:0:0:
64,192,30455,1,2,0:0:0:0:
320,192,30614,1,0,0:0:0:0:
448,192,30774,1,8,0:0:0:0:
64,192,30933,1,0,0:0:0:0:
320,192,31093,1,2,0:0:0:0:
448,192,31093,1,0,0:0:0:0:
192,192,31252,1,0,0:0:0:0:
320,192,31412,1,8,0:0:0:0:
448,192,31572,1,0,0:0:0:0:
64,192,31731,1,2,0:0:0:0:
320,192,31891,1,0,0:0:0:0:
192,192,32050,1,8,0:0:0:0:
64,192,32210,1,0,0:0:0:0:
192,192,32369,1,2,0:0:0:0:
448,192,32369,1,0,0:0:0:0:
320,192,32529,1,0,0:0:0:0:
64,192,32689,1,8,0:0:0:0:
320,192,32848,1,0,0:0:0:0:
448,192,33008,1,2,0:0:0:0:
64,192,33167,1,0,0:0:0:0:
192,192,33327,1,8,0:0:0:0:
448,192,33486,1,0,0:0:0:0:
64,192,33646,1,2,0:0:0:0:
320,192,33646,1,0,0:0:0:0:
448,192,33965,1,8,0:0:0:0:
320,192,34125,1,0,0:0:0:0:
64,192,34284,1,2,0:0:0:0:
192,192,34444,1,0,0:0:0:0:
64,192,34603,1,8,0:0:0:0:
320,192,34763,1,0,0:0:0:0:
64,192,34923,1,2,0:0:0:0:
448,192,34923,128,0,35561:0:0:0:0:
64,192,35561,1,2,0:0:0:0:
192,192,35561,1,8,0:0:0:0:
320,192,35720,1,8,0:0:0:0:
448,192,35720,1,2,0:0:0:0:
192,192,35880,128,8,36199:0:0:0:0:
320,192,36199,1,2,0:0:0:0:
448,192,36199,1,4,0:0:0:0:
64,192,36359,1,0,0:0:0:0:
192,192,36518,1,8,0:0:0:0:
64,192,36678,1,0,0:0:0:0:
448,192,36837,1,2,0:0:0:0:
320,192,36997,1,0,0:0:0:0:
192,192,37157,1,8,0:0:0:0:
320,192,37316,1,0,0:0:0:0:
448,192,37476,1,2,0:0:0:0:
64,192,37635,1,0,0:0:0:0:
320,192,37795,1,8,0:0:0:0:
192,192,37955,1,0,0:0:0:0:
448,192,38114,1,2,0:0:0:0:
64,192,38274,1,0,0:0:0:0:
320,192,38433,1,8,0:0:0:0:
64,192,38593,128,0,39072:0:0:0:0:
192,192,38752,1,2,0:0:0:0:
448,192,39072,1,8,0:0:0:0:
320,192,39231,1,0,0:0:0:0:
192,192,39391,1,2,0:0:0:0:
64,192,39550,1,0,0:0:0:0:
448,192,39710,1,8,0:0:0:0:
64,192,39869,1,0,0:0:0:0:
192,192,40029,1,2,0:0:0:0:
320,192,40189,1,0,0:0:0:0:
448,192,40348,1,8,0:0:0:0:
192,192,40508,1,0,0:0:0:0:
320,192,40667,1,2,0:0:0:0:
64,192,40827,1,0,0:0:0:0:
448,192,40986,1,8,0:0:0:0:
64,192,41146,128,0,41465:0:0:0:0:
320,192,41306,1,2,0:0:0:0:
192,192,41465,1,0,0:0:0:0:
448,192,41625,1,8,0:0:0:0:
320,192,41784,128,0,42103:0:0:0:0:
64,192,41944,1,2,0:0:0:0:
192,192,42103,1,0,0:0:0:0:
448,192,42263,1,8,0:0:0:0:
192,192,42423,128,0,42742:0:0:0:0:
320,192,42582,1,2,0:0:0:0:
448,192,42742,1,0,0:0:0:0:
64,192,42901,1,8,0:0:0:0:
448,192,43061,128,0,43380:0:0:0:0:
192,192,43220,1,2,0:0:0:0:
64,192,43380,1,0,0:0:0:0:
320,192,43540,1,8,0:0:0:0:
448,192,43699,1,0,0:0:0:0:
64,192,43859,1,2,0:0:0:0:
192,192,43859,1,0,0:0:0:0:
320,192,44018,1,0,0:0:0:0:
64,192,44178,1,8,0:0:0:0:
448,192,44178,1,0,0:0:0:0:
192,192,44337,1,0,0:0:0:0:
320,192,44497,1,2,0:0:0:0:
448,192,44497,1,0,0:0:0:0:
192,192,44657,1,0,0:0:0:0:
64,192,44816,1,8,0:0:0:0:
448,192,44816,1,0,0:0:0:0:
320,192,44976,1,0,0:0:0:0:
64,192,45135,1,0,0:0:0:70:LR_Tom Normal.wav
192,192,45135,1,0,0:0:0:0:
320,192,45375,1,8,0:0:0:0:
192,192,45455,1,8,0:0:0:0:
448,192,45614,1,8,0:0:0:0:
64,192,45853,1,8,0:0:0:0:
192,192,45933,1,8,0:0:0:0:
448,192,46093,1,8,0:0:0:0:
320,192,46173,1,8,0:0:0:0:
192,192,46252,1,0,0:0:0:70:LR_Tom Drop.wav
64,192,46412,1,2,0:0:0:0:
448,192,46412,1,4,0:0:0:0:
192,192,46572,1,0,0:0:0:0:
320,192,46731,1,8,0:0:0:0:
448,192,46891,1,0,0:0:0:0:
192,192,47050,1,2,0:0:0:0:
320,192,47210,1,0,0:0:0:0:
192,192,47369,1,8,0:0:0:0:
64,192,47529,1,0,0:0:0:0:
448,192,47689,1,2,0:0:0:0:
192,192,47848,1,0,0:0:0:0:
320,192,48008,1,8,0:0:0:0:
192,192,48167,1,0,0:0:0:0:
448,192,48327,1,2,0:0:0:0:
64,192,48486,1,0,0:0:0:0:
192,192,48646,1,8,0:0:0:0:
320,192,48806,128,0,49125:0:0:0:0:
192,192,49125,1,0,0:0:0:0:
320,192,49284,1,8,0:0:0:0:
448,192,49444,1,0,0:0:0:0:
64,192,49603,1,2,0:0:0:0:
320,192,49763,1,0,0:0:0:0:
192,192,49923,1,8,0:0:0:0:
64,192,50082,1,0,0:0:0:0:
448,192,50242,1,2,0:0:0:0:
320,192,50401,1,0,0:0:0:0:
192,192,50561,1,8,0:0:0:0:
320,192,50720,1,0,0:0:0:0:
64,192,50880,1,2,0:0:0:0:
448,192,51040,1,0,0:0:0:0:
320,192,51199,1,8,0:0:0:0:
64,192,51359,128,0,51678:0:0:0:0:
192,192,51518,1,2,0:0:0:0:
448,192,51678,1,0,0:0:0:0:
320,192,51837,1,8,0:0:0:0:
192,192,51997,128,0,52316:0:0:0:0:
64,192,52157,1,2,0:0:0:0:
320,192,52316,1,0,0:0:0:0:
448,192,52476,1,8,0:0:0:0:
320,192,52635,128,0,52955:0:0:0:0:
192,192,52795,1,2,0:0:0:0:
64,192,52955,1,0,0:0:0:0:
192,192,53114,1,8,0:0:0:0:
448,192,53274,128,0,53593:0:0:0:0:
192,192,53433,1,2,0:0:0:0:
64,192,53593,1,0,0:0:0:0:
320,192,53752,1,8,0:0:0:0:
448,192,53912,1,0,0:0:0:0:
64,192,54072,1,2,0:0:0:0:
192,192,54072,1,0,0:0:0:0:
448,192,54231,1,0,0:0:0:0:
64,192,54311,1,8,0:0:0:0:
448,192,54391,1,10,0:0:0:0:
192,192,54550,1,0,0:0:0:70:LR_Tom Drop.wav
64,192,54710,1,2,0:0:0:0:
448,192,54790,1,8,0:0:0:0:
64,192,54869,1,8,0:0:0:0:
320,192,55029,1,10,0:0:0:0:
192,192,55189,1,8,0:0:0:0:
320,192,55268,1,8,0:0:0:0:
64,192,55348,1,10,0:0:0:0:
448,192,55508,1,0,0:0:0:70:LR_Tom Hit.wav
192,192,55667,1,10,0:0:0:0:
64,192,55827,1,8,0:0:0:0:
448,192,55986,1,10,0:0:0:0:
320,192,56146,1,8,0:0:0:0:
64,192,56306,1,10,0:0:0:0:
320,192,56465,1,8,0:0:0:0:
64,192,56625,1,2,0:0:0:0:
448,192,56625,1,4,0:0:0:0:
320,192,56784,1,0,0:0:0:0:
192,192,56944,1,0,0:0:0:0:
64,192,57103,1,0,0:0:0:0:
192,192,57263,1,0,0:0:0:0:
320,192,57582,1,0,0:0:0:0:
448,192,57742,1,0,0:0:0:0:
320,192,57901,1,0,0:0:0:0:
192,192,58061,1,0,0:0:0:0:
320,192,58220,1,0,0:0:0:0:
192,192,58540,1,0,0:0:0:0:
64,192,58699,1,0,0:0:0:0:
192,192,58859,1,0,0:0:0:0:
320,192,59178,1,2,0:0:0:0:
448,192,59337,1,0,0:0:0:0:
320,192,59497,1,0,0:0:0:0:
192,192,59657,1,0,0:0:0:0:
64,192,59816,1,0,0:0:0:0:
64,192,60135,1,0,0:0:0:0:
192,192,60295,1,0,0:0:0:0:
320,192,60455,1,0,0:0:0:0:
448,192,60614,1,0,0:0:0:0:
320,192,60774,1,0,0:0:0:0:
64,192,60933,1,0,0:0:0:0:
192,192,61093,1,0,0:0:0:0:
448,192,61252,1,0,0:0:0:0:
320,192,61412,1,0,0:0:0:0:
192,192,61572,1,2,0:0:0:0:
64,192,61731,1,2,0:0:0:0:
448,192,61731,1,0,0:0:0:0:
320,192,61891,1,0,0:0:0:0:
192,192,62050,1,0,0:0:0:0:
64,192,62210,1,0,0:0:0:0:
192,192,62369,1,0,0:0:0:0:
64,192,62689,1,0,0:0:0:0:
192,192,62848,1,0,0:0:0:0:
320,192,63008,1,0,0:0:0:0:
448,192,63167,1,0,0:0:0:0:
320,192,63327,1,0,0:0:0:0:
64,192,63646,1,0,0:0:0:0:
192,192,63806,1,0,0:0:0:0:
320,192,63965,1,0,0:0:0:0:
64,192,64125,1,2,0:0:0:0:
192,192,64284,1,2,0:0:0:0:
448,192,64284,1,8,0:0:0:0:
64,192,64603,1,0,0:0:0:70:LR_Tom Hit 3.wav
192,192,64763,1,8,0:0:0:0:
320,192,64763,1,2,0:0:0:0:
448,192,64923,1,0,0:0:0:70:LR_Tom Hit 2.wav
320,192,65082,1,0,0:0:0:70:LR_Tom Hit 2.wav
64,192,65242,1,2,0:0:0:0:
192,192,65242,1,8,0:0:0:0:
448,192,65401,1,0,0:0:0:70:LR_Tom Hit 3.wav
320,192,65561,1,10,0:0:0:0:
64,192,65720,1,8,0:0:0:0:
192,192,65720,1,0,0:0:0:0:
192,192,65880,1,10,0:0:0:0:
320,192,66040,1,8,0:0:0:0:
448,192,66040,1,2,0:0:0:0:
448,192,66199,1,10,0:0:0:0:
320,192,66359,1,0,0:0:0:0:
64,192,66518,128,8,66837:0:0:0:0:
192,192,66518,128,2,66837:0:0:0:0:
320,192,66837,1,2,0:0:0:0:
448,192,66837,1,4,0:0:0:0:
192,192,66997,1,0,0:0:0:0:
64,192,67157,1,8,0:0:0:0:
320,192,67316,1,0,0:0:0:0:
192,192,67476,1,2,0:0:0:0:
448,192,67476,1,0,0:0:0:0:
192,192,67795,1,8,0:0:0:0:
320,192,67795,1,0,0:0:0:0:
448,192,67955,1,0,0:0:0:0:
64,192,68114,1,2,0:0:0:0:
192,192,68274,1,0,0:0:0:0:
64,192,68433,1,8,0:0:0:0:
320,192,68433,1,0,0:0:0:0:
320,192,68752,1,2,0:0:0:0:
448,192,68752,1,0,0:0:0:0:
192,192,68912,1,0,0:0:0:0:
64,192,69072,1,8,0:0:0:0:
448,192,69072,1,0,0:0:0:0:
64,192,69391,1,2,0:0:0:0:
448,192,69391,1,0,0:0:0:0:
192,192,69550,1,0,0:0:0:0:
64,192,69710,1,8,0:0:0:0:
320,192,69869,1,0,0:0:0:0:
192,192,70029,1,2,0:0:0:0:
448,192,70029,1,0,0:0:0:0:
64,192,70348,1,8,0:0:0:0:
448,192,70348,1,0,0:0:0:0:
320,192,70508,1,0,0:0:0:0:
192,192,70667,1,2,0:0:0:0:
320,192,70827,1,0,0:0:0:0:
192,192,70986,1,8,0:0:0:0:
448,192,70986,1,0,0:0:0:0:
64,192,71146,1,0,0:0:0:0:
320,192,71306,1,2,0:0:0:0:
448,192,71465,1,0,0:0:0:0:
192,192,71625,1,8,0:0:0:0:
64,192,71784,1,0,0:0:0:0:
192,192,71944,1,2,0:0:0:0:
448,192,71944,1,0,0:0:0:0:
320,192,72103,1,0,0:0:0:0:
192,192,72263,1,8,0:0:0:0:
320,192,72423,1,0,0:0:0:0:
64,192,72582,1,2,0:0:0:0:
192,192,72582,1,0,0:0:0:0:
320,192,72901,1,8,0:0:0:0:
448,192,72901,1,0,0:0:0:0:
192,192,73061,1,0,0:0:0:0:
64,192,73220,1,2,0:0:0:0:
320,192,73380,1,0,0:0:0:0:
64,192,73540,1,8,0:0:0:0:
192,192,73540,1,0,0:0:0:0:
320,192,73859,1,2,0:0:0:0:
192,192,74018,1,0,0:0:0:0:
320,192,74178,1,8,0:0:0:0:
448,192,74178,1,0,0:0:0:0:
64,192,74497,1,2,0:0:0:0:
192,192,74497,128,0,74816:0:0:0:0:
320,192,74816,1,8,0:0:0:0:
64,192,74976,1,0,0:0:0:0:
192,192,75135,1,2,0:0:0:0:
320,192,75135,128,0,75455:0:0:0:0:
448,192,75295,1,0,0:0:0:0:
64,192,75455,1,8,0:0:0:0:
448,192,75614,1,0,0:0:0:0:
64,192,75774,1,2,0:0:0:0:
192,192,75774,128,0,76731:0:0:0:0:
320,192,75933,1,0,0:0:0:0:
448,192,76093,1,8,0:0:0:0:
320,192,76252,1,0,0:0:0:0:
64,192,76412,1,2,0:0:0:0:
448,192,76572,1,0,0:0:0:0:
64,192,76731,1,8,0:0:0:0:
320,192,76731,128,0,77050:0:0:0:0:
192,192,77050,1,2,0:0:0:0:
448,192,77050,1,4,0:0:0:0:
320,192,77369,1,2,0:0:0:0:
448,192,77369,1,0,0:0:0:0:
64,192,77689,1,2,0:0:0:0:
192,192,77689,1,0,0:0:0:0:
64,192,78008,1,0,0:0:0:70:LR_Tom Hit 2.wav
448,192,78008,1,0,0:0:0:0:
192,192,78327,1,2,0:0:0:0:
320,192,78327,1,0,0:0:0:0:
64,192,78646,1,2,0:0:0:0:
448,192,78646,1,0,0:0:0:0:
320,192,78965,1,2,0:0:0:0:
448,192,78965,1,0,0:0:0:0:
64,192,79284,1,0,0:0:0:70:LR_Tom Hit 2.wav
192,192,79284,1,0,0:0:0:0:
320,192,79603,1,2,0:0:0:0:
448,192,79603,1,0,0:0:0:0:
64,192,79923,1,2,0:0:0:0:
320,192,79923,1,0,0:0:0:0:
64,192,80242,1,2,0:0:0:0:
192,192,80242,1,0,0:0:0:0:
320,192,80561,1,0,0:0:0:70:LR_Tom Hit 2.wav
448,192,80561,1,0,0:0:0:0:
192,192,80880,1,2,0:0:0:0:
320,192,80880,1,0,0:0:0:0:
64,192,81199,1,2,0:0:0:0:
448,192,81199,1,0,0:0:0:0:
192,192,81518,1,2,0:0:0:0:
320,192,81518,1,0,0:0:0:0:
64,192,81837,1,0,0:0:0:70:LR_Tom Hit 2.wav
192,192,81837,1,0,0:0:0:0:
320,192,82157,1,2,0:0:0:0:
448,192,82157,128,0,83433:0:0:0:0:
64,192,82476,1,10,0:0:0:0:
320,192,82795,1,2,0:0:0:0:
64,192,83114,1,2,0:0:0:0:
64,192,83433,128,2,84710:0:0:0:0:
320,192,83433,1,0,0:0:0:0:
192,192,83752,1,10,0:0:0:0:
320,192,84072,1,2,0:0:0:0:
448,192,84391,1,2,0:0:0:0:
320,192,84710,1,10,0:0:0:0:
192,192,84869,1,0,0:0:0:0:
64,192,85029,1,2,0:0:0:0:
320,192,85189,1,0,0:0:0:0:
64,192,85348,1,2,0:0:0:0:
192,192,85348,1,8,0:0:0:0:
448,192,85508,1,8,0:0:0:0:
320,192,85667,1,10,0:0:0:0:
64,192,85827,1,8,0:0:0:0:
448,192,85827,1,0,0:0:0:0:
192,192,85986,1,0,0:0:0:70:LR_Tom Hit.wav
320,192,86146,1,8,0:0:0:0:
64,192,86306,1,8,0:0:0:0:
192,192,86306,1,0,0:0:0:0:
320,192,86465,1,2,0:0:0:0:
448,192,86465,1,4,0:0:0:0:
64,192,86784,1,2,0:0:0:0:
192,192,86784,1,4,0:0:0:0:
320,192,86944,1,2,0:0:0:0:
448,192,86944,1,4,0:0:0:0:
64,192,87103,128,2,87742:0:0:0:0:
192,192,87103,1,4,0:0:0:0:
