osu file format v14

[General]
AudioFilename: audio.mp3
AudioLeadIn: 0
PreviewTime: 35595
Countdown: 0
SampleSet: Soft
StackLeniency: 0.7
Mode: 3
LetterboxInBreaks: 0
SpecialStyle: 0
WidescreenStoryboard: 0

[Editor]
Bookmarks: 170,5276,15489,25701,35914,46127,56340,66552,76765,87616
DistanceSpacing: 0.8
BeatDivisor: 4
GridSize: 32
TimelineZoom: 1.000005

[Metadata]
Title:Uso no Hibana
TitleUnicode:嘘の火花
Artist:96neko
ArtistUnicode:96猫
Creator:No_sync
Version:Unrequited. [EZ]
Source:クズの本懐
Tags:kuzu no honkai scum's wish opening tv size lerche
BeatmapID:1210237
BeatmapSetID:571027

[Difficulty]
HPDrainRate:7
CircleSize:4
OverallDifficulty:6.5
ApproachRate:5
SliderMultiplier:1.4
SliderTickRate:1

[Events]
//Background and Video events
Video,0,"ED.avi"
0,0,"BG.jpg",0,0
//Break Periods
//Storyboard Layer 0 (Background)
//Storyboard Layer 1 (Fail)
//Storyboard Layer 2 (Pass)
//Storyboard Layer 3 (Foreground)
//Storyboard Sound Samples
Sample,2723,0,"tom.wav",50
Sample,3840,0,"snare.wav",30
Sample,4318,0,"snare.wav",30
Sample,4638,0,"snare.wav",30
Sample,4957,0,"snare.wav",30
Sample,5595,0,"snare.wav",30
Sample,6233,0,"snare.wav",30
Sample,6872,0,"snare.wav",30
Sample,7510,0,"snare.wav",30
Sample,8148,0,"snare.wav",30
Sample,8787,0,"snare.wav",30
Sample,9425,0,"snare.wav",30
Sample,10063,0,"snare.wav",30
Sample,10701,0,"snare.wav",30
Sample,11340,0,"snare.wav",30
Sample,11978,0,"snare.wav",30
Sample,12616,0,"snare.wav",30
Sample,13255,0,"snare.wav",30
Sample,13893,0,"snare.wav",30
Sample,14212,0,"snare.wav",30
Sample,14691,0,"snare.wav",30
Sample,14850,0,"snare.wav",30
Sample,15967,0,"kick.wav",40
Sample,16765,0,"tom.wav",50
Sample,17244,0,"kick.wav",40
Sample,18042,0,"tom.wav",50
Sample,18521,0,"kick.wav",40
Sample,19318,0,"tom.wav",50
Sample,19797,0,"kick.wav",40
Sample,20595,0,"tom.wav",50
Sample,21074,0,"kick.wav",40
Sample,21872,0,"tom.wav",50
Sample,22350,0,"kick.wav",40
Sample,23148,0,"tom.wav",50
Sample,23627,0,"kick.wav",40
Sample,24425,0,"snare.wav",60
Sample,25382,0,"snare.wav",60
Sample,26021,0,"snare.wav",30
Sample,26659,0,"snare.wav",30
Sample,27297,0,"snare.wav",30
Sample,27935,0,"snare.wav",30
Sample,28574,0,"snare.wav",30
Sample,29212,0,"snare.wav",30
Sample,29850,0,"snare.wav",30
Sample,30489,0,"snare.wav",30
Sample,31127,0,"snare.wav",30
Sample,31765,0,"snare.wav",30
Sample,32404,0,"snare.wav",30
Sample,33042,0,"snare.wav",30
Sample,33680,0,"snare.wav",30
Sample,34318,0,"snare.wav",30
Sample,35276,0,"snare.wav",30
Sample,35435,0,"snare.wav",30
Sample,36233,0,"snare.wav",30
Sample,36872,0,"snare.wav",30
Sample,37510,0,"snare.wav",30
Sample,38148,0,"snare.wav",30
Sample,38787,0,"snare.wav",30
Sample,39425,0,"snare.wav",30
Sample,40063,0,"snare.wav",30
Sample,40701,0,"snare.wav",30
Sample,41340,0,"snare.wav",30
Sample,41978,0,"snare.wav",30
Sample,42616,0,"snare.wav",30
Sample,43255,0,"snare.wav",30
Sample,43893,0,"snare.wav",30
Sample,44531,0,"snare.wav",30
Sample,45170,0,"snare.wav",30
Sample,45329,0,"snare.wav",30
Sample,45648,0,"snare.wav",30
Sample,45967,0,"tom.wav",25
Sample,46446,0,"snare.wav",30
Sample,47084,0,"snare.wav",30
Sample,47723,0,"snare.wav",30
Sample,48361,0,"snare.wav",30
Sample,48999,0,"snare.wav",30
Sample,49638,0,"snare.wav",30
Sample,50276,0,"snare.wav",30
Sample,50914,0,"snare.wav",30
Sample,51552,0,"snare.wav",30
Sample,52191,0,"snare.wav",30
Sample,52829,0,"snare.wav",30
Sample,53467,0,"snare.wav",30
Sample,53787,0,"tom.wav",50
Sample,54106,0,"snare.wav",60
Sample,54425,0,"tom.wav",50
Sample,54584,0,"snare.wav",30
Sample,55063,0,"snare.wav",60
Sample,55382,0,"snare.wav",60
Sample,56978,0,"tamb.wav",40
Sample,57457,0,"tamb.wav",40
Sample,58733,0,"kick.wav",40
Sample,58893,0,"kick.wav",40
Sample,58893,0,"tamb.wav",40
Sample,59531,0,"tamb.wav",40
Sample,60010,0,"tamb.wav",40
Sample,60967,0,"tamb.wav",40
Sample,61127,0,"tamb.wav",40
Sample,61287,0,"kick.wav",40
Sample,61287,0,"tamb.wav",40
Sample,61446,0,"tamb.wav",40
Sample,61446,0,"kick.wav",40
Sample,62084,0,"tamb.wav",40
Sample,62563,0,"tamb.wav",40
Sample,63361,0,"tamb.wav",40
Sample,63680,0,"tamb.wav",40
Sample,63999,0,"tamb.wav",40
Sample,64478,0,"tamb.wav",40
Sample,64957,0,"tamb.wav",40
Sample,65435,0,"tamb.wav",40
Sample,65595,0,"tamb.wav",40
Sample,65755,0,"tamb.wav",40
Sample,65914,0,"tamb.wav",40
Sample,66233,0,"tamb.wav",40
Sample,66552,0,"kick.wav",40
Sample,66872,0,"snare.wav",30
Sample,67510,0,"snare.wav",30
Sample,68148,0,"snare.wav",30
Sample,68787,0,"snare.wav",30
Sample,69425,0,"snare.wav",30
Sample,70063,0,"snare.wav",30
Sample,70701,0,"snare.wav",30
Sample,71340,0,"snare.wav",30
Sample,71978,0,"snare.wav",30
Sample,72616,0,"snare.wav",30
Sample,73255,0,"snare.wav",30
Sample,73893,0,"snare.wav",30
Sample,74531,0,"snare.wav",30
Sample,75170,0,"snare.wav",30
Sample,75808,0,"snare.wav",30
Sample,77084,0,"tamb.wav",40
Sample,77404,0,"tamb.wav",40
Sample,77723,0,"tom.wav",50
Sample,77723,0,"tamb.wav",40
Sample,78042,0,"tamb.wav",40
Sample,78361,0,"tamb.wav",40
Sample,78680,0,"tamb.wav",40
Sample,78999,0,"tom.wav",50
Sample,78999,0,"tamb.wav",40
Sample,79318,0,"tamb.wav",40
Sample,79638,0,"tamb.wav",40
Sample,79957,0,"tamb.wav",40
Sample,80276,0,"tom.wav",50
Sample,80276,0,"tamb.wav",40
Sample,80595,0,"tamb.wav",40
Sample,80914,0,"tamb.wav",40
Sample,81233,0,"tamb.wav",40
Sample,81552,0,"tamb.wav",40
Sample,81552,0,"tom.wav",50
Sample,81872,0,"snare.wav",60
Sample,82191,0,"snare.wav",60
Sample,82510,0,"snare.wav",60
Sample,82829,0,"snare.wav",60
Sample,83148,0,"snare.wav",60
Sample,83467,0,"snare.wav",60
Sample,83787,0,"snare.wav",60
Sample,84106,0,"snare.wav",60
Sample,84425,0,"snare.wav",60
Sample,84744,0,"snare.wav",60
Sample,85063,0,"snare.wav",60
Sample,85223,0,"snare.wav",30
Sample,85542,0,"snare.wav",30
Sample,86021,0,"snare.wav",60
Sample,86180,0,"kick.wav",40
Sample,86499,0,"kick.wav",40
Sample,86659,0,"kick.wav",40
Sample,86818,0,"kick.wav",40
Sample,86978,0,"kick.wav",40
Sample,86978,0,"soft-hitwhistle.wav",40

[TimingPoints]
170,319.148936170213,4,2,1,40,1,0
35914,-100,4,2,1,40,0,1
56340,-100,4,2,1,40,0,0

[HitObjects]
448,192,170,5,4,0:0:0:40:
320,192,170,1,0,0:0:0:40:kick.wav
192,192,2244,1,0,0:0:0:50:tom.wav
320,192,2404,1,0,0:0:0:50:tom.wav
448,192,2563,1,0,0:0:0:50:tom.wav
64,192,2723,1,2,0:0:0:40:
64,192,3840,1,0,0:0:0:30:snare.wav
448,192,3999,1,0,0:0:0:60:snare.wav
192,192,4159,1,0,0:0:0:60:snare.wav
64,192,4318,1,0,0:0:0:30:snare.wav
320,192,4478,1,0,0:0:0:60:snare.wav
448,192,4638,1,0,0:0:0:30:snare.wav
192,192,4797,1,0,0:0:0:60:snare.wav
64,192,4957,1,0,0:0:0:30:snare.wav
448,192,5116,1,0,0:0:0:60:snare.wav
320,192,5276,1,4,0:0:0:40:
192,192,5276,1,0,0:0:0:40:kick.wav
64,192,5595,1,0,0:0:0:30:snare.wav
320,192,5914,128,0,6233:0:0:0:40:kick.wav
448,192,6233,1,0,0:0:0:30:snare.wav
64,192,6552,1,0,0:0:0:40:kick.wav
192,192,6872,128,0,7191:0:0:0:30:snare.wav
320,192,7191,1,0,0:0:0:40:kick.wav
448,192,7510,128,0,7829:0:0:0:30:snare.wav
64,192,7829,1,0,0:0:0:40:kick.wav
192,192,8148,1,0,0:0:0:30:snare.wav
320,192,8467,128,0,8787:0:0:0:40:kick.wav
64,192,8787,1,0,0:0:0:30:snare.wav
448,192,9106,1,0,0:0:0:40:kick.wav
192,192,9425,1,0,0:0:0:30:snare.wav
320,192,9744,1,0,0:0:0:40:kick.wav
64,192,10063,1,0,0:0:0:30:snare.wav
448,192,10382,128,0,10701:0:0:0:40:kick.wav
192,192,10701,1,0,0:0:0:30:snare.wav
64,192,11021,128,0,11340:0:0:0:40:kick.wav
448,192,11340,1,0,0:0:0:30:snare.wav
192,192,11659,1,0,0:0:0:40:kick.wav
320,192,11978,128,0,12297:0:0:0:30:snare.wav
64,192,12297,1,0,0:0:0:40:kick.wav
448,192,12616,128,0,12935:0:0:0:30:snare.wav
64,192,12935,128,0,13255:0:0:0:40:kick.wav
320,192,13255,1,0,0:0:0:30:snare.wav
192,192,13574,1,0,0:0:0:40:kick.wav
448,192,13893,1,0,0:0:0:30:snare.wav
64,192,14212,1,0,0:0:0:30:snare.wav
192,192,14531,1,0,0:0:0:40:kick.wav
448,192,14691,1,0,0:0:0:30:snare.wav
320,192,14850,1,0,0:0:0:30:snare.wav
192,192,15010,1,0,0:0:0:60:snare.wav
64,192,15170,128,0,15489:0:0:0:40:kick.wav
448,192,15489,1,4,0:0:0:40:
320,192,15489,1,0,0:0:0:40:kick.wav
192,192,15808,1,2,0:0:0:40:
320,192,15967,1,2,0:0:0:40:
64,192,16765,1,2,0:0:0:40:
320,192,17084,1,2,0:0:0:40:
192,192,17244,1,2,0:0:0:40:
448,192,17563,1,2,0:0:0:40:
64,192,17723,1,2,0:0:0:40:
448,192,18042,1,2,0:0:0:40:
192,192,18361,1,2,0:0:0:40:
320,192,18521,1,2,0:0:0:40:
64,192,19318,1,2,0:0:0:40:
320,192,19638,1,2,0:0:0:40:
192,192,19797,1,2,0:0:0:40:
448,192,20116,1,2,0:0:0:40:
64,192,20276,1,2,0:0:0:40:
448,192,20595,1,2,0:0:0:40:
192,192,20914,1,2,0:0:0:40:
320,192,21074,1,2,0:0:0:40:
64,192,21233,128,0,21872:0:0:0:40:tamb.wav
448,192,21872,1,2,0:0:0:40:
192,192,22191,1,2,0:0:0:40:
320,192,22350,1,2,0:0:0:40:
64,192,22829,128,0,23148:0:0:0:0:
448,192,23148,128,2,23467:0:0:0:40:
192,192,23467,1,2,0:0:0:40:
320,192,23627,1,2,0:0:0:40:
64,192,24425,128,2,24904:0:0:0:40:
448,192,24904,128,0,25382:0:0:0:60:snare.wav
192,192,25382,128,2,25701:0:0:0:40:
320,192,25701,1,4,0:0:0:40:
448,192,25701,1,0,0:0:0:40:kick.wav
64,192,26021,1,0,0:0:0:30:snare.wav
320,192,26340,1,0,0:0:0:40:kick.wav
448,192,26499,1,2,0:0:0:40:
192,192,26659,128,0,26978:0:0:0:30:snare.wav
64,192,26978,1,0,0:0:0:40:kick.wav
320,192,27297,1,0,0:0:0:30:snare.wav
192,192,27616,1,0,0:0:0:40:kick.wav
64,192,27776,1,2,0:0:0:40:
320,192,27935,128,0,28255:0:0:0:30:snare.wav
448,192,28255,1,0,0:0:0:40:kick.wav
192,192,28574,1,0,0:0:0:30:snare.wav
320,192,28893,1,0,0:0:0:40:kick.wav
448,192,29052,1,2,0:0:0:40:
64,192,29212,128,0,29531:0:0:0:30:snare.wav
192,192,29531,1,0,0:0:0:40:kick.wav
320,192,29850,1,0,0:0:0:30:snare.wav
192,192,30170,1,0,0:0:0:40:kick.wav
64,192,30329,1,2,0:0:0:40:
448,192,30489,128,0,30808:0:0:0:30:snare.wav
320,192,30808,1,0,0:0:0:40:kick.wav
192,192,31127,1,0,0:0:0:30:snare.wav
320,192,31446,1,0,0:0:0:40:kick.wav
448,192,31606,1,2,0:0:0:40:
64,192,31765,128,0,32084:0:0:0:30:snare.wav
192,192,32084,1,0,0:0:0:40:kick.wav
320,192,32404,1,0,0:0:0:30:snare.wav
192,192,32723,1,0,0:0:0:40:kick.wav
64,192,32882,1,2,0:0:0:40:
320,192,33042,128,0,33361:0:0:0:30:snare.wav
448,192,33361,1,0,0:0:0:40:kick.wav
192,192,33680,1,0,0:0:0:30:snare.wav
320,192,33999,1,0,0:0:0:40:kick.wav
192,192,34318,128,0,34638:0:0:0:30:snare.wav
448,192,34638,128,0,35276:0:0:0:40:kick.wav
192,192,35276,1,0,0:0:0:30:snare.wav
320,192,35435,1,0,0:0:0:30:snare.wav
64,192,35595,128,0,35914:0:0:0:60:snare.wav
448,192,35914,1,4,0:0:0:40:
320,192,35914,1,0,0:0:0:40:kick.wav
192,192,36233,1,0,0:0:0:30:snare.wav
448,192,36552,1,0,0:0:0:40:kick.wav
64,192,36872,1,0,0:0:0:30:snare.wav
320,192,37191,1,0,0:0:0:40:kick.wav
64,192,37510,1,0,0:0:0:30:snare.wav
192,192,37829,1,0,0:0:0:40:kick.wav
448,192,38148,1,0,0:0:0:30:snare.wav
320,192,38467,1,0,0:0:0:40:kick.wav
64,192,38787,1,0,0:0:0:30:snare.wav
192,192,39106,1,0,0:0:0:40:kick.wav
320,192,39425,1,0,0:0:0:30:snare.wav
64,192,39744,1,0,0:0:0:40:kick.wav
448,192,40063,1,0,0:0:0:30:snare.wav
192,192,40382,1,0,0:0:0:40:kick.wav
320,192,40701,1,0,0:0:0:30:snare.wav
64,192,41021,1,0,0:0:0:40:kick.wav
448,192,41340,1,0,0:0:0:30:snare.wav
192,192,41659,1,0,0:0:0:40:kick.wav
320,192,41978,1,0,0:0:0:30:snare.wav
192,192,42297,1,0,0:0:0:40:kick.wav
64,192,42616,1,0,0:0:0:30:snare.wav
192,192,42935,1,0,0:0:0:40:kick.wav
320,192,43255,1,0,0:0:0:30:snare.wav
448,192,43574,1,0,0:0:0:40:kick.wav
64,192,43893,1,0,0:0:0:30:snare.wav
320,192,44212,1,0,0:0:0:40:kick.wav
192,192,44531,1,0,0:0:0:30:snare.wav
448,192,44850,1,0,0:0:0:50:tom.wav
320,192,45170,1,0,0:0:0:30:snare.wav
192,192,45329,1,0,0:0:0:30:snare.wav
192,192,45648,1,0,0:0:0:30:snare.wav
320,192,45808,1,0,0:0:0:60:snare.wav
64,192,45967,1,0,0:0:0:25:tom.wav
448,192,46127,1,4,0:0:0:40:
320,192,46127,1,0,0:0:0:40:kick.wav
192,192,46446,1,0,0:0:0:30:snare.wav
64,192,46765,1,0,0:0:0:40:kick.wav
448,192,47084,1,0,0:0:0:30:snare.wav
192,192,47404,1,0,0:0:0:40:kick.wav
448,192,47723,1,0,0:0:0:30:snare.wav
64,192,48042,1,0,0:0:0:40:kick.wav
448,192,48361,1,0,0:0:0:30:snare.wav
64,192,48680,1,0,0:0:0:40:kick.wav
320,192,48999,1,0,0:0:0:30:snare.wav
192,192,49318,1,0,0:0:0:40:kick.wav
320,192,49638,1,0,0:0:0:30:snare.wav
448,192,49957,1,0,0:0:0:40:kick.wav
64,192,50276,1,0,0:0:0:30:snare.wav
192,192,50595,1,0,0:0:0:40:kick.wav
448,192,50914,1,0,0:0:0:30:snare.wav
320,192,51233,1,0,0:0:0:40:kick.wav
192,192,51552,1,0,0:0:0:30:snare.wav
448,192,51872,1,0,0:0:0:40:kick.wav
320,192,52191,1,0,0:0:0:30:snare.wav
64,192,52510,1,0,0:0:0:40:kick.wav
192,192,52829,1,0,0:0:0:30:snare.wav
448,192,53148,1,0,0:0:0:40:kick.wav
64,192,53467,1,0,0:0:0:30:snare.wav
320,192,53787,1,2,0:0:0:40:
448,192,54106,1,2,0:0:0:40:
192,192,54265,1,0,0:0:0:50:tom.wav
320,192,54425,1,2,0:0:0:40:
64,192,54584,1,0,0:0:0:30:snare.wav
448,192,54744,1,2,0:0:0:40:
192,192,55063,1,2,0:0:0:40:
320,192,55223,1,0,0:0:0:50:tom.wav
64,192,55382,128,2,56340:0:0:0:40:
448,192,56340,128,4,56818:0:0:0:40:
320,192,56340,1,0,0:0:0:40:kick.wav
192,192,56978,128,2,57297:0:0:0:40:
320,192,57457,128,2,58414:0:0:0:40:
64,192,58733,1,2,0:0:0:40:
448,192,58893,128,2,59372:0:0:0:40:
192,192,59531,128,2,59850:0:0:0:40:
320,192,60010,128,2,60967:0:0:0:40:
64,192,60967,1,2,0:0:0:40:
448,192,61127,1,2,0:0:0:40:
192,192,61287,1,2,0:0:0:40:
320,192,61446,128,2,61925:0:0:0:40:
192,192,62084,128,2,62404:0:0:0:40:
64,192,62563,128,2,63361:0:0:0:40:
448,192,63361,128,2,63680:0:0:0:40:
64,192,63680,1,2,0:0:0:40:
320,192,63840,1,0,0:0:0:50:tom.wav
192,192,63999,1,0,0:0:0:50:tom.wav
448,192,64478,1,0,0:0:0:50:tom.wav
64,192,64957,1,0,0:0:0:50:tom.wav
320,192,65435,1,0,0:0:0:50:tom.wav
192,192,65595,1,0,0:0:0:50:tom.wav
448,192,65755,1,0,0:0:0:50:tom.wav
64,192,65914,128,0,66552:0:0:0:50:tom.wav
448,192,66233,128,0,66552:0:0:0:60:snare.wav
192,192,66552,1,4,0:0:0:40:
320,192,66872,1,0,0:0:0:30:snare.wav
64,192,67191,128,0,67829:0:0:0:40:kick.wav
448,192,67510,1,0,0:0:0:30:snare.wav
320,192,67829,128,0,68467:0:0:0:40:kick.wav
192,192,68148,1,0,0:0:0:30:snare.wav
64,192,68467,128,0,68787:0:0:0:40:kick.wav
448,192,68787,1,0,0:0:0:30:snare.wav
320,192,69106,1,0,0:0:0:40:kick.wav
192,192,69425,1,0,0:0:0:30:snare.wav
448,192,69744,128,0,70382:0:0:0:40:kick.wav
64,192,70063,1,0,0:0:0:30:snare.wav
192,192,70382,128,0,71021:0:0:0:40:kick.wav
320,192,70701,1,0,0:0:0:30:snare.wav
448,192,71021,128,0,71340:0:0:0:40:kick.wav
64,192,71340,1,0,0:0:0:30:snare.wav
192,192,71659,1,0,0:0:0:40:kick.wav
320,192,71978,1,0,0:0:0:30:snare.wav
64,192,72297,128,0,72935:0:0:0:40:kick.wav
448,192,72616,1,0,0:0:0:30:snare.wav
320,192,72935,128,0,73574:0:0:0:40:kick.wav
192,192,73255,1,0,0:0:0:30:snare.wav
64,192,73574,128,0,73893:0:0:0:40:kick.wav
448,192,73893,1,0,0:0:0:30:snare.wav
320,192,74212,1,0,0:0:0:40:kick.wav
192,192,74531,1,0,0:0:0:30:snare.wav
64,192,74850,128,0,75489:0:0:0:40:kick.wav
448,192,75170,1,0,0:0:0:30:snare.wav
320,192,75489,128,0,76127:0:0:0:40:kick.wav
192,192,75808,1,0,0:0:0:30:snare.wav
64,192,76127,128,0,76446:0:0:0:40:kick.wav
448,192,76446,128,0,76765:0:0:0:60:snare.wav
64,192,76765,1,4,0:0:0:40:
192,192,76765,1,0,0:0:0:40:kick.wav
320,192,77084,1,2,0:0:0:40:
448,192,77404,1,2,0:0:0:40:
64,192,77723,1,2,0:0:0:40:
192,192,78042,1,2,0:0:0:40:
320,192,78361,1,2,0:0:0:40:
64,192,78680,1,2,0:0:0:40:
192,192,78999,1,2,0:0:0:40:
448,192,79318,1,2,0:0:0:40:
320,192,79638,1,2,0:0:0:40:
192,192,79957,1,2,0:0:0:40:
448,192,80276,1,2,0:0:0:40:
320,192,80595,1,2,0:0:0:40:
64,192,80914,1,2,0:0:0:40:
320,192,81233,1,2,0:0:0:40:
192,192,81552,1,2,0:0:0:40:
448,192,81872,1,2,0:0:0:40:
192,192,82191,1,2,0:0:0:40:
320,192,82510,1,2,0:0:0:40:
64,192,82829,1,2,0:0:0:40:
448,192,83148,1,2,0:0:0:40:
192,192,83467,1,2,0:0:0:40:
320,192,83787,1,2,0:0:0:40:
64,192,84106,1,2,0:0:0:40:
320,192,84425,1,2,0:0:0:40:
192,192,84584,1,0,0:0:0:60:snare.wav
448,192,84744,1,2,0:0:0:40:
64,192,85063,1,2,0:0:0:40:
320,192,85223,1,0,0:0:0:30:snare.wav
192,192,85382,1,2,0:0:0:40:
448,192,85542,1,0,0:0:0:30:snare.wav
64,192,85701,1,0,0:0:0:50:tom.wav
192,192,85861,1,0,0:0:0:60:snare.wav
320,192,86021,1,2,0:0:0:40:
448,192,86180,1,4,0:0:0:40:
64,192,86499,1,4,0:0:0:40:
448,192,86659,1,4,0:0:0:40:
192,192,86818,1,4,0:0:0:40:
320,192,86978,128,4,87616:0:0:0:40:
