osu file format v14

[General]
AudioFilename: audio.mp3
AudioLeadIn: 0
PreviewTime: 35595
Countdown: 0
SampleSet: Soft
StackLeniency: 0.7
Mode: 3
LetterboxInBreaks: 0
SpecialStyle: 0
WidescreenStoryboard: 0

[Editor]
Bookmarks: 170,5276,15489,25701,35914,46127,56340,66552,76765,87616
DistanceSpacing: 0.8
BeatDivisor: 4
GridSize: 32
TimelineZoom: 2.900004

[Metadata]
Title:Uso no Hibana
TitleUnicode:嘘の火花
Artist:96neko
ArtistUnicode:96猫
Creator:No_sync
Version:Heartbreak. [SC]
Source:クズの本懐
Tags:kuzu no honkai scum's wish opening tv size lerche
BeatmapID:1210235
BeatmapSetID:571027

[Difficulty]
HPDrainRate:8.4
CircleSize:4
OverallDifficulty:8
ApproachRate:5
SliderMultiplier:1.4
SliderTickRate:1

[Events]
//Background and Video events
Video,0,"ED.avi"
0,0,"BG.jpg",0,0
//Break Periods
//Storyboard Layer 0 (Background)
//Storyboard Layer 1 (Fail)
//Storyboard Layer 2 (Pass)
//Storyboard Layer 3 (Foreground)
//Storyboard Sound Samples
Sample,58893,0,"tamb.wav",40
Sample,61287,0,"tamb.wav",40
Sample,61446,0,"kick.wav",40

[TimingPoints]
170,319.148936170213,4,2,1,40,1,0
170,-125,4,2,1,40,0,0
2244,-111.111111111111,4,2,1,40,0,0
3521,-100,4,2,1,40,0,0
15489,-111.111111111111,4,2,1,40,0,0
24425,-90.909,4,2,1,40,0,0
24465,-111.111,4,2,1,40,0,0
24505,-90.909,4,2,1,40,0,0
24544,-111.111,4,2,1,40,0,0
24584,-90.909,4,2,1,40,0,0
24664,-111.111,4,2,1,40,0,0
24744,-90.909,4,2,1,40,0,0
24824,-111.111,4,2,1,40,0,0
24904,-90.909,4,2,1,40,0,0
24943,-111.111,4,2,1,40,0,0
24983,-90.909,4,2,1,40,0,0
25023,-111.111,4,2,1,40,0,0
25063,-90.909,4,2,1,40,0,0
25143,-111.111,4,2,1,40,0,0
25223,-90.909,4,2,1,40,0,0
25302,-111.111,4,2,1,40,0,0
25382,-100,4,2,1,40,0,0
34638,-142.857142857143,4,2,1,40,0,0
35116,-125,4,2,1,40,0,0
35156,-83.333,4,2,1,40,0,0
35196,-125,4,2,1,40,0,0
35236,-83.333,4,2,1,40,0,0
35276,-125,4,2,1,40,0,0
35355,-83.333,4,2,1,40,0,0
35435,-125,4,2,1,40,0,0
35515,-83.333,4,2,1,40,0,0
35595,-100,4,2,1,40,0,0
35914,-100,4,2,1,40,0,1
44850,-76.923,4,2,1,40,0,1
44890,-142.857,4,2,1,40,0,1
44930,-76.923,4,2,1,40,0,1
44970,-142.857,4,2,1,40,0,1
45010,-76.923,4,2,1,40,0,1
45050,-142.857,4,2,1,40,0,1
45090,-76.923,4,2,1,40,0,1
45130,-142.857,4,2,1,40,0,1
45170,-76.923,4,2,1,40,0,1
45209,-142.857,4,2,1,40,0,1
45249,-76.923,4,2,1,40,0,1
45289,-142.857,4,2,1,40,0,1
45329,-76.923,4,2,1,40,0,1
45369,-142.857,4,2,1,40,0,1
45409,-76.923,4,2,1,40,0,1
45449,-142.857,4,2,1,40,0,1
45489,-76.923,4,2,1,40,0,1
45515,-142.857,4,2,1,40,0,1
45542,-76.923,4,2,1,40,0,1
45595,-142.857,4,2,1,40,0,1
45648,-76.923,4,2,1,40,0,1
45688,-142.857,4,2,1,40,0,1
45728,-76.923,4,2,1,40,0,1
45768,-142.857,4,2,1,40,0,1
45808,-76.923,4,2,1,40,0,1
45848,-142.857,4,2,1,40,0,1
45888,-76.923,4,2,1,40,0,1
45927,-142.857,4,2,1,40,0,1
45967,-76.923,4,2,1,40,0,1
46007,-142.857,4,2,1,40,0,1
46047,-76.923,4,2,1,40,0,1
46087,-142.857,4,2,1,40,0,1
46127,-100,4,2,1,40,0,1
53787,-83.333,4,2,1,40,0,1
53826,-125,4,2,1,40,0,1
53866,-83.333,4,2,1,40,0,1
53906,-125,4,2,1,40,0,1
53946,-83.333,4,2,1,40,0,1
53986,-125,4,2,1,40,0,1
54026,-83.333,4,2,1,40,0,1
54066,-125,4,2,1,40,0,1
54106,-83.333,4,2,1,40,0,1
54145,-125,4,2,1,40,0,1
54185,-83.333,4,2,1,40,0,1
54225,-125,4,2,1,40,0,1
54265,-83.333,4,2,1,40,0,1
54305,-125,4,2,1,40,0,1
54345,-83.333,4,2,1,40,0,1
54385,-125,4,2,1,40,0,1
54425,-83.333,4,2,1,40,0,1
54465,-125,4,2,1,40,0,1
54505,-83.333,4,2,1,40,0,1
54544,-125,4,2,1,40,0,1
54584,-83.333,4,2,1,40,0,1
54624,-125,4,2,1,40,0,1
54664,-83.333,4,2,1,40,0,1
54704,-125,4,2,1,40,0,1
54744,-83.333,4,2,1,40,0,1
54784,-125,4,2,1,40,0,1
54824,-83.333,4,2,1,40,0,1
54864,-125,4,2,1,40,0,1
54904,-83.333,4,2,1,40,0,1
54943,-125,4,2,1,40,0,1
54983,-83.333,4,2,1,40,0,1
55023,-125,4,2,1,40,0,1
55063,-83.333,4,2,1,40,0,1
55103,-125,4,2,1,40,0,1
55143,-83.333,4,2,1,40,0,1
55183,-125,4,2,1,40,0,1
55223,-83.333,4,2,1,40,0,1
55262,-125,4,2,1,40,0,1
55302,-83.333,4,2,1,40,0,1
55342,-125,4,2,1,40,0,1
55382,-83.333,4,2,1,40,0,1
55422,-125,4,2,1,40,0,1
55462,-83.333,4,2,1,40,0,1
55502,-125,4,2,1,40,0,1
55542,-83.333,4,2,1,40,0,1
55582,-125,4,2,1,40,0,1
55622,-83.333,4,2,1,40,0,1
55661,-125,4,2,1,40,0,1
55701,-83.333,4,2,1,40,0,1
55741,-125,4,2,1,40,0,1
55781,-83.333,4,2,1,40,0,1
55821,-125,4,2,1,40,0,1
55861,-83.333,4,2,1,40,0,1
55901,-125,4,2,1,40,0,1
55941,-83.333,4,2,1,40,0,1
55981,-125,4,2,1,40,0,1
56021,-83.333,4,2,1,40,0,1
56060,-125,4,2,1,40,0,1
56100,-83.333,4,2,1,40,0,1
56140,-125,4,2,1,40,0,1
56180,-83.333,4,2,1,40,0,1
56220,-125,4,2,1,40,0,1
56260,-83.333,4,2,1,40,0,1
56300,-125,4,2,1,40,0,1
56340,-100,4,2,1,40,0,0
56978,-105.263157894737,4,2,1,40,0,0
57457,-117.647058823529,4,2,1,40,0,0
58893,-125,4,2,1,40,0,0
59531,-133.333333333333,4,2,1,40,0,0
60010,-153.846153846154,4,2,1,40,0,0
60967,-151.515151515152,4,2,1,40,0,0
61127,-149.253731343284,4,2,1,40,0,0
61287,-147.058823529412,4,2,1,40,0,0
61446,-144.927536231884,4,2,1,40,0,0
62084,-135.135135135135,4,2,1,40,0,0
62563,-125,4,2,1,40,0,0
63361,-121.951219512195,4,2,1,40,0,0
63680,-119.047619047619,4,2,1,40,0,0
63999,-116.279069767442,4,2,1,40,0,0
64318,-113.636363636364,4,2,1,40,0,0
64478,-111.111111111111,4,2,1,40,0,0
64638,-109.89010989011,4,2,1,40,0,0
64797,-108.695652173913,4,2,1,40,0,0
64957,-107.52688172043,4,2,1,40,0,0
65116,-106.382978723404,4,2,1,40,0,0
65276,-105.263157894737,4,2,1,40,0,0
65435,-104.166666666667,4,2,1,40,0,0
65595,-103.092783505155,4,2,1,40,0,0
65755,-102.040816326531,4,2,1,40,0,0
65914,-101.010101010101,4,2,1,40,0,0
66074,-100,4,2,1,40,0,0
66552,-100,4,2,1,40,0,0
76765,-111.111111111111,4,2,1,40,0,0
81872,-100,4,2,1,40,0,0
86021,-76.923,4,2,1,40,0,0
86100,-142.857,4,2,1,40,0,0
86180,-76.923,4,2,1,40,0,0
86339,-142.857,4,2,1,40,0,0
86499,-76.923,4,2,1,40,0,0
86579,-142.857,4,2,1,40,0,0
86659,-76.923,4,2,1,40,0,0
86738,-142.857,4,2,1,40,0,0
86818,-76.923,4,2,1,40,0,0
86898,-142.857,4,2,1,40,0,0
86978,-100,4,2,1,40,0,0
87138,-117.647058823529,4,2,1,40,0,0
87297,-142.857142857143,4,2,1,40,0,0
87457,-181.818181818182,4,2,1,40,0,0

[HitObjects]
64,192,170,5,4,0:0:0:40:
192,192,170,1,0,0:0:0:40:kick.wav
448,192,170,128,0,489:0:0:0:0:
320,192,489,128,0,648:0:0:0:0:
192,192,648,128,0,967:0:0:0:0:
448,192,967,128,0,1127:0:0:0:0:
64,192,1127,128,0,1446:0:0:0:0:
192,192,1446,128,0,1606:0:0:0:0:
448,192,1606,128,0,1925:0:0:0:0:
320,192,1925,128,0,2084:0:0:0:0:
192,192,2084,128,0,2404:0:0:0:0:
448,192,2244,1,0,0:0:0:50:tom.wav
64,192,2244,1,0,0:0:0:0:
448,192,2404,1,0,0:0:0:50:tom.wav
320,192,2404,128,0,2723:0:0:0:0:
192,192,2563,1,0,0:0:0:50:tom.wav
64,192,2563,1,0,0:0:0:0:
448,192,2723,1,2,0:0:0:40:
64,192,2723,128,0,3042:0:0:0:50:tom.wav
192,192,3042,128,0,3201:0:0:0:0:
320,192,3201,128,0,3521:0:0:0:0:
64,192,3521,1,0,0:0:0:60:snare.wav
192,192,3521,1,0,0:0:0:0:
320,192,3600,1,0,0:0:0:60:snare.wav
448,192,3600,1,0,0:0:0:0:
64,192,3680,1,0,0:0:0:60:snare.wav
192,192,3680,1,0,0:0:0:0:
320,192,3760,1,0,0:0:0:60:snare.wav
192,192,3840,1,0,0:0:0:30:snare.wav
64,192,3840,1,0,0:0:0:30:snare.wav
448,192,3840,1,0,0:0:0:0:
64,192,3920,1,0,0:0:0:60:snare.wav
192,192,3920,1,0,0:0:0:0:
320,192,3999,1,0,0:0:0:60:snare.wav
448,192,3999,1,0,0:0:0:0:
64,192,4159,1,0,0:0:0:60:snare.wav
192,192,4159,1,0,0:0:0:0:
448,192,4239,1,0,0:0:0:60:snare.wav
320,192,4239,1,0,0:0:0:0:
64,192,4318,1,0,0:0:0:30:snare.wav
448,192,4318,1,0,0:0:0:30:snare.wav
192,192,4318,1,0,0:0:0:0:
320,192,4478,1,0,0:0:0:60:snare.wav
448,192,4478,1,0,0:0:0:0:
64,192,4558,1,0,0:0:0:60:snare.wav
192,192,4558,1,0,0:0:0:0:
64,192,4638,1,0,0:0:0:30:snare.wav
320,192,4638,1,0,0:0:0:30:snare.wav
448,192,4638,1,0,0:0:0:0:
64,192,4797,1,0,0:0:0:60:snare.wav
192,192,4797,1,0,0:0:0:0:
320,192,4877,1,0,0:0:0:60:snare.wav
448,192,4877,1,0,0:0:0:0:
192,192,4957,1,0,0:0:0:30:snare.wav
320,192,4957,1,0,0:0:0:30:snare.wav
64,192,4957,1,0,0:0:0:0:
448,192,5116,1,0,0:0:0:60:snare.wav
320,192,5116,1,0,0:0:0:0:
192,192,5196,1,0,0:0:0:60:snare.wav
64,192,5196,1,0,0:0:0:0:
192,192,5276,1,4,0:0:0:40:
448,192,5276,1,0,0:0:0:40:kick.wav
320,192,5276,128,0,5435:0:0:0:0:
192,192,5435,128,2,5595:0:0:0:40:
448,192,5595,1,0,0:0:0:30:snare.wav
64,192,5595,1,0,0:0:0:30:snare.wav
320,192,5595,128,0,5755:0:0:0:0:
192,192,5755,128,2,5914:0:0:0:40:
64,192,5914,1,0,0:0:0:40:kick.wav
448,192,5914,128,0,6154:0:0:0:0:
192,192,6074,1,2,0:0:0:40:
64,192,6233,1,0,0:0:0:30:snare.wav
192,192,6233,1,0,0:0:0:30:snare.wav
320,192,6233,128,0,6393:0:0:0:0:
64,192,6393,128,2,6552:0:0:0:40:
192,192,6552,1,0,0:0:0:40:kick.wav
320,192,6552,128,0,6632:0:0:0:0:
320,192,6712,128,2,6792:0:0:0:40:
192,192,6872,1,0,0:0:0:30:snare.wav
320,192,6872,1,0,0:0:0:30:snare.wav
64,192,6872,128,0,7111:0:0:0:0:
448,192,7031,1,2,0:0:0:40:
64,192,7191,1,0,0:0:0:40:kick.wav
192,192,7191,128,0,7271:0:0:0:0:
192,192,7350,128,2,7430:0:0:0:40:
192,192,7510,1,0,0:0:0:30:snare.wav
448,192,7510,1,0,0:0:0:30:snare.wav
320,192,7510,128,0,7749:0:0:0:0:
64,192,7670,1,2,0:0:0:40:
320,192,7829,1,0,0:0:0:40:kick.wav
448,192,7829,128,0,7989:0:0:0:0:
64,192,7989,128,2,8148:0:0:0:40:
192,192,8148,1,0,0:0:0:30:snare.wav
320,192,8148,1,0,0:0:0:30:snare.wav
448,192,8148,128,0,8308:0:0:0:0:
64,192,8308,128,2,8467:0:0:0:40:
320,192,8467,1,0,0:0:0:40:kick.wav
192,192,8467,128,0,8707:0:0:0:0:
448,192,8627,1,2,0:0:0:40:
320,192,8787,1,0,0:0:0:30:snare.wav
448,192,8787,1,0,0:0:0:30:snare.wav
64,192,8787,128,0,8946:0:0:0:0:
320,192,8946,128,2,9106:0:0:0:40:
192,192,9106,1,0,0:0:0:40:kick.wav
448,192,9106,128,0,9185:0:0:0:0:
448,192,9265,128,2,9345:0:0:0:40:
320,192,9425,1,0,0:0:0:30:snare.wav
448,192,9425,1,0,0:0:0:30:snare.wav
192,192,9425,128,0,9584:0:0:0:0:
64,192,9584,128,2,9744:0:0:0:40:
320,192,9744,1,0,0:0:0:40:kick.wav
448,192,9744,128,0,9904:0:0:0:0:
64,192,9904,128,2,10063:0:0:0:40:
192,192,10063,1,0,0:0:0:30:snare.wav
320,192,10063,1,0,0:0:0:30:snare.wav
448,192,10063,128,0,10223:0:0:0:0:
320,192,10223,128,2,10382:0:0:0:40:
64,192,10382,1,0,0:0:0:40:kick.wav
192,192,10382,128,0,10542:0:0:0:0:
448,192,10542,128,2,10701:0:0:0:40:
64,192,10701,1,0,0:0:0:30:snare.wav
320,192,10701,1,0,0:0:0:30:snare.wav
192,192,10701,128,0,10861:0:0:0:0:
448,192,10861,128,2,11021:0:0:0:40:
192,192,11021,1,0,0:0:0:40:kick.wav
64,192,11021,128,0,11260:0:0:0:0:
320,192,11180,1,2,0:0:0:40:
448,192,11340,1,0,0:0:0:30:snare.wav
192,192,11340,1,0,0:0:0:30:snare.wav
320,192,11340,128,0,11499:0:0:0:0:
64,192,11499,128,2,11659:0:0:0:40:
448,192,11659,1,0,0:0:0:40:kick.wav
192,192,11659,128,0,11739:0:0:0:0:
192,192,11818,128,2,11898:0:0:0:40:
192,192,11978,1,0,0:0:0:30:snare.wav
320,192,11978,1,0,0:0:0:30:snare.wav
448,192,11978,128,0,12217:0:0:0:0:
64,192,12138,1,2,0:0:0:40:
192,192,12297,1,0,0:0:0:40:kick.wav
320,192,12297,128,0,12377:0:0:0:0:
320,192,12457,128,2,12537:0:0:0:40:
320,192,12616,1,0,0:0:0:30:snare.wav
192,192,12616,1,0,0:0:0:30:snare.wav
64,192,12616,128,0,12856:0:0:0:0:
448,192,12776,1,2,0:0:0:40:
192,192,12935,1,0,0:0:0:40:kick.wav
320,192,12935,128,0,13255:0:0:0:0:
448,192,13095,1,2,0:0:0:40:
448,192,13255,1,0,0:0:0:30:snare.wav
192,192,13255,128,0,13414:0:0:0:30:snare.wav
64,192,13255,1,0,0:0:0:0:
64,192,13414,128,2,13574:0:0:0:40:
448,192,13574,1,0,0:0:0:40:kick.wav
192,192,13574,128,0,13733:0:0:0:0:
320,192,13733,128,2,13893:0:0:0:40:
192,192,13893,1,0,0:0:0:30:snare.wav
64,192,13893,1,0,0:0:0:30:snare.wav
448,192,13893,128,0,14052:0:0:0:0:
320,192,14052,128,2,14212:0:0:0:40:
448,192,14212,1,0,0:0:0:30:snare.wav
192,192,14212,1,0,0:0:0:30:snare.wav
64,192,14212,128,0,14372:0:0:0:0:
192,192,14372,128,2,14531:0:0:0:40:
448,192,14451,1,2,0:0:0:40:
320,192,14531,1,0,0:0:0:40:kick.wav
64,192,14531,128,0,14691:0:0:0:0:
192,192,14691,1,0,0:0:0:30:snare.wav
320,192,14691,1,0,0:0:0:30:snare.wav
448,192,14691,128,0,14850:0:0:0:0:
64,192,14850,1,0,0:0:0:30:snare.wav
192,192,14850,1,0,0:0:0:30:snare.wav
320,192,14850,128,0,15010:0:0:0:0:
64,192,15010,1,0,0:0:0:60:snare.wav
448,192,15010,128,0,15170:0:0:0:0:
192,192,15090,1,0,0:0:0:60:snare.wav
64,192,15170,128,0,15409:0:0:0:40:kick.wav
320,192,15170,1,0,0:0:0:0:
448,192,15249,1,0,0:0:0:40:kick.wav
320,192,15329,1,0,0:0:0:40:kick.wav
192,192,15409,1,0,0:0:0:40:kick.wav
320,192,15489,1,4,0:0:0:40:
64,192,15489,1,0,0:0:0:40:kick.wav
448,192,15489,1,0,0:0:0:0:
192,192,15648,1,0,0:0:0:0:
320,192,15808,1,2,0:0:0:40:
448,192,15808,1,0,0:0:0:0:
64,192,15967,1,2,0:0:0:40:
448,192,15967,1,0,0:0:0:40:kick.wav
320,192,16127,128,0,16207:0:0:0:40:tamb.wav
192,192,16287,128,0,16366:0:0:0:40:tamb.wav
448,192,16446,1,0,0:0:0:30:tamb.wav
64,192,16606,1,0,0:0:0:30:tamb.wav
448,192,16765,1,2,0:0:0:40:
192,192,16765,1,0,0:0:0:50:tom.wav
320,192,16765,1,0,0:0:0:0:
64,192,16925,1,0,0:0:0:0:
320,192,17084,1,2,0:0:0:40:
192,192,17084,1,0,0:0:0:0:
192,192,17244,1,2,0:0:0:40:
448,192,17244,1,0,0:0:0:40:kick.wav
320,192,17404,1,0,0:0:0:0:
64,192,17563,1,2,0:0:0:40:
192,192,17563,1,0,0:0:0:0:
448,192,17723,1,2,0:0:0:40:
320,192,17723,1,0,0:0:0:0:
192,192,17882,1,0,0:0:0:0:
448,192,18042,1,2,0:0:0:40:
320,192,18042,1,0,0:0:0:50:tom.wav
64,192,18042,1,0,0:0:0:0:
192,192,18201,1,0,0:0:0:0:
320,192,18361,1,2,0:0:0:40:
448,192,18361,1,0,0:0:0:0:
320,192,18521,1,2,0:0:0:40:
64,192,18521,1,0,0:0:0:40:kick.wav
192,192,18680,128,0,18760:0:0:0:40:tamb.wav
320,192,18840,128,0,18920:0:0:0:40:tamb.wav
64,192,18999,1,0,0:0:0:30:tamb.wav
448,192,19159,1,0,0:0:0:30:tamb.wav
320,192,19318,1,2,0:0:0:40:
64,192,19318,1,0,0:0:0:50:tom.wav
192,192,19318,1,0,0:0:0:0:
448,192,19478,1,0,0:0:0:0:
64,192,19638,1,2,0:0:0:40:
320,192,19638,1,0,0:0:0:0:
192,192,19797,1,2,0:0:0:40:
64,192,19797,1,0,0:0:0:40:kick.wav
448,192,19957,1,0,0:0:0:0:
64,192,20116,1,2,0:0:0:40:
192,192,20116,1,0,0:0:0:0:
448,192,20276,1,2,0:0:0:40:
320,192,20276,1,0,0:0:0:0:
192,192,20435,1,0,0:0:0:0:
320,192,20595,1,2,0:0:0:40:
448,192,20595,1,0,0:0:0:50:tom.wav
64,192,20595,1,0,0:0:0:0:
192,192,20755,1,0,0:0:0:0:
448,192,20914,1,2,0:0:0:40:
64,192,20914,1,0,0:0:0:0:
448,192,21074,1,2,0:0:0:40:
320,192,21074,1,0,0:0:0:40:kick.wav
64,192,21233,128,0,21313:0:0:0:40:tamb.wav
192,192,21233,128,0,22510:0:0:0:0:
448,192,21393,128,0,21473:0:0:0:40:tamb.wav
64,192,21552,1,0,0:0:0:30:tamb.wav
320,192,21712,1,0,0:0:0:30:tamb.wav
64,192,21872,1,2,0:0:0:40:
320,192,21872,1,0,0:0:0:50:tom.wav
448,192,21872,1,0,0:0:0:0:
320,192,22031,1,0,0:0:0:0:
64,192,22191,1,2,0:0:0:40:
448,192,22191,1,0,0:0:0:0:
64,192,22350,1,2,0:0:0:40:
320,192,22350,1,0,0:0:0:40:kick.wav
448,192,22510,1,0,0:0:0:0:
320,192,22670,1,0,0:0:0:0:
192,192,22749,128,0,22829:0:0:0:0:
320,192,22829,128,0,24425:0:0:0:0:
448,192,23148,1,2,0:0:0:40:
192,192,23148,1,0,0:0:0:50:tom.wav
64,192,23148,1,0,0:0:0:0:
192,192,23308,1,0,0:0:0:0:
64,192,23467,1,2,0:0:0:40:
448,192,23467,1,0,0:0:0:0:
448,192,23627,1,2,0:0:0:40:
192,192,23627,1,0,0:0:0:40:kick.wav
192,192,23787,128,0,23866:0:0:0:40:tamb.wav
64,192,23946,128,0,24026:0:0:0:40:tamb.wav
448,192,24106,1,0,0:0:0:30:tamb.wav
192,192,24265,1,0,0:0:0:30:tamb.wav
64,192,24425,1,2,0:0:0:40:
192,192,24425,1,0,0:0:0:60:snare.wav
320,192,24505,1,0,0:0:0:60:snare.wav
448,192,24505,1,0,0:0:0:0:
64,192,24584,1,0,0:0:0:30:snare.wav
192,192,24584,1,0,0:0:0:30:snare.wav
448,192,24584,1,0,0:0:0:0:
64,192,24744,1,2,0:0:0:40:
192,192,24744,1,0,0:0:0:0:
320,192,24904,1,0,0:0:0:60:snare.wav
448,192,24904,1,0,0:0:0:0:
64,192,24983,1,0,0:0:0:60:snare.wav
192,192,24983,1,0,0:0:0:0:
320,192,25063,1,2,0:0:0:40:
448,192,25063,1,0,0:0:0:60:snare.wav
64,192,25063,1,0,0:0:0:0:
320,192,25223,1,0,0:0:0:40:kick.wav
448,192,25223,1,0,0:0:0:0:
64,192,25382,1,2,0:0:0:40:
192,192,25382,1,0,0:0:0:60:snare.wav
448,192,25422,1,0,0:0:0:0:
192,192,25462,1,0,0:0:0:60:snare.wav
320,192,25462,1,0,0:0:0:0:
64,192,25502,1,0,0:0:0:0:
448,192,25542,1,0,0:0:0:60:snare.wav
320,192,25542,1,0,0:0:0:0:
192,192,25582,1,0,0:0:0:0:
64,192,25622,1,0,0:0:0:60:snare.wav
448,192,25622,1,0,0:0:0:0:
320,192,25662,1,0,0:0:0:0:
448,192,25701,1,4,0:0:0:40:
64,192,25701,1,0,0:0:0:40:kick.wav
192,192,25701,1,0,0:0:0:0:
320,192,25861,1,2,0:0:0:40:
192,192,26021,1,0,0:0:0:30:snare.wav
64,192,26021,1,0,0:0:0:30:snare.wav
448,192,26021,1,0,0:0:0:0:
320,192,26180,1,2,0:0:0:40:
64,192,26340,1,0,0:0:0:40:kick.wav
192,192,26340,1,0,0:0:0:0:
448,192,26499,128,2,26818:0:0:0:40:
320,192,26659,1,0,0:0:0:30:snare.wav
192,192,26659,1,0,0:0:0:30:snare.wav
64,192,26659,1,0,0:0:0:0:
320,192,26818,128,2,27138:0:0:0:40:
64,192,26978,1,0,0:0:0:40:kick.wav
192,192,26978,1,0,0:0:0:0:
192,192,27138,1,2,0:0:0:40:
64,192,27297,1,0,0:0:0:30:snare.wav
320,192,27297,1,0,0:0:0:30:snare.wav
448,192,27297,1,0,0:0:0:0:
192,192,27457,1,2,0:0:0:40:
448,192,27616,1,0,0:0:0:40:kick.wav
320,192,27616,1,0,0:0:0:0:
192,192,27776,128,2,28095:0:0:0:40:
320,192,27935,1,0,0:0:0:30:snare.wav
448,192,27935,1,0,0:0:0:30:snare.wav
64,192,27935,1,0,0:0:0:0:
64,192,28095,128,2,28414:0:0:0:40:
320,192,28255,1,0,0:0:0:40:kick.wav
448,192,28255,1,0,0:0:0:0:
320,192,28414,1,2,0:0:0:40:
64,192,28574,1,0,0:0:0:30:snare.wav
448,192,28574,1,0,0:0:0:30:snare.wav
192,192,28574,1,0,0:0:0:0:
320,192,28733,1,2,0:0:0:40:
192,192,28893,1,0,0:0:0:40:kick.wav
448,192,28893,1,0,0:0:0:0:
64,192,29052,128,2,29372:0:0:0:40:
320,192,29212,1,0,0:0:0:30:snare.wav
448,192,29212,1,0,0:0:0:30:snare.wav
192,192,29212,1,0,0:0:0:0:
192,192,29372,128,2,29691:0:0:0:40:
448,192,29531,1,0,0:0:0:40:kick.wav
320,192,29531,1,0,0:0:0:0:
448,192,29691,1,2,0:0:0:40:
192,192,29850,1,0,0:0:0:30:snare.wav
64,192,29850,1,0,0:0:0:30:snare.wav
320,192,29850,1,0,0:0:0:0:
448,192,30010,1,2,0:0:0:40:
192,192,30170,1,0,0:0:0:40:kick.wav
64,192,30170,1,0,0:0:0:0:
320,192,30329,128,2,30648:0:0:0:40:
192,192,30489,1,0,0:0:0:30:snare.wav
448,192,30489,1,0,0:0:0:30:snare.wav
64,192,30489,1,0,0:0:0:0:
448,192,30648,128,2,30967:0:0:0:40:
192,192,30808,1,0,0:0:0:40:kick.wav
64,192,30808,1,0,0:0:0:0:
64,192,30967,1,2,0:0:0:40:
192,192,31127,1,0,0:0:0:30:snare.wav
320,192,31127,1,0,0:0:0:30:snare.wav
448,192,31127,1,0,0:0:0:0:
64,192,31287,1,2,0:0:0:40:
192,192,31446,1,0,0:0:0:40:kick.wav
320,192,31446,1,0,0:0:0:0:
448,192,31606,128,2,31925:0:0:0:40:
64,192,31765,1,0,0:0:0:30:snare.wav
192,192,31765,1,0,0:0:0:30:snare.wav
320,192,31765,1,0,0:0:0:0:
320,192,31925,128,2,32244:0:0:0:40:
192,192,32084,1,0,0:0:0:40:kick.wav
64,192,32084,1,0,0:0:0:0:
192,192,32244,1,2,0:0:0:40:
64,192,32404,1,0,0:0:0:30:snare.wav
320,192,32404,1,0,0:0:0:30:snare.wav
448,192,32404,1,0,0:0:0:0:
192,192,32563,1,2,0:0:0:40:
320,192,32723,1,0,0:0:0:40:kick.wav
448,192,32723,1,0,0:0:0:0:
192,192,32882,128,2,33201:0:0:0:40:
320,192,33042,1,0,0:0:0:30:snare.wav
448,192,33042,1,0,0:0:0:30:snare.wav
64,192,33042,1,0,0:0:0:0:
64,192,33201,128,2,33521:0:0:0:40:
320,192,33361,1,0,0:0:0:40:kick.wav
448,192,33361,1,0,0:0:0:0:
320,192,33521,1,2,0:0:0:40:
448,192,33680,1,0,0:0:0:30:snare.wav
64,192,33680,1,0,0:0:0:30:snare.wav
192,192,33680,1,0,0:0:0:0:
320,192,33840,1,2,0:0:0:40:
192,192,33999,1,0,0:0:0:40:kick.wav
448,192,33999,1,0,0:0:0:0:
64,192,34159,128,2,34478:0:0:0:40:
192,192,34318,1,0,0:0:0:30:snare.wav
320,192,34318,1,0,0:0:0:30:snare.wav
448,192,34318,1,0,0:0:0:0:
448,192,34478,1,2,0:0:0:40:
64,192,34638,128,0,35196:0:0:0:40:kick.wav
320,192,34638,1,0,0:0:0:0:
192,192,34797,128,0,35196:0:0:0:0:
320,192,34957,128,0,35196:0:0:0:0:
448,192,35116,128,0,35196:0:0:0:0:
64,192,35276,1,0,0:0:0:30:snare.wav
448,192,35276,1,0,0:0:0:30:snare.wav
320,192,35276,1,0,0:0:0:0:
448,192,35435,1,0,0:0:0:30:snare.wav
320,192,35435,1,0,0:0:0:30:snare.wav
64,192,35435,1,0,0:0:0:0:
320,192,35595,1,0,0:0:0:60:snare.wav
192,192,35595,1,0,0:0:0:0:
448,192,35635,1,0,0:0:0:0:
64,192,35675,1,0,0:0:0:0:
192,192,35715,1,0,0:0:0:0:
448,192,35755,1,0,0:0:0:60:snare.wav
320,192,35755,1,0,0:0:0:0:
64,192,35795,1,0,0:0:0:0:
192,192,35834,1,0,0:0:0:60:snare.wav
448,192,35834,1,0,0:0:0:0:
320,192,35874,1,0,0:0:0:0:
192,192,35914,1,4,0:0:0:40:
64,192,35914,1,0,0:0:0:40:kick.wav
448,192,35914,1,0,0:0:0:0:
320,192,36074,1,2,0:0:0:40:
448,192,36233,1,0,0:0:0:30:snare.wav
192,192,36233,1,0,0:0:0:30:snare.wav
64,192,36233,1,0,0:0:0:0:
320,192,36393,1,2,0:0:0:40:
64,192,36552,1,0,0:0:0:40:kick.wav
192,192,36552,1,0,0:0:0:0:
320,192,36712,1,2,0:0:0:40:
192,192,36872,1,0,0:0:0:30:snare.wav
320,192,36872,1,0,0:0:0:30:snare.wav
448,192,36872,1,0,0:0:0:0:
192,192,37031,1,2,0:0:0:40:
64,192,37191,1,0,0:0:0:40:kick.wav
448,192,37191,1,0,0:0:0:0:
448,192,37350,1,2,0:0:0:40:
64,192,37510,1,0,0:0:0:30:snare.wav
192,192,37510,1,0,0:0:0:30:snare.wav
320,192,37510,1,0,0:0:0:0:
192,192,37670,1,2,0:0:0:40:
320,192,37829,1,0,0:0:0:40:kick.wav
448,192,37829,1,0,0:0:0:0:
320,192,37989,1,2,0:0:0:40:
448,192,38148,1,0,0:0:0:30:snare.wav
192,192,38148,1,0,0:0:0:30:snare.wav
64,192,38148,1,0,0:0:0:0:
64,192,38308,1,2,0:0:0:40:
320,192,38467,1,0,0:0:0:40:kick.wav
448,192,38467,1,0,0:0:0:0:
192,192,38627,1,2,0:0:0:40:
64,192,38787,1,0,0:0:0:30:snare.wav
320,192,38787,1,0,0:0:0:30:snare.wav
448,192,38787,1,0,0:0:0:0:
192,192,38946,1,2,0:0:0:40:
448,192,39106,1,0,0:0:0:40:kick.wav
320,192,39106,1,0,0:0:0:0:
192,192,39265,1,2,0:0:0:40:
64,192,39425,1,0,0:0:0:30:snare.wav
448,192,39425,1,0,0:0:0:30:snare.wav
192,192,39425,1,0,0:0:0:0:
320,192,39584,1,2,0:0:0:40:
320,192,39744,1,0,0:0:0:40:kick.wav
448,192,39744,1,0,0:0:0:0:
64,192,39904,1,2,0:0:0:40:
448,192,40063,1,0,0:0:0:30:snare.wav
192,192,40063,1,0,0:0:0:30:snare.wav
64,192,40063,1,0,0:0:0:0:
448,192,40223,1,2,0:0:0:40:
192,192,40382,1,0,0:0:0:40:kick.wav
320,192,40382,1,0,0:0:0:0:
192,192,40542,1,2,0:0:0:40:
320,192,40701,1,0,0:0:0:30:snare.wav
64,192,40701,1,0,0:0:0:30:snare.wav
448,192,40701,1,0,0:0:0:0:
320,192,40861,1,2,0:0:0:40:
64,192,41021,1,0,0:0:0:40:kick.wav
192,192,41021,1,0,0:0:0:0:
320,192,41180,1,2,0:0:0:40:
192,192,41340,1,0,0:0:0:30:snare.wav
64,192,41340,1,0,0:0:0:30:snare.wav
448,192,41340,1,0,0:0:0:0:
320,192,41499,1,2,0:0:0:40:
448,192,41659,1,0,0:0:0:40:kick.wav
64,192,41659,1,0,0:0:0:0:
192,192,41818,1,2,0:0:0:40:
64,192,41978,1,0,0:0:0:30:snare.wav
320,192,41978,1,0,0:0:0:30:snare.wav
448,192,41978,1,0,0:0:0:0:
192,192,42138,1,2,0:0:0:40:
64,192,42297,1,0,0:0:0:40:kick.wav
448,192,42297,1,0,0:0:0:0:
320,192,42457,1,2,0:0:0:40:
64,192,42616,1,0,0:0:0:30:snare.wav
192,192,42616,1,0,0:0:0:30:snare.wav
320,192,42616,1,0,0:0:0:0:
192,192,42776,1,2,0:0:0:40:
64,192,42935,1,0,0:0:0:40:kick.wav
448,192,42935,1,0,0:0:0:0:
448,192,43095,1,2,0:0:0:40:
64,192,43255,1,0,0:0:0:30:snare.wav
192,192,43255,1,0,0:0:0:30:snare.wav
320,192,43255,1,0,0:0:0:0:
64,192,43414,1,2,0:0:0:40:
320,192,43574,1,0,0:0:0:40:kick.wav
448,192,43574,1,0,0:0:0:0:
192,192,43733,1,2,0:0:0:40:
64,192,43893,1,0,0:0:0:30:snare.wav
320,192,43893,1,0,0:0:0:30:snare.wav
448,192,43893,1,0,0:0:0:0:
192,192,44052,1,2,0:0:0:40:
320,192,44212,1,0,0:0:0:40:kick.wav
448,192,44212,1,0,0:0:0:0:
320,192,44372,1,2,0:0:0:40:
64,192,44531,1,0,0:0:0:30:snare.wav
192,192,44531,1,0,0:0:0:30:snare.wav
448,192,44531,1,0,0:0:0:0:
192,192,44691,1,2,0:0:0:40:
64,192,44850,1,0,0:0:0:50:tom.wav
448,192,44850,1,0,0:0:0:0:
64,192,45090,1,0,0:0:0:60:snare.wav
192,192,45090,1,0,0:0:0:0:
320,192,45170,1,0,0:0:0:30:snare.wav
448,192,45170,1,0,0:0:0:30:snare.wav
64,192,45170,1,0,0:0:0:0:
320,192,45329,1,0,0:0:0:30:snare.wav
448,192,45329,1,0,0:0:0:30:snare.wav
192,192,45329,1,0,0:0:0:0:
192,192,45542,1,0,0:0:0:60:snare.wav
64,192,45542,1,0,0:0:0:0:
192,192,45648,1,0,0:0:0:30:snare.wav
320,192,45648,1,0,0:0:0:30:snare.wav
448,192,45648,1,0,0:0:0:0:
64,192,45808,1,0,0:0:0:60:snare.wav
320,192,45808,1,0,0:0:0:0:
192,192,45888,1,0,0:0:0:60:snare.wav
448,192,45888,1,0,0:0:0:0:
64,192,45967,1,0,0:0:0:25:tom.wav
320,192,45967,1,0,0:0:0:25:tom.wav
64,192,46127,1,4,0:0:0:40:
448,192,46127,1,0,0:0:0:40:kick.wav
192,192,46127,1,0,0:0:0:0:
320,192,46287,1,2,0:0:0:40:
448,192,46287,1,0,0:0:0:0:
64,192,46446,1,0,0:0:0:30:snare.wav
192,192,46446,1,0,0:0:0:30:snare.wav
320,192,46446,1,0,0:0:0:0:
192,192,46606,1,2,0:0:0:40:
448,192,46606,1,0,0:0:0:0:
64,192,46765,1,0,0:0:0:40:kick.wav
320,192,46765,1,0,0:0:0:0:
192,192,46925,1,2,0:0:0:40:
448,192,46925,1,0,0:0:0:0:
320,192,47084,1,0,0:0:0:30:snare.wav
64,192,47084,1,0,0:0:0:30:snare.wav
448,192,47084,1,0,0:0:0:0:
192,192,47244,1,2,0:0:0:40:
64,192,47244,1,0,0:0:0:0:
448,192,47404,1,0,0:0:0:40:kick.wav
320,192,47404,1,0,0:0:0:0:
64,192,47563,1,2,0:0:0:40:
192,192,47563,1,0,0:0:0:0:
192,192,47723,1,0,0:0:0:30:snare.wav
448,192,47723,1,0,0:0:0:30:snare.wav
320,192,47723,1,0,0:0:0:0:
448,192,47882,1,2,0:0:0:40:
64,192,47882,1,0,0:0:0:0:
192,192,48042,1,0,0:0:0:40:kick.wav
320,192,48042,1,0,0:0:0:0:
448,192,48201,1,2,0:0:0:40:
192,192,48361,1,0,0:0:0:30:snare.wav
320,192,48361,1,0,0:0:0:30:snare.wav
448,192,48361,1,0,0:0:0:0:
64,192,48521,1,2,0:0:0:40:
320,192,48680,1,0,0:0:0:40:kick.wav
448,192,48680,1,0,0:0:0:0:
192,192,48840,1,2,0:0:0:40:
320,192,48840,1,0,0:0:0:0:
64,192,48999,1,0,0:0:0:30:snare.wav
448,192,48999,1,0,0:0:0:30:snare.wav
192,192,48999,1,0,0:0:0:0:
320,192,49159,1,2,0:0:0:40:
448,192,49159,1,0,0:0:0:0:
64,192,49318,1,0,0:0:0:40:kick.wav
192,192,49318,1,0,0:0:0:0:
320,192,49478,1,2,0:0:0:40:
448,192,49478,1,0,0:0:0:0:
192,192,49638,1,0,0:0:0:30:snare.wav
64,192,49638,1,0,0:0:0:30:snare.wav
448,192,49638,1,0,0:0:0:0:
320,192,49797,1,2,0:0:0:40:
192,192,49797,1,0,0:0:0:0:
448,192,49957,1,0,0:0:0:40:kick.wav
64,192,49957,1,0,0:0:0:0:
320,192,50116,1,2,0:0:0:40:
64,192,50116,1,0,0:0:0:0:
320,192,50276,1,0,0:0:0:30:snare.wav
192,192,50276,1,0,0:0:0:30:snare.wav
448,192,50276,1,0,0:0:0:0:
192,192,50435,1,2,0:0:0:40:
448,192,50435,1,0,0:0:0:0:
64,192,50595,1,0,0:0:0:40:kick.wav
320,192,50595,1,0,0:0:0:0:
192,192,50755,1,2,0:0:0:40:
192,192,50914,1,0,0:0:0:30:snare.wav
320,192,50914,1,0,0:0:0:30:snare.wav
448,192,50914,1,0,0:0:0:0:
64,192,51074,1,2,0:0:0:40:
192,192,51233,1,0,0:0:0:40:kick.wav
448,192,51233,1,0,0:0:0:0:
64,192,51393,1,2,0:0:0:40:
320,192,51393,1,0,0:0:0:0:
192,192,51552,1,0,0:0:0:30:snare.wav
448,192,51552,1,0,0:0:0:30:snare.wav
320,192,51552,1,0,0:0:0:0:
192,192,51712,1,2,0:0:0:40:
320,192,51872,1,0,0:0:0:40:kick.wav
448,192,51872,1,0,0:0:0:0:
64,192,52031,1,2,0:0:0:40:
192,192,52031,1,0,0:0:0:0:
448,192,52191,1,0,0:0:0:30:snare.wav
320,192,52191,1,0,0:0:0:30:snare.wav
64,192,52191,1,0,0:0:0:0:
320,192,52350,1,2,0:0:0:40:
64,192,52510,1,0,0:0:0:40:kick.wav
448,192,52510,1,0,0:0:0:0:
320,192,52670,1,2,0:0:0:40:
192,192,52670,1,0,0:0:0:0:
448,192,52829,1,0,0:0:0:30:snare.wav
64,192,52829,1,0,0:0:0:30:snare.wav
320,192,52829,1,0,0:0:0:0:
64,192,52989,1,2,0:0:0:40:
320,192,53148,1,0,0:0:0:40:kick.wav
448,192,53148,1,0,0:0:0:0:
192,192,53308,1,2,0:0:0:40:
320,192,53308,1,0,0:0:0:0:
320,192,53467,1,0,0:0:0:30:snare.wav
64,192,53467,1,0,0:0:0:30:snare.wav
448,192,53467,1,0,0:0:0:0:
192,192,53627,1,2,0:0:0:40:
64,192,53627,1,0,0:0:0:0:
320,192,53787,1,2,0:0:0:40:
448,192,53787,1,0,0:0:0:50:tom.wav
448,192,54026,1,0,0:0:0:60:snare.wav
320,192,54026,1,0,0:0:0:0:
64,192,54106,1,2,0:0:0:40:
448,192,54106,1,0,0:0:0:60:snare.wav
192,192,54106,1,0,0:0:0:0:
192,192,54265,1,0,0:0:0:50:tom.wav
320,192,54265,1,0,0:0:0:0:
320,192,54425,1,2,0:0:0:40:
448,192,54425,1,0,0:0:0:50:tom.wav
64,192,54505,1,0,0:0:0:60:snare.wav
192,192,54505,1,0,0:0:0:0:
64,192,54584,1,0,0:0:0:30:snare.wav
448,192,54584,1,0,0:0:0:30:snare.wav
320,192,54584,1,0,0:0:0:0:
192,192,54744,1,2,0:0:0:40:
448,192,54744,1,0,0:0:0:0:
448,192,54983,1,0,0:0:0:60:snare.wav
320,192,54983,1,0,0:0:0:0:
192,192,55063,1,2,0:0:0:40:
64,192,55063,1,0,0:0:0:60:snare.wav
320,192,55063,1,0,0:0:0:0:
320,192,55223,1,0,0:0:0:50:tom.wav
448,192,55223,1,0,0:0:0:0:
64,192,55382,1,2,0:0:0:40:
192,192,55382,1,0,0:0:0:60:snare.wav
448,192,55462,1,0,0:0:0:60:snare.wav
320,192,55462,1,0,0:0:0:0:
64,192,55542,1,0,0:0:0:60:snare.wav
192,192,55542,1,0,0:0:0:0:
320,192,55622,1,0,0:0:0:60:snare.wav
64,192,55701,1,2,0:0:0:40:
192,192,55701,1,0,0:0:0:60:snare.wav
448,192,55701,1,0,0:0:0:0:
320,192,55781,1,0,0:0:0:60:snare.wav
64,192,55861,1,0,0:0:0:60:snare.wav
448,192,55861,1,0,0:0:0:0:
192,192,55941,1,0,0:0:0:60:snare.wav
448,192,56021,1,2,0:0:0:40:
64,192,56021,1,0,0:0:0:60:snare.wav
320,192,56021,1,0,0:0:0:0:
192,192,56100,1,0,0:0:0:60:snare.wav
448,192,56180,1,0,0:0:0:60:snare.wav
320,192,56180,1,0,0:0:0:0:
64,192,56260,1,0,0:0:0:60:snare.wav
192,192,56260,1,0,0:0:0:0:
192,192,56340,1,4,0:0:0:40:
448,192,56340,128,0,56499:0:0:0:40:kick.wav
320,192,56340,128,0,56978:0:0:0:0:
64,192,56499,128,2,56659:0:0:0:40:
192,192,56659,128,2,56818:0:0:0:40:
64,192,56818,128,2,56978:0:0:0:40:
192,192,56978,128,2,57217:0:0:0:40:
448,192,56978,128,0,57297:0:0:0:40:tamb.wav
320,192,57297,128,2,57457:0:0:0:40:
64,192,57457,128,2,57616:0:0:0:40:
192,192,57457,128,0,58414:0:0:0:40:tamb.wav
448,192,57616,128,2,57696:0:0:0:40:
448,192,57776,128,2,57856:0:0:0:40:
320,192,57935,128,2,58175:0:0:0:40:
448,192,58095,1,2,0:0:0:40:
64,192,58255,128,2,58334:0:0:0:40:
64,192,58414,128,2,58494:0:0:0:40:
320,192,58414,128,0,58574:0:0:0:0:
448,192,58574,128,2,58733:0:0:0:40:
192,192,58574,128,0,58733:0:0:0:0:
320,192,58733,1,2,0:0:0:40:
64,192,58733,128,0,58893:0:0:0:40:kick.wav
448,192,58893,128,2,59052:0:0:0:40:
192,192,58893,128,0,59531:0:0:0:40:kick.wav
64,192,59052,128,2,59212:0:0:0:40:
320,192,59212,128,2,59372:0:0:0:40:
448,192,59372,128,2,59531:0:0:0:40:
320,192,59531,128,2,59771:0:0:0:40:
64,192,59531,128,0,59850:0:0:0:40:tamb.wav
448,192,59691,1,2,0:0:0:40:
192,192,59850,128,2,60010:0:0:0:40:
448,192,60010,128,2,60170:0:0:0:40:
320,192,60010,128,0,60967:0:0:0:40:tamb.wav
64,192,60170,128,2,60249:0:0:0:40:
64,192,60329,128,2,60409:0:0:0:40:
192,192,60489,128,2,60728:0:0:0:40:
448,192,60648,1,2,0:0:0:40:
64,192,60808,128,2,60967:0:0:0:40:
192,192,60967,128,2,61127:0:0:0:40:
448,192,60967,128,0,61127:0:0:0:40:tamb.wav
64,192,61127,128,2,61287:0:0:0:40:
320,192,61127,128,0,61287:0:0:0:40:tamb.wav
192,192,61287,128,2,61446:0:0:0:40:
448,192,61287,1,0,0:0:0:40:kick.wav
448,192,61446,128,2,62005:0:0:0:40:
320,192,61446,128,0,61606:0:0:0:40:tamb.wav
192,192,61606,128,2,61765:0:0:0:40:
64,192,61765,128,2,61925:0:0:0:40:
192,192,61925,128,2,62084:0:0:0:40:
64,192,62084,128,2,62324:0:0:0:40:
448,192,62084,128,0,62483:0:0:0:40:tamb.wav
320,192,62244,1,2,0:0:0:40:
192,192,62404,128,2,62563:0:0:0:40:
64,192,62563,128,2,62723:0:0:0:40:
448,192,62563,128,0,63281:0:0:0:40:tamb.wav
192,192,62723,128,2,62802:0:0:0:40:
192,192,62882,128,2,62962:0:0:0:40:
320,192,63042,128,2,63281:0:0:0:40:
64,192,63201,1,2,0:0:0:40:
192,192,63281,1,2,0:0:0:40:
448,192,63361,128,2,63441:0:0:0:40:
64,192,63361,128,0,63680:0:0:0:40:tamb.wav
448,192,63521,128,2,63600:0:0:0:40:
192,192,63680,128,2,63840:0:0:0:40:
320,192,63680,128,0,63999:0:0:0:40:tamb.wav
64,192,63840,1,0,0:0:0:50:tom.wav
448,192,63840,1,0,0:0:0:0:
64,192,63999,1,0,0:0:0:50:tom.wav
448,192,63999,1,0,0:0:0:40:tamb.wav
192,192,63999,128,0,64318:0:0:0:0:
64,192,64318,128,0,64478:0:0:0:40:tamb.wav
448,192,64478,1,0,0:0:0:50:tom.wav
320,192,64478,1,0,0:0:0:40:tamb.wav
192,192,64478,128,0,64638:0:0:0:0:
320,192,64638,128,0,64797:0:0:0:40:tamb.wav
448,192,64797,128,0,64957:0:0:0:40:tamb.wav
64,192,64957,1,0,0:0:0:50:tom.wav
192,192,64957,1,0,0:0:0:40:tamb.wav
320,192,64957,128,0,65116:0:0:0:0:
192,192,65116,128,0,65276:0:0:0:40:tamb.wav
64,192,65276,128,0,65435:0:0:0:40:tamb.wav
448,192,65435,1,0,0:0:0:50:tom.wav
192,192,65435,1,0,0:0:0:40:tamb.wav
320,192,65435,128,0,65595:0:0:0:0:
448,192,65595,1,0,0:0:0:50:tom.wav
64,192,65595,1,0,0:0:0:40:tamb.wav
192,192,65595,128,0,65755:0:0:0:0:
64,192,65755,1,0,0:0:0:50:tom.wav
320,192,65755,1,0,0:0:0:40:tamb.wav
448,192,65755,128,0,65914:0:0:0:0:
320,192,65914,1,0,0:0:0:50:tom.wav
192,192,65914,1,0,0:0:0:40:tamb.wav
64,192,65914,128,0,66074:0:0:0:0:
448,192,66074,128,0,66233:0:0:0:40:tamb.wav
320,192,66233,1,0,0:0:0:60:snare.wav
192,192,66233,1,0,0:0:0:40:tamb.wav
64,192,66273,1,0,0:0:0:0:
448,192,66313,1,0,0:0:0:0:
320,192,66353,1,0,0:0:0:0:
64,192,66393,1,0,0:0:0:60:snare.wav
192,192,66393,1,0,0:0:0:0:
448,192,66433,1,0,0:0:0:0:
320,192,66473,1,0,0:0:0:60:snare.wav
64,192,66473,1,0,0:0:0:0:
192,192,66513,1,0,0:0:0:0:
320,192,66552,1,4,0:0:0:40:
448,192,66552,1,0,0:0:0:40:kick.wav
64,192,66552,1,0,0:0:0:0:
192,192,66712,1,2,0:0:0:40:
64,192,66872,1,0,0:0:0:30:snare.wav
320,192,66872,1,0,0:0:0:30:snare.wav
448,192,66872,1,0,0:0:0:0:
192,192,67031,1,2,0:0:0:40:
64,192,67191,1,0,0:0:0:40:kick.wav
320,192,67191,128,0,67829:0:0:0:0:
192,192,67350,1,2,0:0:0:40:
192,192,67510,1,0,0:0:0:30:snare.wav
448,192,67510,1,0,0:0:0:30:snare.wav
64,192,67510,1,0,0:0:0:0:
64,192,67670,1,2,0:0:0:40:
192,192,67829,1,0,0:0:0:40:kick.wav
448,192,67829,128,0,68467:0:0:0:0:
320,192,67989,1,2,0:0:0:40:
192,192,68148,1,0,0:0:0:30:snare.wav
320,192,68148,1,0,0:0:0:30:snare.wav
64,192,68148,1,0,0:0:0:0:
192,192,68308,1,2,0:0:0:40:
320,192,68467,128,0,68787:0:0:0:40:kick.wav
64,192,68467,1,0,0:0:0:0:
192,192,68627,1,2,0:0:0:40:
64,192,68787,1,0,0:0:0:30:snare.wav
192,192,68787,1,0,0:0:0:30:snare.wav
448,192,68787,1,0,0:0:0:0:
320,192,68946,1,2,0:0:0:40:
448,192,69106,1,0,0:0:0:40:kick.wav
64,192,69106,1,0,0:0:0:0:
320,192,69265,1,2,0:0:0:40:
192,192,69425,1,0,0:0:0:30:snare.wav
64,192,69425,1,0,0:0:0:30:snare.wav
448,192,69425,1,0,0:0:0:0:
320,192,69584,1,2,0:0:0:40:
448,192,69744,1,0,0:0:0:40:kick.wav
192,192,69744,128,0,70382:0:0:0:0:
320,192,69904,1,2,0:0:0:40:
64,192,70063,1,0,0:0:0:30:snare.wav
320,192,70063,1,0,0:0:0:30:snare.wav
448,192,70063,1,0,0:0:0:0:
448,192,70223,1,2,0:0:0:40:
320,192,70382,1,0,0:0:0:40:kick.wav
64,192,70382,128,0,71021:0:0:0:0:
192,192,70542,1,2,0:0:0:40:
192,192,70701,1,0,0:0:0:30:snare.wav
448,192,70701,1,0,0:0:0:30:snare.wav
320,192,70701,1,0,0:0:0:0:
320,192,70861,1,2,0:0:0:40:
448,192,71021,1,0,0:0:0:40:kick.wav
192,192,71021,128,0,71340:0:0:0:0:
320,192,71180,1,2,0:0:0:40:
320,192,71340,1,0,0:0:0:30:snare.wav
64,192,71340,1,0,0:0:0:30:snare.wav
448,192,71340,1,0,0:0:0:0:
192,192,71499,1,2,0:0:0:40:
448,192,71659,1,0,0:0:0:40:kick.wav
64,192,71659,1,0,0:0:0:0:
192,192,71818,1,2,0:0:0:40:
64,192,71978,1,0,0:0:0:30:snare.wav
448,192,71978,1,0,0:0:0:30:snare.wav
320,192,71978,1,0,0:0:0:0:
192,192,72138,1,2,0:0:0:40:
64,192,72297,1,0,0:0:0:40:kick.wav
448,192,72297,128,0,72935:0:0:0:0:
192,192,72457,1,2,0:0:0:40:
192,192,72616,1,0,0:0:0:30:snare.wav
320,192,72616,1,0,0:0:0:30:snare.wav
64,192,72616,1,0,0:0:0:0:
320,192,72776,1,2,0:0:0:40:
192,192,72935,1,0,0:0:0:40:kick.wav
320,192,72935,128,0,73574:0:0:0:0:
64,192,73095,1,2,0:0:0:40:
64,192,73255,1,0,0:0:0:30:snare.wav
192,192,73255,1,0,0:0:0:30:snare.wav
448,192,73255,1,0,0:0:0:0:
192,192,73414,1,2,0:0:0:40:
64,192,73574,1,0,0:0:0:40:kick.wav
448,192,73574,128,0,73893:0:0:0:0:
192,192,73733,1,2,0:0:0:40:
64,192,73893,1,0,0:0:0:30:snare.wav
192,192,73893,1,0,0:0:0:30:snare.wav
320,192,73893,1,0,0:0:0:0:
448,192,74052,1,2,0:0:0:40:
320,192,74212,1,0,0:0:0:40:kick.wav
64,192,74212,1,0,0:0:0:0:
448,192,74372,1,2,0:0:0:40:
64,192,74531,1,0,0:0:0:30:snare.wav
320,192,74531,1,0,0:0:0:30:snare.wav
192,192,74531,1,0,0:0:0:0:
448,192,74691,1,2,0:0:0:40:
320,192,74850,1,0,0:0:0:40:kick.wav
64,192,74850,128,0,75489:0:0:0:0:
192,192,75010,1,2,0:0:0:40:
192,192,75170,1,0,0:0:0:30:snare.wav
320,192,75170,1,0,0:0:0:30:snare.wav
448,192,75170,1,0,0:0:0:0:
448,192,75329,1,2,0:0:0:40:
320,192,75489,1,0,0:0:0:40:kick.wav
192,192,75489,128,0,76127:0:0:0:0:
448,192,75648,1,2,0:0:0:40:
64,192,75808,1,0,0:0:0:30:snare.wav
448,192,75808,1,0,0:0:0:30:snare.wav
320,192,75808,1,0,0:0:0:0:
320,192,75967,1,2,0:0:0:40:
448,192,76127,1,0,0:0:0:40:kick.wav
64,192,76127,128,0,76446:0:0:0:0:
320,192,76287,1,2,0:0:0:40:
192,192,76446,1,0,0:0:0:60:snare.wav
448,192,76446,1,0,0:0:0:0:
320,192,76526,1,0,0:0:0:60:snare.wav
64,192,76526,1,0,0:0:0:0:
192,192,76606,1,0,0:0:0:60:snare.wav
448,192,76606,1,0,0:0:0:0:
320,192,76685,1,0,0:0:0:60:snare.wav
64,192,76685,1,0,0:0:0:0:
320,192,76765,1,4,0:0:0:40:
192,192,76765,1,0,0:0:0:40:kick.wav
448,192,76765,128,0,77723:0:0:0:0:
64,192,76925,1,0,0:0:0:40:tamb.wav
320,192,77084,1,2,0:0:0:40:
192,192,77084,1,0,0:0:0:40:tamb.wav
64,192,77244,1,0,0:0:0:40:tamb.wav
64,192,77404,1,2,0:0:0:40:
192,192,77404,1,0,0:0:0:40:tamb.wav
192,192,77723,1,2,0:0:0:40:
320,192,77723,1,0,0:0:0:50:tom.wav
64,192,77723,128,0,78042:0:0:0:40:tamb.wav
320,192,77882,1,0,0:0:0:40:tamb.wav
192,192,78042,1,2,0:0:0:40:
320,192,78042,128,0,78999:0:0:0:40:tamb.wav
448,192,78201,1,0,0:0:0:40:tamb.wav
192,192,78361,1,2,0:0:0:40:
64,192,78361,1,0,0:0:0:40:tamb.wav
64,192,78680,1,2,0:0:0:40:
448,192,78680,1,0,0:0:0:40:tamb.wav
192,192,78840,1,0,0:0:0:40:tamb.wav
192,192,78999,1,2,0:0:0:40:
64,192,78999,1,0,0:0:0:40:tamb.wav
448,192,78999,128,0,79318:0:0:0:50:tom.wav
320,192,79318,1,2,0:0:0:40:
192,192,79318,128,0,80276:0:0:0:40:tamb.wav
64,192,79478,1,0,0:0:0:40:tamb.wav
320,192,79638,1,2,0:0:0:40:
448,192,79638,1,0,0:0:0:40:tamb.wav
64,192,79797,1,0,0:0:0:40:tamb.wav
448,192,79957,1,2,0:0:0:40:
320,192,79957,1,0,0:0:0:40:tamb.wav
64,192,80276,1,2,0:0:0:40:
448,192,80276,1,0,0:0:0:50:tom.wav
320,192,80276,128,0,80595:0:0:0:40:tamb.wav
64,192,80435,1,0,0:0:0:40:tamb.wav
448,192,80595,1,2,0:0:0:40:
64,192,80595,128,0,81552:0:0:0:40:tamb.wav
192,192,80755,1,0,0:0:0:40:tamb.wav
448,192,80914,1,2,0:0:0:40:
320,192,80914,1,0,0:0:0:40:tamb.wav
192,192,81233,1,2,0:0:0:40:
448,192,81233,1,0,0:0:0:40:tamb.wav
320,192,81393,1,0,0:0:0:40:tamb.wav
448,192,81552,1,2,0:0:0:40:
320,192,81552,1,0,0:0:0:50:tom.wav
192,192,81552,128,0,81872:0:0:0:40:tamb.wav
64,192,81872,1,2,0:0:0:40:
448,192,81872,1,0,0:0:0:60:snare.wav
320,192,81951,1,0,0:0:0:60:snare.wav
448,192,82031,1,0,0:0:0:60:snare.wav
64,192,82111,1,0,0:0:0:60:snare.wav
320,192,82191,1,2,0:0:0:40:
448,192,82191,1,0,0:0:0:60:snare.wav
192,192,82191,1,0,0:0:0:0:
64,192,82271,1,0,0:0:0:60:snare.wav
192,192,82350,1,0,0:0:0:60:snare.wav
320,192,82430,1,0,0:0:0:60:snare.wav
64,192,82510,1,2,0:0:0:40:
448,192,82510,1,0,0:0:0:60:snare.wav
192,192,82590,1,0,0:0:0:60:snare.wav
320,192,82670,1,0,0:0:0:60:snare.wav
448,192,82749,1,0,0:0:0:60:snare.wav
320,192,82829,1,2,0:0:0:40:
192,192,82829,1,0,0:0:0:60:snare.wav
64,192,82829,1,0,0:0:0:0:
448,192,82909,1,0,0:0:0:60:snare.wav
64,192,82989,1,0,0:0:0:60:snare.wav
192,192,83068,1,0,0:0:0:60:snare.wav
448,192,83148,1,2,0:0:0:40:
320,192,83148,1,0,0:0:0:60:snare.wav
192,192,83228,1,0,0:0:0:60:snare.wav
64,192,83308,1,0,0:0:0:60:snare.wav
448,192,83388,1,0,0:0:0:60:snare.wav
320,192,83467,1,2,0:0:0:40:
64,192,83467,1,0,0:0:0:60:snare.wav
192,192,83467,1,0,0:0:0:0:
448,192,83547,1,0,0:0:0:60:snare.wav
320,192,83627,1,0,0:0:0:60:snare.wav
192,192,83707,1,0,0:0:0:60:snare.wav
448,192,83787,1,2,0:0:0:40:
64,192,83787,1,0,0:0:0:60:snare.wav
320,192,83866,1,0,0:0:0:60:snare.wav
192,192,83946,1,0,0:0:0:60:snare.wav
64,192,84026,1,0,0:0:0:60:snare.wav
448,192,84106,1,2,0:0:0:40:
320,192,84106,1,0,0:0:0:60:snare.wav
192,192,84106,1,0,0:0:0:0:
64,192,84185,1,0,0:0:0:60:snare.wav
448,192,84265,1,0,0:0:0:60:snare.wav
320,192,84345,1,0,0:0:0:60:snare.wav
192,192,84425,1,2,0:0:0:40:
64,192,84425,1,0,0:0:0:60:snare.wav
320,192,84505,1,0,0:0:0:60:snare.wav
448,192,84584,1,0,0:0:0:60:snare.wav
64,192,84584,1,0,0:0:0:0:
192,192,84664,1,0,0:0:0:60:snare.wav
64,192,84744,1,2,0:0:0:40:
320,192,84744,1,0,0:0:0:60:snare.wav
448,192,84744,1,0,0:0:0:0:
192,192,84824,1,0,0:0:0:60:snare.wav
320,192,84904,1,0,0:0:0:60:snare.wav
448,192,84983,1,0,0:0:0:60:snare.wav
64,192,85063,1,2,0:0:0:40:
192,192,85063,1,0,0:0:0:60:snare.wav
64,192,85223,1,0,0:0:0:30:snare.wav
448,192,85223,1,0,0:0:0:30:snare.wav
320,192,85223,1,0,0:0:0:0:
192,192,85382,1,2,0:0:0:40:
320,192,85382,1,0,0:0:0:0:
448,192,85542,1,0,0:0:0:30:snare.wav
192,192,85542,1,0,0:0:0:30:snare.wav
64,192,85542,1,0,0:0:0:0:
448,192,85701,1,0,0:0:0:50:tom.wav
320,192,85701,1,0,0:0:0:0:
64,192,85861,1,0,0:0:0:60:snare.wav
192,192,85861,1,0,0:0:0:0:
320,192,85941,1,0,0:0:0:60:snare.wav
448,192,85941,1,0,0:0:0:0:
192,192,86021,1,2,0:0:0:40:
320,192,86021,1,0,0:0:0:60:snare.wav
64,192,86021,1,0,0:0:0:0:
192,192,86180,1,4,0:0:0:40:
448,192,86180,1,0,0:0:0:40:kick.wav
64,192,86180,1,0,0:0:0:0:
64,192,86499,1,4,0:0:0:40:
448,192,86499,1,0,0:0:0:40:kick.wav
320,192,86499,1,0,0:0:0:0:
320,192,86659,1,4,0:0:0:40:
448,192,86659,1,0,0:0:0:40:kick.wav
192,192,86659,1,0,0:0:0:0:
192,192,86818,1,4,0:0:0:40:
64,192,86818,1,0,0:0:0:40:kick.wav
448,192,86818,1,0,0:0:0:0:
64,192,86978,128,4,87616:0:0:0:40:
192,192,86978,128,2,87457:0:0:0:40:
320,192,86978,128,0,87297:0:0:0:40:kick.wav
448,192,86978,128,0,87138:0:0:0:0:
