osu file format v14

[General]
AudioFilename: audio.mp3
AudioLeadIn: 0
PreviewTime: 36048
Countdown: 0
SampleSet: Soft
StackLeniency: 0.7
Mode: 0
LetterboxInBreaks: 0
WidescreenStoryboard: 0

[Editor]
DistanceSpacing: 1
BeatDivisor: 2
GridSize: 8
TimelineZoom: 2.3

[Metadata]
Title:Uso no Hibana
TitleUnicode:嘘の火花
Artist:96neko
ArtistUnicode:96猫
Creator:Nevo
Version:Shogun's Normal
Source:クズの本懐
Tags:Kuzu no Honkai Scum's Wish opening OP armin a_r_m_i_n happyrocket88 shogunmoon byd bite you death shiratoi renumi sotarks lafayla
BeatmapID:1500995
BeatmapSetID:625669

[Difficulty]
HPDrainRate:4
CircleSize:3.5
OverallDifficulty:4
ApproachRate:5
SliderMultiplier:1
SliderTickRate:1

[Events]
//Background and Video events
0,0,"hanabi-wallpaper.jpg",0,0
//Break Periods
2,59466,60619
//Storyboard Layer 0 (Background)
//Storyboard Layer 1 (Fail)
//Storyboard Layer 2 (Pass)
//Storyboard Layer 3 (Foreground)
//Storyboard Sound Samples

[TimingPoints]
543,319.148936170213,4,2,1,50,1,0
5649,-100,4,2,1,70,0,0
15862,-100,4,2,1,50,0,0
26074,-100,4,2,1,60,0,0
36287,-100,4,2,1,70,0,1
46340,-100,4,2,1,70,0,0
46500,-100,4,2,1,70,0,1
56713,-100,4,2,1,50,0,0
66925,-100,4,2,1,70,0,1
77138,-100,4,2,1,40,0,0
82245,-100,4,2,1,50,0,0

[Colours]
Combo1 : 255,160,200
Combo2 : 240,155,240
SliderBorder : 255,200,255
SliderTrackOverride : 55,35,55

[HitObjects]
53,108,543,6,0,L|170:98,1,100,6|0,3:2|0:0,0:0:0:0:
189,65,1021,2,0,L|308:75,1,100,2|0,0:0|0:0,0:0:0:0:
324,108,1500,2,0,L|441:98,1,100,2|0,0:0|0:0,0:0:0:0:
461,131,1979,2,0,P|471:178|455:232,1,100,2|0,0:0|0:0,0:0:0:0:
427,266,2457,1,2,0:0:0:0:
427,266,2617,2,0,L|435:318,2,50,8|8|8,3:0|3:0|3:0,0:0:0:0:
382,243,3096,1,2,3:2:0:0:
147,157,3894,6,0,L|77:150,2,50,2|0|0,0:0|0:0|0:0,0:0:0:0:
194,173,4372,2,0,P|212:223|222:274,2,100,8|8|0,3:2|0:0|0:0,0:0:0:0:
122,243,5330,1,8,0:0:0:0:
151,338,5649,6,0,P|195:367|260:358,1,100,4|8,3:2|0:0,0:0:0:0:
282,338,6128,1,2,0:0:0:0:
282,338,6287,2,0,L|403:345,1,100,2|10,3:2|0:0,0:0:0:0:
460,282,6925,2,0,P|465:236|482:175,1,100,2|10,3:2|0:0,0:0:0:0:
430,96,7564,2,0,P|382:106|320:92,1,100,2|8,3:2|0:0,0:0:0:0:
234,77,8202,6,0,L|242:190,1,100,2|8,3:2|0:0,0:0:0:0:
234,226,8681,1,2,0:0:0:0:
234,226,8840,2,0,P|181:209|128:213,1,100,2|8,3:2|0:0,0:0:0:0:
124,310,9479,2,0,P|171:326|220:325,1,100,2|8,3:2|0:0,0:0:0:0:
314,290,10117,2,0,L|319:236,1,50,2|2,3:2|0:0,0:0:0:0:
361,214,10436,2,0,L|354:149,1,50,8|2,0:0|0:0,0:0:0:0:
352,114,10755,6,0,P|397:88|458:97,1,100,2|8,3:2|0:0,0:0:0:0:
483,120,11234,1,2,0:0:0:0:
483,120,11394,2,0,L|471:226,1,100,2|8,3:2|0:0,0:0:0:0:
447,316,12032,2,0,P|400:311|346:339,1,100,2|8,3:2|0:0,0:0:0:0:
258,364,12670,2,0,P|208:369|150:340,1,100,2|8,3:2|0:0,0:0:0:0:
95,277,13308,6,0,L|214:267,1,100,2|10,3:2|0:0,0:0:0:0:
235,238,13787,1,2,0:0:0:0:
235,238,13947,2,0,L|351:249,1,100,2|8,3:2|0:0,0:0:0:0:
423,202,14585,2,0,P|434:152|412:95,1,100,8|8,3:2|0:0,0:0:0:0:
380,76,15064,1,10,0:0:0:0:
380,76,15223,2,0,L|322:72,1,50,10|8,3:2|0:0,0:0:0:0:
280,63,15543,1,8,3:0:0:0:
200,123,15862,6,0,P|127:142|71:74,2,150,6|2|2,3:2|3:2|0:0,0:0:0:0:
280,63,17138,2,0,P|292:138|299:229,2,150,2|0|2,3:2|3:0|0:0,0:0:0:0:
200,123,18415,2,0,P|191:198|185:280,2,150,2|2|2,3:2|3:2|0:0,0:0:0:0:
280,63,19691,2,0,P|337:33|422:55,1,150,2|2,3:2|3:2,0:0:0:0:
490,182,20649,1,0,0:0:0:0:
404,234,20968,6,0,B|420:310|375:299|397:381,2,150,2|0|0,3:2|0:0|0:0,0:0:0:0:
338,158,22245,2,0,L|355:3,2,150,2|2|2,3:2|3:2|0:0,0:0:0:0:
244,122,23521,2,0,P|172:92|97:152,2,150,2|0|2,3:2|3:0|0:0,0:0:0:0:
246,222,24798,6,0,L|255:332,1,100,8|0,0:0|3:0,0:0:0:0:
295,350,25277,2,0,P|365:321|436:362,1,150,8|2,0:0|0:0,0:0:0:0:
477,360,25915,1,10,0:0:0:0:
477,360,26074,6,0,L|471:259,1,100,6|8,3:2|0:0,0:0:0:0:
468,159,26713,2,0,P|418:170|366:156,1,100,0|8,3:0|0:0,0:0:0:0:
338,121,27191,1,0,0:0:0:0:
338,121,27351,2,0,L|344:13,2,100,2|8|0,3:2|0:0|3:0,0:0:0:0:
244,157,28308,1,8,0:0:0:0:
307,234,28628,6,0,L|411:243,1,100,2|10,3:2|0:1,0:0:0:0:
448,269,29106,2,0,P|463:327|448:375,1,100,0|8,3:0|0:0,0:0:0:0:
404,372,29585,1,0,0:0:0:0:
404,372,29745,2,0,L|300:363,1,100,2|2,0:0|0:0,0:0:0:0:
210,329,30383,2,0,P|197:282|169:226,1,100,2|2,0:0|0:0,0:0:0:0:
116,155,31021,6,0,P|135:106|171:54,1,100,2|2,0:0|0:0,0:0:0:0:
204,41,31500,1,8,0:0:0:0:
204,41,31660,2,0,L|314:36,1,100,2|2,0:0|0:0,0:0:0:0:
403,48,32298,2,0,P|452:70|465:137,1,100,2|2,0:0|0:0,0:0:0:0:
473,160,32777,1,8,0:0:0:0:
473,160,32936,2,0,L|462:280,1,100,2|2,0:0|3:2,0:0:0:0:
436,301,33415,1,8,0:0:0:0:
337,289,33734,6,0,L|346:177,1,100,2|8,3:2|0:0,0:0:0:0:
261,134,34372,2,0,P|211:126|158:147,1,100,0|8,3:0|0:0,0:0:0:0:
133,180,34851,1,0,0:0:0:0:
147,278,35170,1,0,0:0:0:0:
236,322,35489,2,0,L|244:382,2,50,0|8|8,0:0|0:0|0:0,0:0:0:0:
278,294,35968,2,0,L|283:241,1,50,10|10,0:0|0:0,0:0:0:0:
322,213,36287,6,0,P|372:220|425:190,1,100,6|8,3:2|0:0,0:0:0:0:
496,137,36925,2,0,L|485:34,1,100,0|8,3:0|0:0,0:0:0:0:
435,30,37404,1,2,0:0:0:0:
435,30,37564,2,0,P|381:23|329:44,1,100,2|8,3:2|0:0,0:0:0:0:
254,91,38202,2,0,L|190:85,1,50,0|2,3:0|0:0,0:0:0:0:
113,129,38681,6,0,B|89:201|138:197|110:292,1,150,2|8,0:0|0:0,0:0:0:0:
173,356,39479,2,0,L|279:348,1,100,0|8,3:0|0:0,0:0:0:0:
311,317,39957,1,2,0:0:0:0:
311,317,40117,2,0,L|412:325,1,100,0|8,3:0|0:0,0:0:0:0:
491,265,40755,2,0,P|488:235|478:200,1,50,2|2,3:2|0:0,0:0:0:0:
402,155,41234,6,0,P|410:105|427:45,1,100,2|2,3:2|0:0,0:0:0:0:
324,37,41872,2,0,P|277:50|219:34,1,100,2|2,0:0|0:0,0:0:0:0:
127,40,42511,2,0,P|59:31|17:51,1,100,2|2,0:0|0:0,0:0:0:0:
8,139,43149,1,2,0:0:0:0:
62,222,43468,2,0,P|67:255|68:280,2,50,2|8|2,0:0|0:0|0:0,0:0:0:0:
97,186,43947,6,0,P|145:171|205:189,1,100,2|10,3:2|0:0,0:0:0:0:
241,268,44585,2,0,L|354:261,1,100,2|8,3:2|0:0,0:0:0:0:
414,194,45223,6,0,P|419:142|432:81,1,100,8|8,3:0|0:0,0:0:0:0:
463,59,45702,1,8,0:0:0:0:
463,59,45862,2,0,L|524:52,2,50,0|8|8,0:0|0:0|0:0,0:0:0:0:
365,36,46500,6,0,L|253:29,1,100,6|8,3:2|0:0,0:0:0:0:
197,103,47138,2,0,P|177:152|178:206,1,100,0|8,3:0|0:0,0:0:0:0:
193,245,47617,1,0,0:0:0:0:
193,245,47777,2,0,P|238:241|291:272,1,100,2|8,3:2|0:0,0:0:0:0:
220,342,48415,2,0,L|159:336,1,50,0|2,3:0|0:0,0:0:0:0:
80,292,48894,6,0,P|69:249|84:195,1,100,2|0,0:0|0:0,0:0:0:0:
120,163,49372,1,8,0:0:0:0:
219,175,49691,2,0,L|329:166,1,100,2|8,3:2|0:0,0:0:0:0:
363,144,50170,1,0,0:0:0:0:
363,144,50330,2,0,P|376:90|359:36,1,100,2|8,3:2|0:0,0:0:0:0:
266,33,50968,2,0,L|201:27,1,50,2|2,3:2|0:0,0:0:0:0:
121,60,51447,6,0,P|109:103|103:165,1,100,2|2,0:0|0:0,0:0:0:0:
30,227,52085,2,0,P|38:278|42:336,1,100,2|2,0:0|0:0,0:0:0:0:
141,324,52724,2,0,P|188:311|237:322,1,100,2|2,0:0|0:0,0:0:0:0:
323,373,53362,1,2,0:0:0:0:
413,331,53681,2,0,L|468:335,2,50,2|8|2,0:0|0:0|0:0,0:0:0:0:
380,292,54160,6,0,P|370:242|392:181,1,100,2|8,3:2|0:0,0:0:0:0:
440,113,54798,2,0,L|325:103,1,100,0|0,3:0|3:0,0:0:0:0:
249,62,55436,2,0,P|242:38|231:8,2,50,0|8|8,3:0|3:0|3:2,0:0:0:0:
232,109,55915,2,0,P|221:163|214:224,1,100,8|8,0:0|0:0,0:0:0:0:
261,296,56553,1,8,0:0:0:0:
256,192,56713,12,2,59266,3:2:0:0:
68,210,61819,6,0,B|175:185|161:240|272:218,1,200,2|2,3:2|0:2,0:0:0:0:
404,165,62936,1,0,0:2:0:0:
176,60,63734,2,0,P|125:54|64:65,1,100,2|2,0:2|0:2,0:0:0:0:
16,140,64372,6,0,B|10:192|10:192|26:239|26:239|19:297,2,150,8|8|8,3:2|3:0|3:0,0:0:0:0:
77,60,65649,2,0,L|68:2,2,50,0|8|8,3:0|0:0|0:0,0:0:0:0:
110,97,66128,1,0,0:0:0:0:
110,97,66287,2,0,P|137:95|165:90,1,50,8|0,0:0|0:0,0:0:0:0:
207,76,66606,1,10,0:0:0:0:
268,154,66925,6,0,P|281:203|293:269,1,100,6|8,3:2|0:0,0:0:0:0:
382,290,67564,2,0,P|392:239|412:182,1,100,0|8,3:0|0:0,0:0:0:0:
446,161,68043,1,2,0:0:0:0:
446,161,68202,2,0,P|394:164|348:139,1,100,2|8,3:2|0:0,0:0:0:0:
320,48,68840,1,0,3:0:0:0:
220,54,69160,1,8,0:0:0:0:
145,120,69479,6,0,L|154:230,1,100,2|8,3:2|0:0,0:0:0:0:
66,269,70117,2,0,L|57:158,1,100,0|8,3:0|0:0,0:0:0:0:
17,140,70596,1,2,0:0:0:0:
17,140,70755,2,0,L|26:27,1,100,0|8,3:0|0:0,0:0:0:0:
124,27,71394,1,0,3:0:0:0:
222,45,71713,1,8,0:0:0:0:
287,120,72032,6,0,P|330:134|392:113,1,100,2|8,3:2|0:0,0:0:0:0:
478,96,72670,2,0,L|471:200,1,100,0|8,3:0|0:0,0:0:0:0:
492,241,73149,1,2,0:0:0:0:
492,241,73308,2,0,P|441:230|379:242,1,100,2|8,3:2|0:2,0:0:0:0:
302,276,73947,1,2,3:2:0:0:
221,216,74266,1,8,0:0:0:0:
261,124,74585,6,0,P|255:76|240:16,1,100,4|8,3:2|0:0,0:0:0:0:
160,82,75223,2,0,P|145:128|133:190,1,100,0|8,3:0|0:0,0:0:0:0:
126,228,75702,1,2,0:0:0:0:
126,228,75862,2,0,L|134:348,1,100,2|8,3:2|0:0,0:0:0:0:
223,368,76500,1,2,3:2:0:0:
315,330,76819,1,8,0:0:0:0:
409,363,77138,6,0,P|411:308|387:261,1,100,6|2,3:2|3:2,0:0:0:0:
294,245,77777,2,0,L|179:237,1,100,2|8,3:2|3:0,0:0:0:0:
215,337,78415,2,0,L|319:329,1,100,2|2,3:2|3:2,0:0:0:0:
392,267,79053,1,2,3:2:0:0:
468,202,79372,1,2,3:2:0:0:
437,106,79691,6,0,P|396:80|332:89,2,100,2|2|2,3:2|3:2|3:2,0:0:0:0:
371,181,80649,1,2,3:2:0:0:
304,255,80968,2,0,B|202:245,1,100,2|2,3:2|3:2,0:0:0:0:
104,248,81606,1,2,3:2:0:0:
64,155,81925,1,2,3:2:0:0:
114,68,82245,6,0,B|226:45|203:111|327:81,1,200,2|0,3:2|3:0,0:0:0:0:
401,45,83202,1,8,0:0:0:0:
471,116,83521,2,0,P|501:211|465:312,1,200,2|0,3:2|3:0,0:0:0:0:
382,349,84479,1,8,0:0:0:0:
311,278,84798,6,0,B|240:268|240:268|189:297|189:297|103:283,1,200,2|8,3:2|0:0,0:0:0:0:
73,267,85596,2,0,L|17:271,1,50,8|0,0:0|3:0,0:0:0:0:
5,223,85915,2,0,P|-6:175|12:121,1,100,8|8,0:0|0:0,0:0:0:0:
90,70,86553,2,0,L|151:75,1,50,12|0,0:0|0:0,0:0:0:0:
181,102,86872,2,0,L|238:97,1,50,0|8,3:0|0:0,0:0:0:0:
275,119,87191,1,4,0:0:0:0:
