osu file format v14

[General]
AudioFilename: audio.mp3
AudioLeadIn: 0
PreviewTime: 36048
Countdown: 0
SampleSet: Soft
StackLeniency: 0.5
Mode: 0
LetterboxInBreaks: 0
WidescreenStoryboard: 1

[Editor]
Bookmarks: 64372,87351
DistanceSpacing: 1.3
BeatDivisor: 4
GridSize: 4
TimelineZoom: 1.8

[Metadata]
Title:Uso no Hibana
TitleUnicode:嘘の火花
Artist:96neko
ArtistUnicode:96猫
Creator:Nevo
Version:Renumi's Easy
Source:クズの本懐
Tags:Kuzu no Honkai Scum's Wish opening OP armin a_r_m_i_n happyrocket88 shogunmoon byd bite you death shiratoi renumi sotarks lafayla
BeatmapID:1500992
BeatmapSetID:625669

[Difficulty]
HPDrainRate:2
CircleSize:2.4
OverallDifficulty:3
ApproachRate:2.5
SliderMultiplier:0.75
SliderTickRate:1

[Events]
//Background and Video events
0,0,"hanabi-wallpaper.jpg",0,0
//Break Periods
2,56913,62872
//Storyboard Layer 0 (Background)
//Storyboard Layer 1 (Fail)
//Storyboard Layer 2 (Pass)
//Storyboard Layer 3 (Foreground)
//Storyboard Sound Samples

[TimingPoints]
543,319.148936170213,4,2,1,70,1,0
3096,-100,4,2,2,50,0,0
3415,-100,4,2,1,40,0,0
4372,-100,4,2,2,50,0,0
5649,-100,4,2,2,70,0,0
6287,-100,4,2,3,70,0,0
6447,-100,4,2,2,70,0,0
7245,-100,4,2,3,70,0,0
7404,-100,4,2,2,70,0,0
7883,-100,4,2,3,70,0,0
8043,-100,4,2,2,70,0,0
8840,-100,4,2,3,70,0,0
9000,-100,4,2,2,70,0,0
10117,-100,4,2,3,70,0,0
10277,-100,4,2,2,70,0,0
11394,-100,4,2,3,70,0,0
11553,-100,4,2,2,70,0,0
12351,-100,4,2,3,70,0,0
12511,-100,4,2,2,70,0,0
12989,-100,4,2,3,70,0,0
13149,-100,4,2,2,70,0,0
15862,-100,4,2,3,50,0,0
25755,-100,4,2,2,50,0,0
26074,-100,4,2,3,60,0,0
26234,-100,4,2,2,60,0,0
27351,-100,4,2,3,60,0,0
27511,-100,4,2,2,60,0,0
28628,-100,4,2,3,60,0,0
28787,-100,4,2,2,60,0,0
29904,-100,4,2,3,60,0,0
30064,-100,4,2,2,60,0,0
31181,-100,4,2,3,60,0,0
31340,-100,4,2,2,60,0,0
32457,-100,4,2,3,60,0,0
32617,-100,4,2,2,60,0,0
33734,-100,4,2,3,60,0,0
33894,-100,4,2,2,60,0,0
35011,-100,4,2,3,45,0,0
35489,-100,4,2,2,60,0,0
35968,-100,4,2,2,60,0,0
36287,-100,4,2,2,70,0,1
46340,-100,4,2,2,70,0,0
46500,-100,4,2,2,70,0,1
56713,-100,4,2,5,50,0,0
56872,-100,4,2,3,50,0,0
65649,-100,4,2,2,50,0,0
66925,-100,4,2,2,70,0,1
69479,-100,4,2,3,70,0,1
69638,-100,4,2,2,70,0,1
72032,-100,4,2,3,70,0,1
72191,-100,4,2,2,70,0,1
74585,-100,4,2,3,70,0,1
74745,-100,4,2,2,70,0,1
75862,-100,4,2,3,70,0,1
76181,-100,4,2,3,70,0,1
76500,-100,4,2,3,70,0,1
76660,-100,4,2,2,70,0,1
77138,-100,4,2,4,40,0,0
77777,-100,4,2,3,40,0,0
77936,-100,4,2,4,40,0,0
78734,-100,4,2,3,40,0,0
78894,-100,4,2,4,40,0,0
79372,-100,4,2,3,40,0,0
79532,-100,4,2,4,40,0,0
80330,-100,4,2,3,40,0,0
80489,-100,4,2,4,40,0,0
81287,-100,4,2,3,40,0,0
81606,-100,4,2,4,40,0,0
81925,-100,4,2,3,40,0,0
82245,-100,4,2,2,50,0,0
84798,-100,4,2,2,55,0,0
86234,-100,4,2,2,55,0,0
86553,-100,4,2,2,60,0,0

[Colours]
Combo1 : 192,192,192
Combo2 : 240,155,240
Combo3 : 128,128,192
SliderBorder : 255,200,255
SliderTrackOverride : 55,35,55

[HitObjects]
412,172,543,6,0,B|468:160|468:160|508:197,1,112.5,0|0,0:0|0:0,0:0:0:0:
472,328,1500,2,0,B|416:340|416:340|375:302,1,112.5
280,208,2457,1,0,0:0:0:0:
200,168,2777,1,8,0:3:0:0:
136,232,3096,6,0,L|148:348,1,112.5,4|0,3:2|0:0,0:0:0:0:
16,376,4053,1,0,3:0:0:0:
44,292,4372,2,0,L|36:200,1,75,0|8,3:0|0:0,0:0:0:0:
40,128,5011,2,0,B|84:144|84:144|152:120,1,112.5,8|0,0:0|3:0,0:0:0:0:
160,80,5649,6,0,L|244:84,1,75,6|10,3:2|0:0,0:0:0:0:
276,164,6287,2,0,L|230:234,1,75,2|10,0:0|0:0,0:0:0:0:
160,276,6925,2,0,B|172:304|172:304|164:360,2,75,2|10|2,0:0|0:0|0:0,0:0:0:0:
235,227,7883,1,10,0:0:0:0:
300,288,8202,6,0,L|380:284,1,75,2|10,0:0|0:0,0:0:0:0:
428,212,8840,2,0,L|384:144,1,75,2|10,0:0|0:0,0:0:0:0:
320,88,9479,2,0,B|292:100|292:100|236:92,2,75,2|10|2,0:0|0:0|0:0,0:0:0:0:
396,44,10436,1,10,0:0:0:0:
428,128,10755,6,0,L|424:212,1,75,2|10,0:0|0:0,0:0:0:0:
340,240,11394,2,0,L|344:324,1,75,2|10,0:0|0:0,0:0:0:0:
416,368,12032,2,0,B|444:380|444:380|500:372,2,75,2|10|2,0:0|0:0|0:0,0:0:0:0:
343,314,12989,1,10,0:0:0:0:
268,364,13308,6,0,L|184:356,1,75,6|10,3:2|0:0,0:0:0:0:
156,276,13947,2,0,L|72:284,1,75,0|10,0:0|0:0,0:0:0:0:
8,232,14585,2,0,B|40:204|40:204|48:132,1,112.5,4|0,3:2|3:0,0:0:0:0:
8,116,15223,2,0,L|0:41,1,75,8|8,0:0|0:0,0:0:0:0:
80,0,15862,6,0,B|92:20|92:20|224:12,1,150,6|0,3:2|0:0,0:0:0:0:
284,76,16819,1,0,0:0:0:0:
348,140,17138,2,0,L|358:25,2,112.5,6|2|0,3:2|3:2|0:0,0:0:0:0:
272,188,18415,6,0,B|260:208|260:208|128:200,1,150,6|0,3:2|0:0,0:0:0:0:
72,264,19372,1,0,0:0:0:0:
12,328,19691,2,0,L|2:213,2,112.5,6|2|0,3:2|3:2|0:0,0:0:0:0:
104,348,20968,6,0,B|200:300|200:300|244:316,1,150,6|0,3:2|0:0,0:0:0:0:
332,332,21925,1,0,0:0:0:0:
368,248,22245,2,0,B|352:208|352:208|372:136,2,112.5,6|2|0,3:2|3:2|0:0,0:0:0:0:
420,320,23521,2,0,B|462:326|462:326|514:379,2,112.5,6|2|0,3:2|3:2|0:0,0:0:0:0:
332,332,24798,2,0,B|305:365|305:365|233:384,1,112.5,8|8,0:0|0:0,0:0:0:0:
136,304,25755,1,2,0:0:0:0:
104,220,26074,6,0,L|112:132,2,75,6|10|2,3:2|0:0|3:2,0:0:0:0:
28,268,27032,1,10,0:0:0:0:
0,356,27351,2,0,B|32:372|32:372|76:364,1,75,6|10,3:2|0:0,0:0:0:0:
136,304,27989,2,0,B|168:288|168:288|212:296,1,75,2|10,3:2|0:0,0:0:0:0:
268,360,28628,6,0,L|352:352,2,75,6|8|0,3:2|0:0|3:2,0:0:0:0:
206,295,29585,1,8,0:0:0:0:
268,228,29904,2,0,L|275:153,1,75,6|8,3:2|0:0,0:0:0:0:
356,112,30543,2,0,L|348:37,1,75,0|8,3:2|0:0,0:0:0:0:
264,4,31181,6,0,B|242:22|242:22|181:16,1,75,6|8,3:2|0:0,0:0:0:0:
104,12,31819,2,0,B|117:85,1,75,0|10,3:2|0:0,0:0:0:0:
76,168,32457,2,0,B|97:186|97:186|158:180,1,75,6|10,3:2|0:0,0:0:0:0:
236,176,33096,2,0,B|222:249,1,75,0|8,3:2|0:0,0:0:0:0:
208,340,33734,6,0,B|120:352,2,75,6|8|2,3:2|0:0|3:2,0:0:0:0:
292,312,34691,1,10,0:0:0:0:
356,376,35011,1,2,3:2:0:0:
480,248,35649,2,0,B|468:160,1,75,8|8,3:0|0:0,0:0:0:0:
416,100,36287,6,0,B|396:124|396:124|348:116,1,75,4|8,3:2|0:0,0:0:0:0:
296,44,36925,2,0,B|276:20|276:20|228:28,1,75,2|8,0:0|0:0,0:0:0:0:
144,20,37564,2,0,L|156:172,1,150,2|2,3:2|3:2,0:0:0:0:
92,232,38521,1,8,0:0:0:0:
156,296,38840,6,0,L|240:308,1,75,2|8,3:2|0:0,0:0:0:0:
288,376,39479,2,0,L|372:364,1,75,2|8,0:2|0:0,0:0:0:0:
452,348,40117,2,0,L|464:196,1,150,2|2,3:2|3:2,0:0:0:0:
504,116,41074,1,8,0:0:0:0:
452,40,41394,6,0,B|412:44|412:44|384:76,1,75,0|8,3:0|0:0,0:0:0:0:
320,128,42032,2,0,L|235:121,1,75,0|8,3:0|0:0,0:0:0:0:
180,184,42670,2,0,B|157:157|157:157|117:153,1,75,0|8,3:0|0:0,0:0:0:0:
44,208,43308,2,0,L|50:292,1,75,0|10,3:0|0:0,0:0:0:0:
108,352,43947,6,0,B|130:325|130:325|170:321,2,75,2|10|2,3:2|0:0|3:2,0:0:0:0:
20,372,44904,1,10,0:0:0:0:
50,283,45223,6,0,P|81:241|143:233,2,112.5,4|0|8,3:2|3:0|0:0,0:0:0:0:
133,327,46500,6,0,L|217:315,1,75,4|8,3:2|0:0,0:0:0:0:
264,248,47138,2,0,L|348:260,1,75,2|8,0:0|0:0,0:0:0:0:
424,232,47777,2,0,B|408:192|408:192|420:72,1,150,2|2,3:2|3:2,0:0:0:0:
360,16,48734,1,8,0:0:0:0:
296,80,49053,6,0,B|256:84|256:84|228:64,1,75,2|8,3:2|0:0,0:0:0:0:
152,16,49691,2,0,B|112:12|112:12|84:32,1,75,2|8,0:0|0:0,0:0:0:0:
4,72,50330,2,0,B|20:112|20:112|8:232,1,150,2|2,3:2|3:2,0:0:0:0:
52,296,51287,1,8,0:0:0:0:
120,352,51606,6,0,L|204:344,1,75,0|8,3:0|0:0,0:0:0:0:
276,304,52245,2,0,B|300:328|300:328|348:328,1,75,0|8,3:0|0:0,0:0:0:0:
412,276,52883,2,0,L|420:192,1,75,0|8,3:0|0:0,0:0:0:0:
460,120,53522,2,0,B|436:96|436:96|436:48,1,75,0|0,3:0|0:0,0:0:0:0:
356,16,54160,6,0,L|268:24,2,75,4|8|8,3:2|0:0|0:0,0:0:0:0:
436,54,55117,1,0,3:0:0:0:
444,144,55436,2,0,L|412:212,1,75,8|8,3:2|0:0,0:0:0:0:
344,268,56074,2,0,L|312:199,1,75,8|8,0:0|0:0,0:0:0:0:
228,164,56713,5,6,3:2:0:0:
184,48,64372,6,0,B|140:44|140:44|128:56|128:56|68:48,2,112.5,6|2|2,3:2|0:0|3:2,0:0:0:0:
268,12,65649,2,0,B|296:-4|296:-4|352:4,2,75,8|8|8,0:0|0:0|0:0,0:0:0:0:
256,100,66606,1,8,0:0:0:0:
180,148,66925,6,0,B|204:172|204:172|212:228,2,75,4|8|2,3:2|0:0|3:2,0:0:0:0:
120,216,67883,1,8,0:0:0:0:
58,151,68202,2,0,B|34:175|34:175|26:231,1,75,2|10,3:2|0:0,0:0:0:0:
77,296,68840,2,0,B|108:309|108:309|163:295,1,75,2|8,3:2|0:0,0:0:0:0:
241,295,69479,6,0,L|329:303,2,75,6|8|2,3:2|0:0|3:2,0:0:0:0:
209,212,70436,1,8,0:0:0:0:
252,132,70755,2,0,L|326:138,1,75,2|10,3:2|0:0,0:0:0:0:
404,184,71394,2,0,L|397:258,1,75,2|10,3:2|0:0,0:0:0:0:
320,305,72032,6,0,B|312:333|312:333|320:385,2,75,6|8|2,3:2|0:0|3:2,0:0:0:0:
397,258,72989,1,8,0:0:0:0:
480,220,73308,2,0,B|488:192|488:192|480:140,1,75,2|10,3:2|0:0,0:0:0:0:
508,60,73947,2,0,B|476:40|476:40|432:44,1,75,2|10,3:2|0:0,0:0:0:0:
352,72,74585,6,0,L|264:80,1,75,6|10,3:2|0:0,0:0:0:0:
240,160,75223,2,0,L|152:152,1,75,10|10,0:0|0:0,0:0:0:0:
88,200,75862,2,0,B|108:224|108:224|100:284,1,75,10|10,3:2|0:0,0:0:0:0:
184,304,76500,2,0,B|164:328|164:328|172:388,1,75,10|8,0:0|0:0,0:0:0:0:
260,380,77138,6,0,P|316:352|404:372,1,150,2|2,3:2|3:2,0:0:0:0:
472,316,78096,2,0,P|464:242|503:180,1,150,6|2,3:0|3:2,0:0:0:0:
444,116,79053,2,0,P|413:110|383:76,1,75,2|6,3:2|3:0,0:0:0:0:
304,40,79691,2,0,P|275:95|192:131,1,150,2|2,3:2|3:2,0:0:0:0:
132,196,80649,2,0,P|175:240|184:330,1,150,6|2,3:0|3:2,0:0:0:0:
104,364,81606,2,0,B|92:336|92:336|96:288,1,75,2|6,3:2|3:0,0:0:0:0:
24,236,82245,6,0,B|16:156,1,75,2|10,3:2|0:0,0:0:0:0:
56,80,82883,2,0,B|88:112|88:112|168:112,2,112.5,2|2|10,3:2|0:0|0:0,0:0:0:0:
120,16,84160,2,0,B|200:24,1,75,2|10,3:2|0:0,0:0:0:0:
260,84,84798,6,0,B|276:68|276:68|336:60,1,75,6|10,3:2|0:0,0:0:0:0:
412,28,85436,2,0,L|431:149,1,112.5,10|0,0:0|3:2,0:0:0:0:
356,192,86234,6,0,L|292:243,1,75,8|12,0:0|0:0,0:0:0:0:
228,296,86872,2,0,L|275:354,1,75,8|12,0:0|0:0,0:0:0:0:
