osu file format v14

[General]
AudioFilename: audio.mp3
AudioLeadIn: 0
PreviewTime: 36048
Countdown: 0
SampleSet: Soft
StackLeniency: 0.5
Mode: 0
LetterboxInBreaks: 0
WidescreenStoryboard: 1

[Editor]
Bookmarks: 87351
DistanceSpacing: 0.1
BeatDivisor: 4
GridSize: 4
TimelineZoom: 1.9

[Metadata]
Title:Uso no Hibana
TitleUnicode:嘘の火花
Artist:96neko
ArtistUnicode:96猫
Creator:Nevo
Version:Expert
Source:クズの本懐
Tags:Kuzu no Honkai Scum's Wish opening OP armin a_r_m_i_n happyrocket88 shogunmoon byd bite you death shiratoi renumi sotarks lafayla
BeatmapID:1500991
BeatmapSetID:625669

[Difficulty]
HPDrainRate:6
CircleSize:4
OverallDifficulty:8
ApproachRate:9.3
SliderMultiplier:1.75
SliderTickRate:1

[Events]
//Background and Video events
0,0,"hanabi-wallpaper.jpg",0,0
//Break Periods
//Storyboard Layer 0 (Background)
//Storyboard Layer 1 (Fail)
//Storyboard Layer 2 (Pass)
//Storyboard Layer 3 (Foreground)
//Storyboard Sound Samples

[TimingPoints]
543,319.148936170213,4,2,1,70,1,0
543,-133.333333333333,4,2,1,70,0,0
2617,-133.333333333333,4,2,1,70,0,0
3096,-133.333333333333,4,2,2,50,0,0
3415,-133.333333333333,4,2,1,40,0,0
3894,-133.333333333333,4,2,1,40,0,0
4213,-133.333333333333,4,2,1,50,0,0
4372,-133.333333333333,4,2,2,50,0,0
5649,-100,4,2,2,70,0,0
6287,-100,4,2,3,70,0,0
6447,-100,4,2,2,70,0,0
7245,-100,4,2,3,70,0,0
7404,-100,4,2,2,70,0,0
7883,-100,4,2,3,70,0,0
8043,-100,4,2,2,70,0,0
8840,-100,4,2,3,70,0,0
9000,-100,4,2,2,70,0,0
10117,-100,4,2,3,70,0,0
10277,-100,4,2,2,70,0,0
11394,-100,4,2,3,70,0,0
11553,-100,4,2,2,70,0,0
12351,-100,4,2,3,70,0,0
12511,-100,4,2,2,70,0,0
12989,-100,4,2,3,70,0,0
13149,-100,4,2,2,70,0,0
15862,-133.333333333333,4,2,3,50,0,0
25755,-133.333333333333,4,2,2,50,0,0
26074,-100,4,2,3,60,0,0
26234,-100,4,2,2,60,0,0
27351,-100,4,2,3,60,0,0
27511,-100,4,2,2,60,0,0
28628,-100,4,2,3,60,0,0
28787,-100,4,2,2,60,0,0
29904,-100,4,2,3,60,0,0
30064,-100,4,2,2,60,0,0
31181,-100,4,2,3,60,0,0
31340,-100,4,2,2,60,0,0
32457,-100,4,2,3,60,0,0
32617,-100,4,2,2,60,0,0
33734,-100,4,2,3,60,0,0
33894,-100,4,2,2,60,0,0
35011,-200,4,2,3,45,0,0
35489,-200,4,2,2,60,0,0
35968,-100,4,2,2,60,0,0
36287,-80,4,2,2,70,0,1
46340,-80,4,2,2,70,0,0
46500,-80,4,2,2,70,0,1
56713,-133.333333333333,4,2,5,50,0,0
56872,-133.333333333333,4,2,3,50,0,0
65649,-133.333333333333,4,2,2,50,0,0
66925,-80,4,2,2,70,0,1
69479,-80,4,2,3,70,0,1
69638,-80,4,2,2,70,0,1
72032,-80,4,2,3,70,0,1
72191,-80,4,2,2,70,0,1
74585,-80,4,2,3,70,0,1
74745,-80,4,2,2,70,0,1
75862,-80,4,2,3,70,0,1
76021,-80,4,2,2,70,0,1
76181,-80,4,2,3,70,0,1
76340,-80,4,2,2,70,0,1
76500,-80,4,2,3,70,0,1
76660,-80,4,2,2,70,0,1
77138,-133.333333333333,4,2,4,40,0,0
77777,-133.333333333333,4,2,3,40,0,0
77936,-133.333333333333,4,2,4,40,0,0
78734,-133.333333333333,4,2,3,40,0,0
78894,-133.333333333333,4,2,4,40,0,0
79372,-133.333333333333,4,2,3,40,0,0
79532,-133.333333333333,4,2,4,40,0,0
80330,-133.333333333333,4,2,3,40,0,0
80489,-133.333333333333,4,2,4,40,0,0
81287,-133.333333333333,4,2,3,40,0,0
81447,-133.333333333333,4,2,4,40,0,0
81606,-133.333333333333,4,2,4,40,0,0
81925,-133.333333333333,4,2,3,40,0,0
82085,-133.333333333333,4,2,4,40,0,0
82245,-133.333333333333,4,2,2,50,0,0
84798,-133.333333333333,4,2,2,55,0,0
86074,-133.333333333333,4,2,3,55,0,0
86234,-133.333333333333,4,2,2,55,0,0
86553,-133.333333333333,4,2,2,60,0,0

[Colours]
Combo1 : 192,192,192
Combo2 : 240,155,240
Combo3 : 128,128,192
SliderBorder : 255,200,255
SliderTrackOverride : 55,35,55

[HitObjects]
354,317,543,6,0,P|419:300|448:236,1,131.25000500679,4|0,0:0|0:0,0:0:0:0:
359,105,1021,2,0,L|367:235,1,131.25000500679,0|0,0:0|0:0,0:0:0:0:
158,317,1500,2,0,P|93:300|64:236,1,131.25000500679,0|0,0:0|0:0,0:0:0:0:
153,105,1978,2,0,L|144:235,1,131.25000500679,0|0,0:0|0:0,0:0:0:0:
255,276,2457,1,0,0:0:0:0:
256,148,2617,5,8,0:3:0:0:
158,317,2777,1,8,0:3:0:0:
354,317,2936,1,8,0:3:0:0:
163,220,3096,6,0,L|32:211,1,131.25000500679,4|0,3:2|0:0,0:0:0:0:
349,220,3574,2,0,L|479:211,1,131.25000500679,0|0,0:0|3:0,0:0:0:0:
256,88,4053,1,0,3:0:0:0:
171,182,4213,5,0,3:0:0:0:
167,201,4293,1,0,3:0:0:0:
163,220,4372,1,0,3:0:0:0:
333,144,4532,5,0,3:0:0:0:
337,163,4612,1,0,3:0:0:0:
341,182,4692,1,8,0:0:0:0:
171,106,4851,5,0,3:0:0:0:
167,125,4931,1,0,3:0:0:0:
163,144,5011,1,8,0:0:0:0:
333,68,5170,5,0,3:0:0:0:
337,87,5250,1,0,3:0:0:0:
341,106,5330,1,8,0:0:0:0:
171,30,5489,5,0,3:0:0:0:
167,49,5569,1,0,3:0:0:0:
163,68,5649,5,6,3:2:0:0:
92,174,5808,1,2,0:0:0:0:
73,32,5968,1,10,0:0:0:0:
184,201,6128,1,2,0:0:0:0:
4,181,6287,2,0,L|92:174,1,87.5,2|0,0:0|1:0,0:0:0:0:
210,295,6606,1,10,0:0:0:0:
155,124,6766,1,2,0:0:0:0:
115,280,6925,5,2,0:0:0:0:
277,226,7085,1,2,0:0:0:0:
107,192,7245,2,0,L|114:279,1,87.5,10|0,0:0|1:0,0:0:0:0:
326,292,7564,1,2,0:0:0:0:
164,346,7724,1,2,0:0:0:0:
319,379,7884,2,0,L|326:291,1,87.5,10|0,0:0|0:0,0:0:0:0:
229,161,8202,5,2,0:0:0:0:
243,309,8361,1,2,0:0:0:0:
346,198,8521,1,10,0:0:0:0:
318,379,8681,1,2,0:0:0:0:
200,238,8840,2,0,L|112:230,1,87.5,2|0,0:0|1:0,0:0:0:0:
342,117,9159,1,10,0:0:0:0:
325,291,9319,1,2,0:0:0:0:
229,161,9479,5,2,0:0:0:0:
418,149,9638,1,2,0:0:0:0:
236,248,9798,2,0,L|228:160,1,87.5,10|2,0:0|0:0,0:0:0:0:
325,291,10117,1,2,0:0:0:0:
181,327,10277,1,2,0:0:0:0:
380,212,10436,1,10,0:0:0:0:
236,248,10596,1,2,0:0:0:0:
421,301,10755,5,2,0:0:0:0:
364,116,10915,1,2,0:0:0:0:
325,291,11074,1,10,0:0:0:0:
476,219,11234,1,2,0:0:0:0:
276,160,11394,2,0,L|188:152,1,87.5,2|0,0:0|1:0,0:0:0:0:
406,30,11713,1,10,0:0:0:0:
380,212,11872,1,2,0:0:0:0:
309,19,12032,5,2,0:0:0:0:
500,45,12191,1,2,0:0:0:0:
316,106,12351,2,0,L|308:18,1,87.5,10|0,0:0|1:0,0:0:0:0:
399,156,12670,1,2,0:0:0:0:
231,153,12830,1,2,0:0:0:0:
407,68,12989,2,0,L|399:155,1,87.5,10|0,0:0|1:0,0:0:0:0:
238,240,13308,6,0,L|230:152,1,87.5,6|0,3:2|0:0,0:0:0:0:
323,285,13628,1,10,0:0:0:0:
155,288,13787,1,2,0:0:0:0:
320,189,13947,1,0,0:0:0:0:
331,382,14106,1,2,0:0:0:0:
238,240,14266,1,10,0:0:0:0:
410,329,14425,1,2,0:0:0:0:
155,288,14585,5,4,3:2:0:0:
236,143,14745,1,0,3:0:0:0:
323,285,14904,1,8,0:0:0:0:
154,192,15064,1,0,3:0:0:0:
241,334,15223,1,8,0:0:0:0:
320,189,15383,5,8,0:0:0:0:
351,192,15462,1,8,0:0:0:0:
380,207,15542,1,8,0:0:0:0:
403,230,15622,1,8,0:0:0:0:
416,259,15702,2,0,L|494:254,1,43.75,8|8,0:0|0:0,0:0:0:0:
481,118,15862,6,0,L|340:109,1,131.25000500679,6|0,3:2|0:0,0:0:0:0:
507,41,16340,2,0,L|366:32,1,131.25000500679,2|0,3:2|0:0,0:0:0:0:
324,186,16819,1,0,0:0:0:0:
350,109,16979,1,0,0:0:0:0:
246,211,17138,6,0,P|297:263|372:251,1,131.25000500679,6|0,3:2|0:0,0:0:0:0:
221,134,17617,2,0,P|169:185|181:260,1,131.25000500679,2|0,3:2|0:0,0:0:0:0:
302,151,18096,1,0,0:0:0:0:
277,73,18255,1,0,0:0:0:0:
90,142,18415,6,0,L|231:133,1,131.25000500679,6|0,3:2|0:0,0:0:0:0:
64,65,18893,2,0,L|205:56,1,131.25000500679,2|0,3:2|0:0,0:0:0:0:
246,210,19372,1,0,0:0:0:0:
220,133,19532,1,0,0:0:0:0:
324,235,19691,6,0,P|273:287|198:275,1,131.25000500679,6|0,3:2|0:0,0:0:0:0:
349,158,20170,2,0,P|401:209|389:284,1,131.25000500679,2|0,3:2|0:0,0:0:0:0:
268,175,20649,1,0,0:0:0:0:
293,97,20808,1,0,0:0:0:0:
480,166,20968,6,0,L|339:157,1,131.25000500679,6|0,3:2|0:0,0:0:0:0:
268,252,21447,2,0,L|398:261,1,131.25000500679,2|0,3:2|0:0,0:0:0:0:
350,340,21925,2,0,L|274:334,1,65.6250025033952,0|0,3:2|0:0,0:0:0:0:
495,249,22245,6,0,P|482:312|426:353,1,131.25000500679,6|0,3:2|0:0,0:0:0:0:
378,185,22723,2,0,P|391:122|447:81,1,131.25000500679,2|0,3:2|0:0,0:0:0:0:
495,249,23202,1,0,0:0:0:0:
399,262,23362,1,0,0:0:0:0:
503,183,23521,6,0,L|494:253,1,65.6250025033952,6|0,3:2|0:0,0:0:0:0:
399,262,23840,1,0,0:0:0:0:
407,165,24000,6,0,L|423:34,1,131.25000500679,2|0,3:2|0:0,0:0:0:0:
314,141,24479,1,0,0:0:0:0:
503,183,24638,1,0,0:0:0:0:
317,242,24798,5,8,0:0:0:0:
317,242,24878,1,8,0:0:0:0:
317,242,24957,1,8,0:0:0:0:
448,100,25117,1,0,3:0:0:0:
464,301,25277,1,8,0:0:0:0:
464,301,25356,1,8,0:0:0:0:
464,301,25436,1,8,0:0:0:0:
355,124,25596,1,0,3:0:0:0:
375,320,25755,1,2,0:0:0:0:
347,333,25834,1,2,0:0:0:0:
317,338,25914,1,2,0:0:0:0:
287,333,25994,1,2,0:0:0:0:
260,319,26074,6,0,P|233:289|222:232,1,87.5,6|0,3:2|0:0,0:0:0:0:
295,68,26394,1,10,0:0:0:0:
317,242,26553,1,0,0:0:0:0:
151,82,26713,2,0,L|159:170,1,87.5,2|0,3:2|0:0,0:0:0:0:
176,282,27032,1,10,0:0:0:0:
262,161,27192,1,2,0:0:0:0:
309,329,27351,6,0,L|317:241,1,87.5,6|0,3:2|0:0,0:0:0:0:
218,364,27670,1,10,0:0:0:0:
396,286,27830,1,2,0:0:0:0:
239,236,27989,1,2,3:2:0:0:
389,383,28149,1,2,3:2:0:0:
424,192,28308,2,0,P|379:191|334:214,1,87.5,10|0,0:0|0:0,0:0:0:0:
492,267,28628,5,6,3:2:0:0:
406,96,28788,1,0,0:0:0:0:
396,286,28948,1,8,0:0:0:0:
499,130,29107,1,2,0:0:0:0:
469,353,29266,2,0,P|431:375|388:382,1,87.5,2|2,3:2|0:0,0:0:0:0:
220,243,29586,1,8,0:0:0:0:
403,198,29745,6,0,L|395:286,1,87.5,2|6,0:0|3:2,0:0:0:0:
228,331,30064,2,0,L|220:243,1,87.5,2|8,0:0|0:0,0:0:0:0:
308,352,30383,1,2,0:0:0:0:
153,296,30542,1,0,3:2:0:0:
309,269,30702,1,2,3:2:0:0:
159,378,30862,1,8,0:0:0:0:
199,202,31021,6,0,L|287:194,1,87.5,2|6,0:0|3:2,0:0:0:0:
153,296,31340,1,2,0:0:0:0:
137,127,31500,1,8,0:0:0:0:
240,303,31660,2,0,L|152:295,1,87.5,2|0,0:0|3:2,0:0:0:0:
359,213,31979,1,2,0:0:0:0:
308,352,32138,1,10,0:0:0:0:
211,159,32298,6,0,L|327:153,1,87.5,2|6,0:0|3:2,0:0:0:0:
457,151,32617,1,2,0:0:0:0:
359,213,32777,1,10,0:0:0:0:
464,63,32936,2,0,L|456:151,1,87.5,2|0,0:0|3:2,0:0:0:0:
387,306,33255,1,2,3:2:0:0:
506,230,33415,1,8,0:0:0:0:
301,138,33574,1,2,0:0:0:0:
299,313,33734,6,0,L|387:305,1,87.5,6|0,3:2|0:0,0:0:0:0:
259,225,34053,2,0,L|171:217,1,87.5,8|0,0:0|0:0,0:0:0:0:
277,63,34372,1,2,3:2:0:0:
301,138,34532,1,0,3:0:0:0:
195,62,34691,1,10,0:0:0:0:
358,68,34851,1,2,0:0:0:0:
156,134,35011,6,0,L|13:121,1,131.25,2|0,3:2|0:0,0:0:0:0:
269,92,35649,5,8,3:0:0:0:
174,308,35808,1,8,3:0:0:0:
156,134,35968,1,8,0:0:0:0:
153,107,36048,1,0,0:0:0:0:
152,80,36128,2,0,L|148:22,1,43.75,8|8,0:0|0:0,0:0:0:0:
342,154,36287,6,0,L|333:270,1,109.375,4|0,3:2|0:0,0:0:0:0:
269,92,36606,1,8,0:0:0:0:
414,88,36766,1,0,0:0:0:0:
225,179,36925,1,2,0:0:0:0:
458,175,37085,1,0,3:0:0:0:
268,264,37245,1,8,0:0:0:0:
339,28,37404,1,0,0:0:0:0:
356,222,37564,5,2,3:2:0:0:
184,50,37723,1,0,0:0:0:0:
159,273,37883,2,0,L|275:264,1,109.375,10|0,0:0|0:0,0:0:0:0:
73,201,38202,1,2,3:2:0:0:
144,381,38362,2,0,L|160:261,1,109.375,2|8,3:2|0:0,0:0:0:0:
103,111,38681,1,0,0:0:0:0:
258,206,38840,6,0,P|262:168|216:92,1,109.375,0|0,0:0|0:0,0:0:0:0:
52,37,39160,1,8,0:0:0:0:
166,176,39319,1,0,0:0:0:0:
144,7,39479,1,2,0:2:0:0:
73,201,39638,1,0,3:0:0:0:
238,22,39798,1,8,0:0:0:0:
258,206,39957,1,0,0:0:0:0:
108,99,40117,5,2,3:2:0:0:
320,3,40277,1,0,0:0:0:0:
258,206,40436,2,0,L|142:197,1,109.375,10|0,0:0|0:0,0:0:0:0:
293,81,40755,1,2,3:2:0:0:
328,260,40915,1,2,3:2:0:0:
193,126,41074,1,8,0:0:0:0:
244,320,41234,6,0,P|308:292|336:230,1,109.375,2|0,0:0|3:0,0:0:0:0:
293,81,41553,2,0,P|285:150|324:205,1,109.375,2|8,0:0|0:0,0:0:0:0:
471,239,41872,2,0,P|414:197|347:204,1,109.375,2|0,0:0|3:0,0:0:0:0:
389,384,42191,2,0,L|395:275,1,109.375,2|8,0:0|0:0,0:0:0:0:
240,121,42511,6,0,L|245:230,1,109.375,2|0,0:0|3:0,0:0:0:0:
413,110,42830,2,0,P|356:68|289:75,1,109.375,2|8,0:0|0:0,0:0:0:0:
339,249,43149,2,0,P|402:221|430:158,1,109.375,2|0,0:0|3:0,0:0:0:0:
240,121,43468,1,2,3:2:0:0:
245,230,43628,1,10,0:0:0:0:
320,67,43787,1,2,0:0:0:0:
162,181,43947,6,0,L|52:175,1,109.375,2|0,3:2|0:0,0:0:0:0:
320,67,44266,2,0,L|429:61,1,109.375,10|0,0:0|0:0,0:0:0:0:
352,243,44585,2,0,P|310:186|317:119,1,109.375,2|0,3:2|0:0,0:0:0:0:
491,169,44904,2,0,P|463:232|400:260,1,109.375,10|0,0:0|0:0,0:0:0:0:
308,149,45223,5,4,3:2:0:0:
435,81,45383,1,8,0:0:0:0:
454,85,45463,1,8,0:0:0:0:
473,89,45543,1,8,0:0:0:0:
352,243,45702,2,0,L|242:237,1,109.375,0|8,3:0|0:0,0:0:0:0:
242,237,45941,1,8,0:0:0:0:
242,237,46021,1,8,0:0:0:0:
427,199,46181,1,8,0:0:0:0:
430,226,46261,1,8,0:0:0:0:
432,253,46341,2,0,L|436:311,1,54.6875,8|0,0:0|0:0,0:0:0:0:
308,149,46500,6,0,L|317:33,1,109.375,4|0,3:2|0:0,0:0:0:0:
352,243,46819,1,8,0:0:0:0:
197,134,46979,1,0,0:0:0:0:
403,157,47138,1,2,0:0:0:0:
144,213,47298,1,0,3:0:0:0:
354,74,47457,1,8,0:0:0:0:
188,302,47617,1,0,0:0:0:0:
141,54,47776,5,2,3:2:0:0:
271,251,47936,1,0,0:0:0:0:
224,3,48096,1,10,0:0:0:0:
144,213,48255,1,0,0:0:0:0:
354,74,48415,1,2,3:2:0:0:
86,136,48574,1,2,3:2:0:0:
309,161,48734,1,8,0:0:0:0:
141,54,48894,1,0,0:0:0:0:
144,213,49053,6,0,L|153:329,1,109.375,0|0,0:0|0:0,0:0:0:0:
213,147,49372,1,8,0:0:0:0:
48,208,49532,1,0,0:0:0:0:
236,240,49691,1,2,0:0:0:0:
96,124,49851,1,0,3:0:0:0:
152,322,50011,1,8,0:0:0:0:
309,161,50170,1,0,0:0:0:0:
48,208,50330,5,2,3:2:0:0:
247,336,50489,1,0,0:0:0:0:
190,107,50649,1,10,0:0:0:0:
51,313,50808,1,0,0:0:0:0:
309,161,50968,1,2,3:2:0:0:
96,124,51128,1,2,3:2:0:0:
236,240,51287,1,8,0:0:0:0:
48,208,51447,6,0,P|37:256|67:336,1,109.375,2|0,0:0|3:0,0:0:0:0:
324,293,51766,2,0,P|335:245|305:165,1,109.375,2|8,0:0|0:0,0:0:0:0:
151,72,52086,1,2,0:0:0:0:
236,240,52245,1,0,3:0:0:0:
232,18,52405,1,2,0:0:0:0:
141,176,52564,1,8,0:0:0:0:
341,24,52724,6,0,L|224:18,1,109.375,2|0,0:0|3:0,0:0:0:0:
388,209,53043,2,0,P|404:157|397:104,1,109.375,2|8,0:0|0:0,0:0:0:0:
151,72,53362,2,0,P|134:118|154:201,1,109.375,2|0,0:0|3:0,0:0:0:0:
284,277,53682,1,2,3:2:0:0:
338,125,53840,2,0,L|228:131,1,109.375,10|2,0:0|0:0,0:0:0:0:
208,313,54160,6,0,P|264:359|325:357,1,109.375,4|0,3:2|3:0,0:0:0:0:
298,362,54399,1,8,0:0:0:0:
298,362,54479,1,8,0:0:0:0:
288,158,54638,1,0,3:0:0:0:
137,255,54798,1,8,0:0:0:0:
137,255,54878,1,8,0:0:0:0:
137,255,54957,1,8,0:0:0:0:
292,267,55117,1,0,3:0:0:0:
200,85,55277,5,8,0:0:0:0:
200,85,55356,1,8,0:0:0:0:
200,85,55436,2,0,L|206:202,1,109.375,8|0,3:2|0:0,0:0:0:0:
393,258,55755,5,8,0:0:0:0:
393,258,55835,1,8,0:0:0:0:
393,258,55915,2,0,L|396:192,1,54.6875,8|8,0:0|0:0,0:0:0:0:
315,118,56074,5,8,0:0:0:0:
315,118,56154,1,8,0:0:0:0:
315,118,56234,2,0,L|318:184,1,54.6875,8|8,0:0|0:0,0:0:0:0:
402,75,56394,5,8,0:0:0:0:
402,75,56474,1,8,0:0:0:0:
402,75,56554,2,0,L|405:9,1,54.6875,8|8,0:0|0:0,0:0:0:0:
298,20,56713,5,6,3:2:0:0:
394,163,56872,1,0,0:0:0:0:
467,79,57032,2,0,L|381:73,1,65.6250025033952,0|0,0:0|0:0,0:0:0:0:
263,173,57351,2,0,L|398:162,1,131.25000500679,0|0,0:0|0:0,0:0:0:0:
219,103,57830,1,0,0:0:0:0:
183,179,57989,6,0,P|209:234|232:247,1,65.6250025033952,0|0,0:0|0:0,0:0:0:0:
219,103,58308,2,0,L|84:92,1,131.25000500679,0|0,0:0|0:0,0:0:0:0:
96,246,58787,1,0,0:0:0:0:
183,179,58947,1,0,0:0:0:0:
176,345,59106,1,0,0:0:0:0:
176,345,59266,6,0,P|115:322|52:335,1,131.25000500679,0|0,0:0|0:0,0:0:0:0:
0,222,59745,1,0,0:0:0:0:
0,222,59904,2,0,P|10:285|52:335,1,131.25000500679,0|0,0:0|0:0,0:0:0:0:
195,255,60383,1,0,0:0:0:0:
195,255,60543,6,0,P|206:213|196:173,1,65.6250025033952,0|0,0:0|0:0,0:0:0:0:
108,158,60862,2,0,L|113:233,1,65.6250025033952,0|0,0:0|0:0,0:0:0:0:
190,320,61181,2,0,L|194:254,1,65.6250025033952,0|0,0:0|0:0,0:0:0:0:
92,146,61500,2,0,L|97:221,1,65.6250025033952,0|0,0:0|0:0,0:0:0:0:
261,82,61819,6,0,L|130:73,1,131.25000500679,0|0,0:0|0:0,0:0:0:0:
271,164,62298,1,0,0:0:0:0:
271,164,62457,2,0,L|140:155,1,131.25000500679,0|0,0:0|0:0,0:0:0:0:
281,246,62936,2,0,L|150:237,1,131.25000500679,0|0,0:0|0:0,0:0:0:0:
225,323,63415,2,0,L|291:328,1,65.6250025033952,0|0,0:0|0:0,0:0:0:0:
308,129,63734,6,0,P|271:181|280:245,1,131.25000500679,0|0,0:0|0:0,0:0:0:0:
480,210,64213,1,0,3:0:0:0:
480,210,64372,2,0,L|349:201,1,131.25000500679,6|0,3:2|3:0,0:0:0:0:
486,290,64851,1,2,0:0:0:0:
486,112,65011,1,0,0:0:0:0:
349,201,65170,1,0,3:0:0:0:
437,27,65330,1,2,3:2:0:0:
480,210,65489,1,0,0:0:0:0:
286,86,65649,5,8,0:0:0:0:
486,112,65808,1,0,3:0:0:0:
252,176,65968,1,8,0:0:0:0:
437,27,66128,1,0,3:0:0:0:
279,269,66287,1,8,0:0:0:0:
341,2,66447,1,0,3:0:0:0:
480,210,66606,1,8,0:0:0:0:
483,237,66686,1,8,0:0:0:0:
486,265,66766,2,0,L|492:320,1,32.8125012516976,8|8,0:0|0:0,0:0:0:0:
337,362,66925,6,0,L|221:353,1,109.375,4|0,3:2|0:0,0:0:0:0:
174,133,67245,1,8,0:0:0:0:
305,270,67404,1,0,0:0:0:0:
99,194,67564,2,0,P|79:123|110:63,1,109.375,2|0,3:2|0:0,0:0:0:0:
187,230,67883,1,8,0:0:0:0:
25,254,68043,1,0,0:0:0:0:
174,133,68203,5,2,3:2:0:0:
112,291,68362,1,2,0:0:0:0:
88,90,68521,2,0,P|148:40|207:44,1,109.375,10|0,0:0|0:0,0:0:0:0:
354,200,68840,1,2,3:2:0:0:
174,133,68999,1,2,0:0:0:0:
397,112,69159,2,0,P|445:167|442:235,1,109.375,8|0,0:0|0:0,0:0:0:0:
301,116,69478,5,6,3:2:0:0:
473,55,69638,1,0,0:0:0:0:
354,200,69798,1,8,0:0:0:0:
343,30,69957,1,0,0:0:0:0:
450,201,70117,2,0,P|416:271|361:292,1,109.375,2|0,3:2|0:0,0:0:0:0:
161,213,70436,1,8,0:0:0:0:
354,200,70595,1,0,0:0:0:0:
162,311,70755,5,2,3:2:0:0:
168,116,70915,1,0,0:0:0:0:
244,267,71074,1,10,0:0:0:0:
78,264,71234,1,2,0:0:0:0:
249,170,71394,5,2,3:2:0:0:
243,364,71553,1,2,0:0:0:0:
168,116,71713,1,10,0:0:0:0:
162,311,71872,1,2,0:0:0:0:
253,73,72032,5,6,3:2:0:0:
244,267,72191,1,0,0:0:0:0:
168,116,72351,1,8,0:0:0:0:
336,127,72511,1,0,0:0:0:0:
159,213,72670,2,0,P|96:179|76:126,1,109.375,2|0,3:2|0:0,0:0:0:0:
252,165,72989,1,8,0:0:0:0:
162,311,73149,1,0,0:0:0:0:
168,116,73308,5,2,3:2:0:0:
244,267,73468,1,2,0:0:0:0:
339,124,73628,2,0,P|300:82|246:71,1,109.375,10|0,0:0|0:0,0:0:0:0:
327,224,73947,1,2,3:2:0:0:
423,86,74106,1,2,0:0:0:0:
252,165,74266,2,0,P|232:215|250:275,1,109.375,10|0,0:0|0:0,0:0:0:0:
498,239,74585,6,0,P|510:186|490:136,1,109.375,6|0,3:2|0:0,0:0:0:0:
331,41,74904,1,10,0:0:0:0:
414,195,75064,1,2,3:2:0:0:
510,35,75223,1,10,0:0:0:0:
335,139,75383,1,2,3:2:0:0:
419,1,75543,1,10,0:0:0:0:
490,136,75702,1,2,3:2:0:0:
255,71,75862,5,10,3:2:0:0:
510,35,76021,1,2,3:2:0:0:
240,167,76181,1,10,0:0:0:0:
419,1,76340,1,2,3:2:0:0:
288,252,76500,1,10,0:0:0:0:
322,3,76660,1,2,3:2:0:0:
412,252,76819,1,8,0:0:0:0:
415,279,76899,1,8,0:0:0:0:
416,306,76979,2,0,L|420:364,1,54.6875,8|8,0:0|0:0,0:0:0:0:
222,300,77138,6,0,P|206:261|214:221,2,65.6250025033952,2|2|2,3:2|0:0|3:2,0:0:0:0:
288,252,77617,1,2,0:0:0:0:
260,175,77777,2,0,P|231:158|199:155,1,65.6250025033952,2|0,3:2|0:0,0:0:0:0:
128,251,78096,1,6,3:0:0:0:
207,238,78255,1,2,0:0:0:0:
75,188,78415,5,2,3:2:0:0:
100,328,78574,1,2,0:0:0:0:
155,174,78734,2,0,P|136:134|105:111,1,65.6250025033952,2|0,3:2|0:0,0:0:0:0:
128,251,79053,1,2,3:2:0:0:
207,238,79213,1,2,0:0:0:0:
75,188,79372,2,0,L|6:184,1,65.6250025033952,6|0,3:0|0:0,0:0:0:0:
101,111,79691,5,2,3:2:0:0:
155,174,79851,1,2,0:0:0:0:
75,188,80011,1,2,3:2:0:0:
181,96,80170,1,2,0:0:0:0:
207,238,80330,2,0,L|203:307,1,65.6250025033952,2|0,3:2|0:0,0:0:0:0:
155,174,80649,1,6,3:0:0:0:
234,158,80808,1,2,0:0:0:0:
207,238,80968,5,2,3:2:0:0:
181,96,81128,1,2,0:0:0:0:
315,161,81287,2,0,P|307:193|289:219,1,65.6250025033952,2|0,3:2|0:0,0:0:0:0:
278,89,81606,1,2,3:2:0:0:
360,93,81766,1,2,0:0:0:0:
234,158,81925,2,0,P|206:124|198:97,1,65.6250025033952,6|0,3:0|0:0,0:0:0:0:
315,161,82245,6,0,L|312:251,1,65.6250025033952,2|2,3:2|0:0,0:0:0:0:
235,305,82564,2,0,L|233:240,1,65.6250025033952,10|2,0:0|0:0,0:0:0:0:
296,361,82883,2,0,P|235:387|167:347,1,131.25000500679,2|10,3:2|0:0,0:0:0:0:
238,175,83362,5,2,0:0:0:0:
238,175,83521,2,0,B|234:224|234:224|240:255|240:255|232:328,2,131.25000500679,2|10|2,3:2|0:0|3:2,0:0:0:0:
158,259,84319,1,2,3:2:0:0:
314,216,84479,1,10,0:0:0:0:
157,177,84638,1,0,0:0:0:0:
295,297,84798,6,0,P|349:290|395:225,1,131.25000500679,6|10,3:2|0:0,0:0:0:0:
326,121,85277,1,0,3:0:0:0:
314,216,85436,1,10,0:0:0:0:
416,86,85596,1,0,3:0:0:0:
235,157,85755,1,10,0:0:0:0:
405,182,85915,1,0,3:2:0:0:
252,61,86074,5,2,3:2:0:0:
295,297,86234,1,8,0:0:0:0:
295,297,86314,1,8,0:0:0:0:
295,297,86394,1,8,0:0:0:0:
405,182,86553,6,0,P|370:139|305:123,1,98.4375037550928,12|0,0:0|0:0,0:0:0:0:
331,123,86872,1,8,0:0:0:0:
386,324,87032,1,8,0:0:0:0:
436,53,87191,5,12,0:0:0:0:
