osu file format v14

[General]
AudioFilename: audio.mp3
AudioLeadIn: 0
PreviewTime: 36048
Countdown: 0
SampleSet: Soft
StackLeniency: 0.7
Mode: 0
LetterboxInBreaks: 0
WidescreenStoryboard: 1

[Editor]
Bookmarks: 87351
DistanceSpacing: 0.6
BeatDivisor: 4
GridSize: 8
TimelineZoom: 1.5

[Metadata]
Title:Uso no Hibana
TitleUnicode:嘘の火花
Artist:96neko
ArtistUnicode:96猫
Creator:Nevo
Version:A r M i N's Ultra
Source:クズの本懐
Tags:Kuzu no Honkai Scum's Wish opening OP armin a_r_m_i_n happyrocket88 shogunmoon byd bite you death shiratoi renumi sotarks lafayla
BeatmapID:1500990
BeatmapSetID:625669

[Difficulty]
HPDrainRate:6.5
CircleSize:4
OverallDifficulty:8.8
ApproachRate:9.5
SliderMultiplier:1.85
SliderTickRate:1

[Events]
//Background and Video events
0,0,"hanabi-wallpaper.jpg",0,0
//Break Periods
2,56913,63688
//Storyboard Layer 0 (Background)
//Storyboard Layer 1 (Fail)
//Storyboard Layer 2 (Pass)
//Storyboard Layer 3 (Foreground)
//Storyboard Sound Samples

[TimingPoints]
543,319.148936170213,4,2,1,70,1,0
543,-133.333333333333,4,2,1,70,0,0
2617,-133.333333333333,4,2,1,70,0,0
3096,-133.333333333333,4,2,2,50,0,0
3415,-133.333333333333,4,2,1,40,0,0
3894,-133.333333333333,4,2,1,40,0,0
4213,-133.333333333333,4,2,1,50,0,0
4372,-133.333333333333,4,2,2,50,0,0
5649,-100,4,2,2,70,0,0
6287,-100,4,2,3,70,0,0
6447,-100,4,2,2,70,0,0
7245,-100,4,2,3,70,0,0
7404,-100,4,2,2,70,0,0
7883,-100,4,2,3,70,0,0
8043,-100,4,2,2,70,0,0
8840,-100,4,2,3,70,0,0
9000,-100,4,2,2,70,0,0
10117,-100,4,2,3,70,0,0
10277,-100,4,2,2,70,0,0
11394,-100,4,2,3,70,0,0
11553,-100,4,2,2,70,0,0
12351,-100,4,2,3,70,0,0
12511,-100,4,2,2,70,0,0
12989,-100,4,2,3,70,0,0
13149,-100,4,2,2,70,0,0
15862,-153.846153846153,4,2,3,50,0,0
25755,-153.846153846153,4,2,2,50,0,0
26074,-100,4,2,3,60,0,0
26234,-100,4,2,2,60,0,0
27351,-100,4,2,3,60,0,0
27511,-100,4,2,2,60,0,0
28628,-100,4,2,3,60,0,0
28787,-100,4,2,2,60,0,0
29904,-100,4,2,3,60,0,0
30064,-100,4,2,2,60,0,0
31181,-100,4,2,3,60,0,0
31340,-100,4,2,2,60,0,0
32457,-100,4,2,3,60,0,0
32617,-100,4,2,2,60,0,0
33734,-100,4,2,3,60,0,0
33894,-100,4,2,2,60,0,0
35011,-133.333333333333,4,2,3,45,0,0
35489,-133.333333333333,4,2,2,60,0,0
35569,-133.333333333333,4,2,2,60,0,0
35649,-133.333333333333,4,2,2,60,0,0
35729,-133.333333333333,4,2,2,60,0,0
35808,-133.333333333333,4,2,2,60,0,0
35888,-133.333333333333,4,2,2,60,0,0
35968,-100,4,2,2,60,0,0
36287,-90.9090909090909,4,2,2,70,0,1
45223,-100,4,2,2,70,0,1
46340,-90.9090909090909,4,2,2,70,0,0
46500,-90.9090909090909,4,2,2,70,0,1
56713,-133.333333333333,4,2,5,50,0,0
56872,-133.333333333333,4,2,3,50,0,0
64372,-100,4,2,3,50,0,0
65649,-100,4,2,2,50,0,0
66925,-90.9090909090909,4,2,2,70,0,1
69479,-90.9090909090909,4,2,3,70,0,1
69638,-90.9090909090909,4,2,2,70,0,1
72032,-90.9090909090909,4,2,3,70,0,1
72191,-90.9090909090909,4,2,2,70,0,1
74585,-90.9090909090909,4,2,3,70,0,1
74745,-90.9090909090909,4,2,2,70,0,1
75862,-90.9090909090909,4,2,3,70,0,1
76021,-90.9090909090909,4,2,2,70,0,1
76181,-90.9090909090909,4,2,3,70,0,1
76340,-90.9090909090909,4,2,2,70,0,1
76500,-90.9090909090909,4,2,3,70,0,1
76660,-90.9090909090909,4,2,2,70,0,1
77138,-125,4,2,4,40,0,0
77777,-125,4,2,3,40,0,0
77936,-125,4,2,4,40,0,0
78734,-125,4,2,3,40,0,0
78894,-125,4,2,4,40,0,0
79372,-125,4,2,3,40,0,0
79532,-125,4,2,4,40,0,0
80330,-125,4,2,3,40,0,0
80489,-125,4,2,4,40,0,0
81287,-125,4,2,3,40,0,0
81447,-125,4,2,4,40,0,0
81925,-125,4,2,3,40,0,0
82085,-125,4,2,4,40,0,0
82245,-125,4,2,2,50,0,0
84798,-111.111111111111,4,2,2,55,0,0
86074,-111.111111111111,4,2,3,55,0,0
86234,-111.111111111111,4,2,2,55,0,0
86553,-111.111111111111,4,2,2,60,0,0
87191,-300,4,2,2,60,0,0
87830,-300,4,2,2,60,0,0

[Colours]
Combo1 : 255,160,200
Combo2 : 240,155,240
SliderBorder : 255,200,255
SliderTrackOverride : 55,35,55

[HitObjects]
69,194,543,6,0,B|121:201|121:201|151:186|151:186|203:194,1,138.750005292893,0|0,0:0|0:0,0:0:0:0:
229,317,1021,2,0,P|191:260|203:193,1,138.750005292893
372,157,1500,2,0,P|341:218|278:241,1,138.750005292893,0|0,0:0|0:0,0:0:0:0:
261,12,1979,2,0,L|283:150,1,138.750005292893,0|0,0:0|0:0,0:0:0:0:
202,193,2457,1,0,0:0:0:0:
354,289,2617,5,8,0:3:0:0:
198,285,2777,1,8,0:3:0:0:
278,241,2936,1,8,0:3:0:0:
407,364,3096,6,0,P|444:307|432:240,1,138.750005292893,4|0,3:2|0:0,0:0:0:0:
299,103,3574,2,0,L|278:241,1,138.750005292893,0|0,0:0|3:0,0:0:0:0:
198,285,4053,1,0,3:0:0:0:
324,331,4213,5,0,3:0:0:0:
324,331,4293,1,0,3:0:0:0:
324,331,4372,1,0,3:0:0:0:
201,192,4532,1,0,3:0:0:0:
201,192,4612,1,0,3:0:0:0:
201,192,4691,1,8,0:0:0:0:
382,154,4851,1,0,3:0:0:0:
382,154,4931,1,0,3:0:0:0:
382,154,5010,1,8,0:0:0:0:
259,15,5170,1,0,3:0:0:0:
250,33,5249,1,0,3:0:0:0:
245,53,5329,1,8,0:0:0:0:
244,74,5409,1,0,0:0:0:0:
248,95,5489,1,0,3:0:0:0:
256,114,5568,1,0,3:0:0:0:
268,131,5648,5,6,3:2:0:0:
473,143,5808,1,2,0:0:0:0:
335,67,5968,1,10,0:0:0:0:
437,227,6128,1,2,0:0:0:0:
508,19,6287,2,0,L|416:25,1,92.5,2|0,0:0|1:0,0:0:0:0:
348,247,6606,1,10,0:0:0:0:
473,143,6766,1,2,0:0:0:0:
268,131,6925,5,2,0:0:0:0:
437,227,7085,1,2,0:0:0:0:
250,375,7245,2,0,P|247:329|266:288,1,92.5,10|0,0:0|1:0,0:0:0:0:
437,227,7564,1,2,0:0:0:0:
337,346,7723,1,2,0:0:0:0:
268,131,7883,2,0,P|226:112|180:115,1,92.5,10|0,0:0|0:0,0:0:0:0:
80,290,8202,5,2,0:0:0:0:
211,203,8362,1,2,0:0:0:0:
11,229,8521,1,10,0:0:0:0:
172,287,8681,1,2,0:0:0:0:
17,136,8840,2,0,L|11:228,1,92.5,2|0,0:0|1:0,0:0:0:0:
130,368,9160,1,10,0:0:0:0:
124,207,9319,1,2,0:0:0:0:
39,357,9479,5,2,0:0:0:0:
164,123,9638,1,2,0:0:0:0:
221,365,9798,1,10,0:0:0:0:
124,207,9957,1,2,0:0:0:0:
352,148,10117,1,2,0:0:0:0:
172,287,10277,1,2,0:0:0:0:
407,364,10436,1,10,0:0:0:0:
217,205,10596,1,2,0:0:0:0:
424,90,10755,6,0,P|442:131|439:177,1,92.5,2|2,0:0|0:0,0:0:0:0:
284,270,11074,1,10,0:0:0:0:
352,148,11234,1,2,0:0:0:0:
407,364,11394,2,0,L|315:358,1,92.5,2|0,0:0|1:0,0:0:0:0:
217,205,11713,1,10,0:0:0:0:
375,287,11872,1,2,0:0:0:0:
178,289,12032,5,2,0:0:0:0:
352,148,12191,1,2,0:0:0:0:
160,131,12351,2,0,P|132:167|126:213,1,92.5,10|0,0:0|1:0,0:0:0:0:
238,359,12670,1,2,0:0:0:0:
217,205,12830,1,2,0:0:0:0:
58,376,12989,2,0,B|103:388|103:388|148:377,1,92.5,10|0,0:0|1:0,0:0:0:0:
368,281,13308,6,0,L|276:275,1,92.5,6|0,3:2|0:0,0:0:0:0:
160,131,13628,1,10,0:0:0:0:
238,359,13787,1,2,0:0:0:0:
294,155,13947,1,0,0:0:0:0:
178,289,14106,1,2,0:0:0:0:
129,44,14266,1,10,0:0:0:0:
217,205,14425,1,2,0:0:0:0:
352,83,14585,6,0,P|310:64|264:67,1,92.5,4|0,3:2|3:0,0:0:0:0:
294,155,14904,1,8,0:0:0:0:
425,27,15064,1,0,3:0:0:0:
470,245,15223,1,8,0:0:0:0:
352,83,15383,1,8,0:0:0:0:
327,69,15462,1,8,0:0:0:0:
300,63,15542,1,8,0:0:0:0:
273,65,15622,1,8,0:0:0:0:
247,75,15702,1,8,0:0:0:0:
226,92,15781,1,8,0:0:0:0:
210,115,15862,6,0,L|202:235,1,120.249994495392,6|0,3:2|0:0,0:0:0:0:
242,308,16340,1,2,3:2:0:0:
309,259,16500,2,0,P|260:227|202:234,1,120.249994495392
159,307,16979,1,0,0:0:0:0:
138,178,17138,5,6,3:2:0:0:
34,247,17298,2,0,L|95:251,1,60.1249972476961,0|0,0:0|0:0,0:0:0:0:
202,122,17617,2,0,P|222:177|202:233,1,120.249994495392,2|0,3:2|0:0,0:0:0:0:
138,178,18096,1,0,0:0:0:0:
123,95,18255,1,0,0:0:0:0:
226,14,18415,6,0,P|234:72|202:122,1,120.249994495392,6|0,3:2|0:0,0:0:0:0:
123,95,18894,1,2,3:2:0:0:
138,178,19053,2,0,L|258:185,1,120.249994495392,0|0,0:0|0:0,0:0:0:0:
331,227,19532,1,0,0:0:0:0:
309,118,19691,5,6,3:2:0:0:
258,185,19851,2,0,P|247:218|251:252,1,60.1249972476961,0|0,0:0|0:0,0:0:0:0:
354,334,20170,2,0,P|362:276|331:227,1,120.249994495392,2|0,3:2|0:0,0:0:0:0:
248,242,20649,1,0,0:0:0:0:
219,320,20808,1,0,0:0:0:0:
132,242,20968,6,0,B|190:225|190:225|253:243,1,120.249994495392,6|0,3:2|0:0,0:0:0:0:
331,227,21447,1,2,3:2:0:0:
303,146,21606,2,0,P|258:183|248:242,1,120.249994495392,0|0,0:0|0:0,0:0:0:0:
302,307,22085,1,0,0:0:0:0:
386,162,22245,5,6,3:2:0:0:
385,252,22404,2,0,L|331:227,1,60.1249972476961,0|0,0:0|0:0,0:0:0:0:
346,87,22723,2,0,P|404:79|453:110,1,120.249994495392,2|0,3:2|0:0,0:0:0:0:
464,195,23202,1,0,0:0:0:0:
386,162,23362,1,0,0:0:0:0:
337,346,23521,6,0,L|330:226,1,120.249994495392,6|0,3:2|0:0,0:0:0:0:
453,111,24000,2,0,P|470:159|444:223,1,120.249994495392,2|0,3:2|0:0,0:0:0:0:
303,146,24479,1,0,0:0:0:0:
386,162,24638,1,0,0:0:0:0:
337,345,24798,6,0,L|335:315,1,30.062498623848,8|8,0:0|0:0,0:0:0:0:
329,225,24957,1,8,0:0:0:0:
329,225,25117,1,0,3:0:0:0:
241,380,25277,6,0,L|239:349,1,30.062498623848,8|8,0:0|0:0,0:0:0:0:
233,259,25436,1,8,0:0:0:0:
233,259,25596,1,0,3:0:0:0:
67,257,25755,5,2,0:0:0:0:
83,282,25834,1,2,0:0:0:0:
106,301,25914,1,2,0:0:0:0:
135,310,25994,1,2,0:0:0:0:
165,310,26074,5,6,3:2:0:0:
256,168,26234,1,0,0:0:0:0:
337,345,26394,1,10,0:0:0:0:
167,192,26553,1,0,0:0:0:0:
343,76,26713,2,0,L|349:168,1,92.5,2|0,3:2|0:0,0:0:0:0:
241,380,27032,1,10,0:0:0:0:
421,306,27191,1,2,0:0:0:0:
256,168,27351,5,6,3:2:0:0:
337,345,27511,1,0,0:0:0:0:
428,116,27670,1,10,0:0:0:0:
253,306,27830,1,2,0:0:0:0:
343,76,27989,1,2,3:2:0:0:
421,306,28149,1,2,3:2:0:0:
164,336,28308,2,0,P|162:290|180:249,1,92.5,10|0,0:0|0:0,0:0:0:0:
349,168,28628,5,6,3:2:0:0:
253,306,28787,1,0,0:0:0:0:
161,93,28947,1,8,0:0:0:0:
88,254,29106,2,0,L|180:248,1,92.5,2|0,0:0|3:2,0:0:0:0:
251,69,29425,1,2,0:0:0:0:
337,345,29585,1,8,0:0:0:0:
440,161,29745,6,0,L|348:167,1,92.5,2|6,0:0|3:2,0:0:0:0:
165,289,30064,2,0,P|206:307|252:305,1,92.5,2|8,0:0|0:0,0:0:0:0:
251,69,30383,2,0,P|209:50|163:52,1,92.5,2|0,0:0|3:2,0:0:0:0:
74,273,30702,1,2,3:2:0:0:
193,142,30862,1,8,0:0:0:0:
0,40,31021,6,0,L|6:132,1,92.5,2|6,0:0|3:2,0:0:0:0:
74,273,31340,1,2,0:0:0:0:
163,52,31500,1,8,0:0:0:0:
237,225,31660,2,0,B|192:236|192:236|147:224,1,92.5,2|0,0:0|3:2,0:0:0:0:
254,72,31979,1,2,0:0:0:0:
305,289,32138,1,10,0:0:0:0:
68,184,32298,6,0,P|60:229|73:272,1,92.5,2|6,0:0|3:2,0:0:0:0:
244,359,32617,1,2,0:0:0:0:
145,130,32777,1,10,0:0:0:0:
45,360,32936,2,0,P|90:362|132:343,1,92.5,2|0,0:0|3:2,0:0:0:0:
237,225,33255,1,2,3:2:0:0:
58,95,33415,2,0,P|52:140|68:184,1,92.5,8|2,0:0|0:0,0:0:0:0:
322,263,33734,6,0,P|315:174|238:131,1,185,6|8,3:2|0:0,0:0:0:0:
68,184,34213,1,0,0:0:0:0:
136,46,34372,2,0,P|151:89|146:135,1,92.5,2|0,3:2|3:0,0:0:0:0:
77,272,34691,2,0,P|61:228|67:183,1,92.5,10|2,0:0|0:0,0:0:0:0:
238,131,35011,6,0,B|334:91|334:171|430:131|430:131|390:107,1,242.812509262562,2|0,3:2|0:0,0:0:0:0:
392,108,35649,6,0,P|385:69|386:53,1,34.6875013232232,8|0,3:0|0:0,0:0:0:0:
512,133,35808,2,0,P|509:150|504:166,1,34.6875013232232,8|0,3:0|0:0,0:0:0:0:
395,314,35968,1,8,0:0:0:0:
238,131,36128,5,8,0:0:0:0:
238,131,36207,1,8,0:0:0:0:
238,131,36287,1,4,3:2:0:0:
187,350,36447,1,0,0:0:0:0:
153,94,36606,1,8,0:0:0:0:
273,313,36766,1,0,0:0:0:0:
323,94,36925,1,2,0:0:0:0:
199,257,37085,1,0,3:0:0:0:
81,34,37245,1,8,0:0:0:0:
238,131,37404,1,0,0:0:0:0:
20,105,37564,5,2,3:2:0:0:
250,38,37723,1,0,0:0:0:0:
105,256,37883,2,0,P|119:207|156:173,1,101.750003105164,10|0,0:0|0:0,0:0:0:0:
371,174,38202,1,2,3:2:0:0:
205,357,38362,2,0,L|199:256,1,101.750003105164,2|8,3:2|0:0,0:0:0:0:
429,80,38681,6,0,B|467:171|467:171|427:267,1,203.500006210327,0|0,0:0|0:0,0:0:0:0:
205,357,39160,1,8,0:0:0:0:
371,174,39319,1,0,0:0:0:0:
442,360,39479,1,2,0:2:0:0:
288,120,39638,1,0,3:0:0:0:
355,327,39798,1,8,0:0:0:0:
372,80,39957,1,0,0:0:0:0:
199,256,40117,5,2,3:2:0:0:
427,267,40277,1,0,0:0:0:0:
296,27,40436,2,0,P|245:37|209:70,1,101.750003105164,10|0,0:0|0:0,0:0:0:0:
292,258,40755,1,2,3:2:0:0:
470,79,40915,2,0,B|419:66|419:66|369:80,1,101.750003105164,2|8,3:2|0:0,0:0:0:0:
355,327,41234,6,0,P|382:281|380:226,1,101.750003105164,2|0,0:0|3:0,0:0:0:0:
136,186,41553,2,0,P|109:232|111:287,1,101.750003105164,2|8,0:0|0:0,0:0:0:0:
292,258,41872,2,0,L|298:156,1,101.750003105164,2|0,0:0|3:0,0:0:0:0:
142,84,42191,2,0,L|135:185,1,101.750003105164,2|8,0:0|0:0,0:0:0:0:
366,95,42511,6,0,P|320:68|265:70,1,101.750003105164,2|0,0:0|3:0,0:0:0:0:
243,338,42830,2,0,B|294:351|294:351|344:337,1,101.750003105164,2|8,0:0|0:0,0:0:0:0:
135,185,43149,2,0,L|128:286,1,101.750003105164,2|0,0:0|3:0,0:0:0:0:
298,156,43468,1,2,3:2:0:0:
341,337,43628,1,10,0:0:0:0:
207,134,43787,1,2,0:0:0:0:
429,26,43947,6,0,P|455:68|456:119,1,101.750003105164,2|0,3:2|0:0,0:0:0:0:
291,257,44266,2,0,L|297:155,1,101.750003105164,10|0,0:0|0:0,0:0:0:0:
512,195,44585,2,0,L|505:296,1,101.750003105164,2|0,3:2|0:0,0:0:0:0:
296,351,44904,1,10,0:0:0:0:
419,202,45064,1,0,0:0:0:0:
280,67,45223,6,0,P|277:112|296:154,1,92.5,4|8,3:2|0:0,0:0:0:0:
296,154,45463,1,8,0:0:0:0:
296,154,45543,1,8,0:0:0:0:
461,89,45702,2,0,L|369:96,1,92.5,0|8,3:0|0:0,0:0:0:0:
368,96,45941,1,8,0:0:0:0:
368,96,46021,1,8,0:0:0:0:
295,247,46181,1,8,0:0:0:0:
322,243,46261,1,8,0:0:0:0:
347,232,46341,1,8,0:0:0:0:
153,54,46500,6,0,L|160:155,1,101.750003105164,4|0,3:2|0:0,0:0:0:0:
322,336,46819,1,8,0:0:0:0:
296,154,46979,1,0,0:0:0:0:
172,343,47138,1,2,0:0:0:0:
255,60,47298,1,0,3:0:0:0:
419,305,47457,1,8,0:0:0:0:
208,247,47617,1,0,0:0:0:0:
479,222,47777,5,2,3:2:0:0:
272,327,47936,1,0,0:0:0:0:
357,72,48096,2,0,P|392:119|396:170,1,101.750003105164,10|0,0:0|0:0,0:0:0:0:
208,247,48415,1,2,3:2:0:0:
472,323,48574,2,0,L|479:222,1,101.750003105164,2|8,3:2|0:0,0:0:0:0:
260,42,48894,6,0,B|222:121|273:192|273:192|295:153,1,203.500006210327,0|0,0:0|0:0,0:0:0:0:
104,63,49372,1,8,0:0:0:0:
208,247,49532,1,0,0:0:0:0:
357,72,49691,1,2,0:0:0:0:
75,161,49851,1,0,3:0:0:0:
342,245,50011,1,8,0:0:0:0:
260,42,50170,1,0,0:0:0:0:
233,346,50330,5,2,3:2:0:0:
295,153,50489,1,0,0:0:0:0:
404,326,50649,2,0,P|435:286|444:237,1,101.750003105164,10|0,0:0|0:0,0:0:0:0:
357,72,50968,1,2,3:2:0:0:
243,241,51128,2,0,B|293:255|293:255|343:243,1,101.750003105164,2|8,3:2|0:0,0:0:0:0:
458,64,51447,6,0,L|357:71,1,101.750003105164,2|0,0:0|3:0,0:0:0:0:
316,334,51766,2,0,P|366:333|409:307,1,101.750003105164,2|8,0:0|0:0,0:0:0:0:
250,139,52085,2,0,L|243:240,1,101.750003105164,2|0,0:0|3:0,0:0:0:0:
409,307,52404,2,0,B|423:256|423:256|411:206,1,101.750003105164,2|8,0:0|0:0,0:0:0:0:
145,270,52723,6,0,P|171:314|215:339,1,101.750003105164,2|0,0:0|3:0,0:0:0:0:
351,146,53043,2,0,L|250:139,1,101.750003105164,2|8,0:0|0:0,0:0:0:0:
47,267,53362,2,0,B|97:281|97:281|147:269,1,101.750003105164,2|0,0:0|3:0,0:0:0:0:
211,44,53681,1,2,3:2:0:0:
100,178,53840,1,10,0:0:0:0:
282,272,54000,1,2,0:0:0:0:
46,91,54160,6,0,P|11:128|0:177,1,101.750003105164,4|0,3:2|3:0,0:0:0:0:
0,177,54399,1,8,0:0:0:0:
0,177,54479,1,8,0:0:0:0:
138,371,54638,2,0,L|145:270,1,101.750003105164,0|8,3:0|0:0,0:0:0:0:
145,269,54878,1,8,0:0:0:0:
145,269,54957,1,8,0:0:0:0:
211,44,55117,2,0,L|218:145,1,101.750003105164,0|8,3:0|0:0,0:0:0:0:
218,145,55356,1,8,0:0:0:0:
218,145,55436,5,8,3:2:0:0:
43,270,55596,1,0,0:0:0:0:
228,328,55755,1,8,0:0:0:0:
255,315,55834,1,8,0:0:0:0:
285,313,55914,1,8,0:0:0:0:
315,321,55994,1,8,0:0:0:0:
339,338,56074,1,8,0:0:0:0:
363,356,56154,1,8,0:0:0:0:
393,364,56234,1,8,0:0:0:0:
423,361,56314,1,8,0:0:0:0:
451,349,56393,1,8,0:0:0:0:
471,320,56473,1,8,0:0:0:0:
481,286,56553,1,8,0:0:0:0:
478,250,56633,1,8,0:0:0:0:
464,218,56713,5,6,3:2:0:0:
346,192,64213,5,0,3:0:0:0:
346,192,64372,2,0,B|278:184|278:184|233:199|233:199|165:192,1,185,6|0,3:2|3:0,0:0:0:0:
131,75,64851,2,0,B|198:82|198:82|244:67|244:67|311:75,1,185,2|0,0:0|3:0,0:0:0:0:
495,147,65330,2,0,P|408:129|346:191,1,185,2|8,3:2|0:0,0:0:0:0:
395,374,65808,5,0,3:0:0:0:
435,219,65968,1,8,0:0:0:0:
217,132,66128,1,0,3:0:0:0:
368,284,66287,1,8,0:0:0:0:
392,25,66447,1,0,3:0:0:0:
257,217,66606,1,8,0:0:0:0:
229,215,66685,1,8,0:0:0:0:
201,213,66765,1,8,0:0:0:0:
173,212,66845,1,8,0:0:0:0:
146,210,66925,5,4,3:2:0:0:
312,75,67085,1,0,0:0:0:0:
368,284,67245,1,8,0:0:0:0:
461,88,67404,1,0,0:0:0:0:
211,33,67564,2,0,P|203:83|217:132,1,101.750003105164,2|0,3:2|0:0,0:0:0:0:
481,180,67883,1,8,0:0:0:0:
312,75,68043,1,0,0:0:0:0:
286,327,68202,5,2,3:2:0:0:
382,137,68362,1,2,0:0:0:0:
473,371,68521,2,0,L|371:365,1,101.750003105164,10|0,0:0|0:0,0:0:0:0:
216,131,68840,1,2,3:2:0:0:
402,229,69000,1,2,0:0:0:0:
140,184,69160,2,0,P|124:137|134:85,1,101.750003105164,8|0,0:0|0:0,0:0:0:0:
314,200,69479,5,6,3:2:0:0:
134,277,69638,1,0,0:0:0:0:
213,37,69798,1,8,0:0:0:0:
274,284,69957,1,0,0:0:0:0:
57,226,70117,2,0,P|41:277|55:326,1,101.750003105164,2|0,3:2|0:0,0:0:0:0:
314,200,70436,1,8,0:0:0:0:
134,87,70596,1,0,0:0:0:0:
201,341,70755,5,2,3:2:0:0:
292,87,70915,1,0,0:0:0:0:
134,277,71074,1,10,0:0:0:0:
60,30,71234,1,2,0:0:0:0:
274,284,71394,1,2,3:2:0:0:
52,322,71553,1,2,0:0:0:0:
213,135,71713,1,10,0:0:0:0:
286,376,71872,1,2,0:0:0:0:
134,87,72032,6,0,P|173:50|230:42,1,101.750003105164,6|0,3:2|0:0,0:0:0:0:
343,222,72351,1,8,0:0:0:0:
437,35,72511,1,0,0:0:0:0:
213,135,72670,2,0,B|200:186|200:186|214:236,1,101.750003105164,2|0,3:2|0:0,0:0:0:0:
421,274,72989,1,8,0:0:0:0:
306,136,73149,1,0,0:0:0:0:
286,376,73308,5,2,3:2:0:0:
426,182,73468,1,2,0:0:0:0:
218,33,73628,2,0,L|212:135,1,101.750003105164,10|0,0:0|0:0,0:0:0:0:
331,295,73947,1,2,3:2:0:0:
390,96,74106,1,2,0:0:0:0:
237,292,74266,2,0,P|250:340|286:376,1,101.750003105164,10|0,0:0|0:0,0:0:0:0:
306,136,74585,6,0,B|279:124|239:148|239:148|191:132|191:132|151:156|111:140,1,203.500006210327,6|10,3:2|0:0,0:0:0:0:
0,16,75064,1,2,3:2:0:0:
41,264,75223,1,10,0:0:0:0:
130,55,75383,1,2,3:2:0:0:
237,292,75543,1,10,0:0:0:0:
42,81,75702,1,2,3:2:0:0:
306,136,75862,5,10,3:2:0:0:
41,264,76021,1,2,3:2:0:0:
323,329,76181,1,10,0:0:0:0:
114,140,76340,1,2,3:2:0:0:
376,199,76500,1,10,0:0:0:0:
129,233,76660,1,2,3:2:0:0:
395,108,76819,1,8,0:0:0:0:
423,119,76898,1,8,0:0:0:0:
446,139,76978,1,8,0:0:0:0:
461,165,77058,1,8,0:0:0:0:
468,194,77138,5,2,3:2:0:0:
427,281,77298,1,2,0:0:0:0:
376,199,77457,1,2,3:2:0:0:
335,286,77617,1,2,0:0:0:0:
280,206,77777,2,0,P|281:178|303:135,1,74,2|0,3:2|0:0,0:0:0:0:
391,103,78096,1,6,3:0:0:0:
376,199,78255,1,2,0:0:0:0:
317,41,78415,5,2,3:2:0:0:
407,7,78574,1,2,0:0:0:0:
482,68,78734,2,0,P|488:108|480:143,1,74,2|0,3:2|0:0,0:0:0:0:
391,103,79053,1,2,3:2:0:0:
407,7,79213,1,2,0:0:0:0:
317,41,79372,2,0,L|243:45,1,74,6|0,3:0|0:0,0:0:0:0:
109,25,79691,5,2,3:2:0:0:
166,103,79851,1,2,0:0:0:0:
243,45,80011,1,2,3:2:0:0:
300,123,80171,1,2,0:0:0:0:
223,181,80330,2,0,P|215:217|221:253,1,74,2|0,3:2|0:0,0:0:0:0:
295,315,80649,1,6,3:0:0:0:
313,220,80808,1,2,0:0:0:0:
205,349,80968,5,2,3:2:0:0:
295,315,81128,1,2,0:0:0:0:
363,382,81287,2,0,L|436:377,1,74,2|0,3:2|0:0,0:0:0:0:
458,216,81606,1,2,3:2:0:0:
395,290,81766,1,2,0:0:0:0:
419,126,81925,2,0,P|455:118|491:124,1,74,6|0,3:0|0:0,0:0:0:0:
377,198,82245,6,0,P|357:182|347:167,3,37,2|0|2|0,3:2|0:0|0:0|0:0,0:0:0:0:
282,220,82564,2,0,P|270:197|267:179,3,37,10|0|2|0,0:0|0:0|0:0|0:0,0:0:0:0:
186,203,82883,2,0,P|185:177|190:160,3,37,2|0|0|0,3:2|0:0|0:0|0:0,0:0:0:0:
108,145,83202,2,0,P|118:121|130:107,3,37,10|0|2|0,0:0|0:0|0:0|0:0,0:0:0:0:
205,47,83521,6,0,L|203:84,3,37,2|0|0|0,3:2|0:0|0:0|0:0,0:0:0:0:
285,70,83840,2,0,L|298:104,3,37,10|0|0|0,0:0|0:0|0:0|0:0,0:0:0:0:
366,56,84160,2,0,L|392:81,3,37,2|0|2|0,3:2|0:0|3:2|0:0,0:0:0:0:
433,9,84479,2,0,L|467:20,3,37,10|0|0|0,0:0|0:0|0:0|0:0,0:0:0:0:
479,112,84798,5,6,3:2:0:0:
483,136,84877,1,0,0:0:0:0:
479,161,84957,1,0,0:0:0:0:
468,183,85037,1,0,0:0:0:0:
450,200,85117,1,10,0:0:0:0:
432,217,85197,1,0,0:0:0:0:
420,239,85277,1,0,3:0:0:0:
416,263,85357,1,0,0:0:0:0:
455,260,85436,5,10,0:0:0:0:
420,239,85515,1,0,0:0:0:0:
384,233,85595,1,0,3:0:0:0:
348,245,85675,1,0,0:0:0:0:
318,266,85755,1,10,0:0:0:0:
288,287,85835,1,0,0:0:0:0:
252,299,85915,1,0,3:2:0:0:
216,293,85995,1,0,0:0:0:0:
181,272,86074,6,0,L|176:188,1,83.2499974594117,2|8,3:2|0:0,0:0:0:0:
176,188,86314,1,8,0:0:0:0:
176,188,86394,1,8,0:0:0:0:
54,73,86553,2,0,B|86:83|106:108|106:108|129:88|161:83,1,124.874996189118,12|0,0:0|0:0,0:0:0:0:
161,83,86872,1,8,0:0:0:0:
25,172,87032,1,8,0:0:0:0:
181,272,87191,6,0,B|201:273|223:265|223:265|256:271|256:271|274:261|302:262,1,123.333333333333,12|0,0:0|0:0,0:0:0:0:
