osu file format v14

[General]
AudioFilename: audio.mp3
AudioLeadIn: 0
PreviewTime: 36048
Countdown: 0
SampleSet: Soft
StackLeniency: 0.7
Mode: 0
LetterboxInBreaks: 0
WidescreenStoryboard: 1

[Editor]
DistanceSpacing: 0.6
BeatDivisor: 4
GridSize: 8
TimelineZoom: 2.4

[Metadata]
Title:Uso no Hibana
TitleUnicode:嘘の火花
Artist:96neko
ArtistUnicode:96猫
Creator:Nevo
Version:Sotarks' Expert
Source:クズの本懐
Tags:Kuzu no Honkai Scum's Wish opening OP armin a_r_m_i_n happyrocket88 shogunmoon byd bite you death shiratoi renumi sotarks lafayla
BeatmapID:1510219
BeatmapSetID:625669

[Difficulty]
HPDrainRate:6.2
CircleSize:3.8
OverallDifficulty:8.5
ApproachRate:9.2
SliderMultiplier:1.82
SliderTickRate:1

[Events]
//Background and Video events
0,0,"BGSotarks.jpg",0,0
//Break Periods
2,56913,58506
2,59466,61060
2,62019,63613
//Storyboard Layer 0 (Background)
//Storyboard Layer 1 (Fail)
//Storyboard Layer 2 (Pass)
//Storyboard Layer 3 (Foreground)
//Storyboard Sound Samples

[TimingPoints]
543,319.148936170213,4,2,22,42,1,0
543,-192.307692307692,4,2,22,42,0,0
4213,-121.951219512195,4,2,22,42,0,0
4532,-98.0392156862745,4,2,22,42,0,0
4851,-81.9672131147541,4,2,22,42,0,0
5170,-70.4225352112676,4,2,22,42,0,0
5649,-98.0392156862745,4,2,22,62,0,0
15862,-138.888888888889,4,2,22,42,0,0
24798,-98.0392156862746,4,2,22,52,0,0
25277,-121.951219512195,4,2,22,52,0,0
26074,-98.0392156862745,4,2,22,52,0,0
34851,-192.307692307692,4,2,22,52,0,0
35649,-121.951219512195,4,2,22,52,0,0
36128,-81.9672131147541,4,2,22,52,0,0
36287,-81.9672131147541,4,2,22,62,0,1
45223,-98.0392156862745,4,2,22,52,0,1
46340,-98.0392156862745,4,2,22,52,0,0
46500,-81.9672131147541,4,2,22,52,0,1
56713,-81.9672131147541,4,2,22,52,0,0
64372,-98.0392156862745,4,2,22,52,0,0
66925,-89.2857142857143,4,2,22,52,0,1
77138,-121.951219512195,4,2,22,52,0,0
82245,-192.307692307692,4,2,22,52,0,0
83521,-138.888888888889,4,2,22,52,0,0
86553,-98.0392156862744,4,2,22,52,0,0

[Colours]
Combo1 : 58,63,90
Combo2 : 175,69,105
Combo3 : 160,138,156
SliderBorder : 217,213,236
SliderTrackOverride : 25,28,37

[HitObjects]
32,344,543,6,0,P|64:312|128:288,1,94.6399994223633,0|0,0:0|0:0,0:0:0:0:
80,200,1021,2,0,P|125:200|187:228,1,94.6399994223633,0|0,0:0|0:0,0:0:0:0:
208,128,1500,2,0,P|240:160|264:224,1,94.6399994223633,0|0,0:0|0:0,0:0:0:0:
349,175,1979,2,0,P|349:220|281:313,1,141.959999133545,0|0,0:0|0:0,0:0:0:0:
32,344,2617,5,8,0:3:0:0:
80,200,2777,1,8,0:3:0:0:
208,128,2936,1,8,0:3:0:0:
349,175,3096,1,4,3:2:0:0:
349,175,3894,6,0,L|351:162,4,11.8299999277954,0|0|0|0|0,3:0|0:0|0:0|0:0|3:0,0:0:0:0:
341,87,4213,6,0,P|312:95|295:108,1,37.3100005693054,0|0,3:0|3:0,0:0:0:0:
280,227,4372,1,0,3:0:0:0:
225,85,4532,6,0,P|210:111|209:141,1,46.4100002832642,0|0,3:0|3:0,0:0:0:0:
280,227,4691,1,8,0:0:0:0:
141,166,4851,6,0,P|149:195|175:220,1,55.5099977130586,0|0,3:0|3:0,0:0:0:0:
280,227,5010,1,8,0:0:0:0:
139,283,5170,6,0,P|165:297|208:298,1,64.609996746628,0|0,3:0|3:0,0:0:0:0:
280,227,5330,1,8,0:0:0:0:
289,235,5409,1,0,0:0:0:0:
298,244,5489,1,0,3:0:0:0:
308,253,5569,1,0,3:0:0:0:
317,262,5649,5,6,3:2:0:0:
364,191,5808,1,2,0:0:0:0:
279,334,5968,1,10,0:0:0:0:
224,167,6128,1,2,0:0:0:0:
384,320,6287,2,0,L|476:309,1,92.8200005665283,2|0,0:0|1:0,0:0:0:0:
401,117,6606,1,10,0:0:0:0:
317,262,6766,1,2,0:0:0:0:
493,207,6925,5,2,0:0:0:0:
359,187,7085,1,2,0:0:0:0:
384,320,7245,2,0,L|476:309,1,92.8200005665283,10|0,0:0|1:0,0:0:0:0:
493,213,7564,5,2,0:0:0:0:
359,193,7724,1,2,0:0:0:0:
384,326,7884,2,0,L|476:315,1,92.8200005665283,10|0,0:0|0:0,0:0:0:0:
435,134,8202,5,2,0:0:0:0:
340,105,8362,1,2,0:0:0:0:
284,251,8521,1,10,0:0:0:0:
251,75,8681,1,2,0:0:0:0:
204,273,8840,2,0,L|98:294,1,92.8200005665283,2|0,0:0|1:0,0:0:0:0:
272,163,9160,1,10,0:0:0:0:
310,334,9319,1,2,0:0:0:0:
186,187,9479,5,2,0:0:0:0:
206,107,9638,1,2,0:0:0:0:
290,81,9798,1,10,0:0:0:0:
351,139,9957,1,2,0:0:0:0:
98,220,10117,5,2,0:0:0:0:
138,54,10276,1,2,0:0:0:0:
310,2,10436,1,10,0:0:0:0:
436,121,10595,1,2,0:0:0:0:
297,258,10755,6,0,L|268:159,1,92.8200005665283,2|2,0:0|0:0,0:0:0:0:
380,240,11074,1,10,0:0:0:0:
216,285,11234,1,2,0:0:0:0:
208,116,11394,2,0,P|257:87|319:103,1,92.8200005665283,2|0,0:0|1:0,0:0:0:0:
299,260,11713,1,10,0:0:0:0:
156,182,11872,1,2,0:0:0:0:
368,125,12032,5,2,0:0:0:0:
299,260,12191,1,2,0:0:0:0:
208,116,12351,2,0,P|257:87|319:103,1,92.8200005665283,10|0,0:0|1:0,0:0:0:0:
414,217,12670,5,2,0:0:0:0:
273,166,12829,1,2,0:0:0:0:
417,56,12989,2,0,P|447:103|433:166,1,92.8200005665283,10|0,0:0|1:0,0:0:0:0:
197,226,13308,6,0,L|89:214,1,92.8200005665283,6|0,3:2|0:0,0:0:0:0:
208,116,13628,1,10,0:0:0:0:
276,260,13787,2,0,L|265:360,1,92.8200005665283,2|0,0:0|0:0,0:0:0:0:
363,242,14106,1,2,0:0:0:0:
186,312,14266,2,0,L|78:300,1,92.8200005665283,10|2,0:0|0:0,0:0:0:0:
284,176,14585,5,4,3:2:0:0:
360,329,14745,1,0,3:0:0:0:
197,226,14904,1,8,0:0:0:0:
363,242,15064,1,0,3:0:0:0:
186,312,15223,1,8,0:0:0:0:
259,99,15383,6,0,P|310:98|319:103,1,46.4100002832642,8|8,0:0|0:0,0:0:0:0:
284,176,15543,1,8,0:0:0:0:
283,199,15622,1,8,0:0:0:0:
282,222,15702,1,8,0:0:0:0:
282,245,15782,1,8,0:0:0:0:
281,270,15862,6,0,P|226:205|172:197,1,131.040003199219,6|2,3:2|0:0,0:0:0:0:
235,120,16340,1,2,3:2:0:0:
235,120,16500,2,0,P|150:112|106:145,1,131.040003199219,2|2,0:0|0:0,0:0:0:0:
102,217,16979,1,2,0:0:0:0:
187,261,17138,1,4,3:2:0:0:
187,261,17298,2,0,L|183:183,1,65.5200015996094,2|0,0:0|0:0,0:0:0:0:
126,325,17617,2,0,P|186:353|254:314,1,131.040003199219,2|0,3:2|0:0,0:0:0:0:
271,252,18096,1,2,0:0:0:0:
271,252,18255,1,2,0:0:0:0:
419,345,18415,6,0,L|401:203,1,131.040003199219,6|2,3:2|0:0,0:0:0:0:
501,185,18894,1,2,3:2:0:0:
501,185,19053,2,0,L|387:97,1,131.040003199219,2|2,0:0|0:0,0:0:0:0:
339,160,19532,1,2,0:0:0:0:
226,68,19691,1,4,3:2:0:0:
226,68,19851,2,0,P|172:46|136:54,1,65.5200015996094,2|0,0:0|0:0,0:0:0:0:
147,192,20170,2,0,P|203:148|271:159,1,131.040003199219,2|0,3:2|0:0,0:0:0:0:
229,234,20649,1,2,0:0:0:0:
229,234,20808,1,2,0:0:0:0:
48,333,20968,6,0,B|119:314|109:362|187:342,1,131.040003199219,6|2,3:2|0:0,0:0:0:0:
299,325,21447,1,2,3:2:0:0:
299,325,21606,2,0,P|252:305|233:217,1,131.040003199219,2|0,0:0|0:0,0:0:0:0:
270,167,22085,1,2,0:0:0:0:
147,207,22245,1,4,3:2:0:0:
147,207,22404,2,0,L|67:201,1,65.5200015996094,0|0,0:0|0:0,0:0:0:0:
235,102,22723,2,0,L|227:251,1,131.040003199219,2|0,3:2|0:0,0:0:0:0:
165,288,23202,1,2,0:0:0:0:
165,288,23362,1,2,0:0:0:0:
126,123,23521,5,6,3:2:0:0:
41,272,23681,1,2,0:0:0:0:
41,272,23840,1,2,0:0:0:0:
41,272,24000,2,0,P|52:318|57:350,1,65.5200015996094,2|0,3:2|0:0,0:0:0:0:
35,137,24319,1,2,0:0:0:0:
35,137,24478,1,2,0:0:0:0:
35,137,24638,1,2,0:0:0:0:
140,220,24798,6,0,L|204:214,1,46.4100002832642,8|8,0:0|0:0,0:0:0:0:
357,200,24957,2,0,L|256:207,1,92.8200005665283,8|0,0:0|3:0,0:0:0:0:
455,113,25277,6,0,L|398:117,1,37.3100005693054,8|8,0:0|0:0,0:0:0:0:
266,128,25436,2,0,L|352:121,1,74.6200011386109,8|0,0:0|3:0,0:0:0:0:
118,56,25755,5,2,0:0:0:0:
144,54,25834,1,2,0:0:0:0:
170,52,25914,1,2,0:0:0:0:
196,51,25994,1,2,0:0:0:0:
222,49,26074,5,6,3:2:0:0:
92,134,26234,1,0,0:0:0:0:
217,206,26394,1,10,0:0:0:0:
146,267,26553,1,0,0:0:0:0:
221,379,26713,2,0,L|222:271,1,92.8200005665283,2|0,3:2|0:0,0:0:0:0:
283,144,27032,1,10,0:0:0:0:
342,207,27191,1,2,0:0:0:0:
226,82,27351,6,0,L|115:69,1,92.8200005665283,6|0,3:2|0:0,0:0:0:0:
283,144,27670,1,10,0:0:0:0:
94,145,27830,1,2,0:0:0:0:
231,209,27989,1,2,3:2:0:0:
43,216,28149,1,2,3:2:0:0:
177,273,28308,2,0,L|178:371,1,92.8200005665283,10|0,0:0|0:0,0:0:0:0:
368,195,28628,5,6,3:2:0:0:
265,320,28787,1,0,0:0:0:0:
206,131,28947,1,8,0:0:0:0:
344,284,29106,2,0,P|403:280|441:241,1,92.8200005665283,2|0,0:0|3:2,0:0:0:0:
274,83,29425,1,2,0:0:0:0:
238,239,29585,1,8,0:0:0:0:
177,48,29745,6,0,P|118:38|74:58,1,92.8200005665283,2|6,0:0|3:2,0:0:0:0:
358,62,30064,2,0,P|323:13|278:-3,1,92.8200005665283,2|8,0:0|0:0,0:0:0:0:
440,210,30383,2,0,P|450:151|430:107,1,92.8200005665283,2|0,0:0|3:2,0:0:0:0:
378,367,30702,2,0,P|426:332|443:287,1,92.8200005665283,2|8,0:2|0:0,0:0:0:0:
132,306,31021,6,0,P|192:337|310:293,1,185.640001133057,2|2,0:0|0:0,0:0:0:0:
96,198,31500,1,8,0:0:0:0:
44,266,31660,2,0,L|55:371,1,92.8200005665283,2|0,0:0|3:2,0:0:0:0:
151,136,31979,1,2,0:0:0:0:
211,243,32138,1,10,0:0:0:0:
256,178,32298,2,0,L|265:85,1,92.8200005665283,2|6,0:0|3:2,0:0:0:0:
163,310,32617,1,2,0:0:0:0:
358,209,32777,1,10,0:0:0:0:
321,283,32936,2,0,L|330:375,1,92.8200005665283,2|0,0:0|3:2,0:0:0:0:
438,185,33255,2,0,L|428:92,1,92.8200005665283,2|8,0:2|0:0,0:0:0:0:
446,266,33574,1,2,0:0:0:0:
351,50,33734,6,0,B|245:44|305:128|168:122,1,185.640001133057,6|8,3:2|0:0,0:0:0:0:
54,256,34213,1,0,0:0:0:0:
118,204,34372,2,0,P|181:212|215:230,1,92.8200005665283,2|0,3:2|0:0,0:0:0:0:
329,344,34691,1,10,0:0:0:0:
298,266,34851,6,0,P|296:209|331:168,2,94.6399994223633,2|0|0,0:0|0:0|0:0,0:0:0:0:
160,131,35649,6,0,P|146:92|147:83,1,37.3100005693054,8|0,3:0|0:0,0:0:0:0:
265,100,35808,2,0,P|260:118|251:133,1,37.3100005693054,8|0,3:0|0:0,0:0:0:0:
81,209,35968,5,8,0:0:0:0:
117,202,36047,1,0,0:0:0:0:
151,217,36127,1,10,0:0:0:0:
183,236,36207,1,8,0:0:0:0:
220,234,36287,5,4,3:0:0:0:
111,293,36447,1,2,0:0:0:0:
293,203,36606,1,10,0:0:0:0:
257,321,36766,1,2,0:0:0:0:
363,167,36925,1,2,0:0:0:0:
421,276,37085,1,2,3:2:0:0:
293,203,37245,1,8,0:0:0:0:
435,127,37404,1,0,0:0:0:0:
220,234,37564,5,2,3:2:0:0:
266,79,37723,1,0,0:0:0:0:
146,271,37883,2,0,P|147:185|173:158,1,111.019995426117,10|0,0:0|0:0,0:0:0:0:
322,288,38202,1,2,3:2:0:0:
350,90,38362,2,0,P|340:36|300:0,1,111.019995426117,2|8,3:2|0:0,0:0:0:0:
220,234,38681,6,0,L|464:264,1,222.039990852234,2|0,0:0|0:0,0:0:0:0:
304,160,39160,1,10,0:2:0:0:
160,288,39319,1,2,0:2:0:0:
232,42,39479,1,2,0:2:0:0:
220,234,39638,1,2,3:2:0:0:
33,144,39798,1,10,0:2:0:0:
160,288,39957,1,2,0:2:0:0:
136,32,40117,5,2,3:2:0:0:
96,216,40276,1,2,0:2:0:0:
328,48,40436,1,10,0:2:0:0:
175,154,40595,1,2,0:2:0:0:
432,136,40755,1,2,3:2:0:0:
254,99,40915,2,0,P|275:161|242:225,1,111.019995426117,2|8,3:2|0:0,0:0:0:0:
423,331,41234,6,0,P|410:277|430:227,1,111.019995426117,2|0,0:0|3:0,0:0:0:0:
238,283,41553,2,0,P|191:254|170:204,1,111.019995426117,2|8,0:0|0:0,0:0:0:0:
325,368,41872,2,0,P|312:314|332:264,1,111.019995426117,2|0,0:0|3:0,0:0:0:0:
140,320,42191,2,0,P|93:291|72:241,1,111.019995426117,2|8,0:0|0:0,0:0:0:0:
245,99,42511,2,0,P|268:184|241:230,1,111.019995426117,2|0,0:0|3:0,0:0:0:0:
64,64,42830,2,0,P|20:140|-32:153,1,111.019995426117,2|8,0:0|0:0,0:0:0:0:
194,19,43149,2,0,P|318:42|340:127,1,222.039990852234,2|2,0:0|3:2,0:0:0:0:
184,162,43628,1,10,0:0:0:0:
245,99,43787,1,2,0:0:0:0:
359,204,43947,6,0,L|372:337,1,111.019995426117,2|0,3:2|0:0,0:0:0:0:
86,242,44266,2,0,L|96:131,1,111.019995426117,10|0,0:0|0:0,0:0:0:0:
279,245,44585,2,0,L|292:378,1,111.019995426117,2|0,3:2|0:0,0:0:0:0:
175,210,44904,1,10,0:0:0:0:
185,79,45064,1,0,0:0:0:0:
302,152,45223,6,0,L|215:147,1,46.4100002832642,4|0,3:2|0:0,0:0:0:0:
250,286,45383,1,8,0:0:0:0:
250,286,45463,1,8,0:0:0:0:
250,286,45543,2,0,L|337:281,1,46.4100002832642,8|0,0:0|0:0,0:0:0:0:
331,141,45702,2,0,L|203:136,1,92.8200005665283,0|8,3:0|0:0,0:0:0:0:
120,210,45941,1,8,0:0:0:0:
120,210,46021,2,0,L|180:211,1,46.4100002832642,8|0,0:0|0:0,0:0:0:0:
55,145,46181,1,8,0:0:0:0:
41,163,46260,1,8,0:0:0:0:
32,185,46340,1,8,0:0:0:0:
29,207,46420,1,0,0:0:0:0:
31,231,46500,5,6,3:2:0:0:
160,99,46660,1,2,0:2:0:0:
192,286,46819,1,10,0:2:0:0:
55,145,46979,1,2,0:2:0:0:
29,351,47138,1,2,0:2:0:0:
166,210,47298,1,2,3:2:0:0:
179,375,47457,1,10,0:2:0:0:
42,234,47617,1,2,0:2:0:0:
267,191,47777,5,2,3:2:0:0:
105,298,47936,1,2,0:2:0:0:
217,61,48096,1,10,0:2:0:0:
178,251,48255,1,2,0:2:0:0:
111,62,48415,1,2,3:2:0:0:
267,191,48574,2,0,L|276:323,1,111.019995426117,2|8,3:2|0:0,0:0:0:0:
217,61,48894,6,0,P|284:23|382:113,1,222.039990852234,2|0,0:0|0:0,0:0:0:0:
406,275,49372,1,10,0:2:0:0:
292,111,49532,1,2,0:2:0:0:
256,337,49691,1,2,0:2:0:0:
397,185,49851,1,2,3:2:0:0:
420,380,50011,1,10,0:2:0:0:
273,217,50171,1,2,0:2:0:0:
147,281,50330,5,2,3:2:0:0:
333,304,50489,1,2,0:2:0:0:
124,150,50649,1,10,0:2:0:0:
242,295,50808,1,2,0:2:0:0:
104,71,50968,1,2,3:2:0:0:
56,270,51128,2,0,L|65:382,1,111.019995426117,2|8,3:2|0:0,0:0:0:0:
210,133,51447,6,0,P|282:105|337:122,1,111.019995426117,2|0,0:0|3:0,0:0:0:0:
0,91,51766,2,0,P|67:90|107:67,1,111.019995426117,2|8,0:0|0:0,0:0:0:0:
242,295,52085,2,0,P|170:267|114:282,1,111.019995426117,2|0,0:0|3:0,0:0:0:0:
434,259,52404,2,0,P|388:255|329:218,1,111.019995426117,2|8,0:0|0:0,0:0:0:0:
58,279,52723,2,0,P|6:346|5:393,1,111.019995426117,2|0,0:0|3:0,0:0:0:0:
64,96,53042,2,0,P|48:139|-1:183,1,111.019995426117,2|8,0:0|0:0,0:0:0:0:
206,60,53362,2,0,P|316:54|358:159,1,222.039990852234,2|2,0:0|3:2,0:0:0:0:
210,212,53840,1,10,0:0:0:0:
265,136,54000,1,2,0:0:0:0:
313,324,54160,6,0,L|167:339,1,111.019995426117,4|0,3:2|3:0,0:0:0:0:
149,242,54399,1,8,0:0:0:0:
149,242,54479,2,0,L|295:257,1,111.019995426117,8|0,0:0|3:0,0:0:0:0:
320,129,54798,2,0,L|250:137,1,55.5099977130586,8|8,0:0|0:0,0:0:0:0:
201,39,54957,2,0,L|271:47,1,55.5099977130586,8|0,0:0|0:0,0:0:0:0:
340,10,55117,1,0,3:0:0:0:
188,148,55277,1,8,0:0:0:0:
173,150,55356,1,8,0:0:0:0:
160,152,55436,5,8,3:2:0:0:
256,45,55596,1,0,0:0:0:0:
99,207,55755,2,0,P|92:262|99:280,1,55.5099977130586,8|8,0:0|0:0,0:0:0:0:
272,189,55915,2,0,P|273:161|264:135,1,55.5099977130586,8|8,0:0|0:0,0:0:0:0:
132,37,56074,1,8,0:0:0:0:
114,36,56154,1,8,0:0:0:0:
97,43,56234,2,0,P|88:69|89:96,1,55.5099977130586,8|8,0:0|0:0,0:0:0:0:
183,227,56394,1,8,0:0:0:0:
183,199,56473,1,8,0:0:0:0:
183,171,56553,1,8,0:0:0:0:
183,143,56633,1,8,0:0:0:0:
183,115,56713,5,6,3:2:0:0:
204,234,59106,5,0,3:0:0:0:
204,234,59266,1,0,3:0:0:0:
418,86,61660,5,0,3:0:0:0:
418,86,61819,1,0,3:0:0:0:
375,322,64213,5,0,3:0:0:0:
375,322,64372,2,0,P|327:307|260:336,1,92.8200005665283,6|0,3:2|0:0,0:0:0:0:
186,214,64691,1,0,3:0:0:0:
186,214,64851,2,0,P|234:229|301:200,1,92.8200005665283,2|0,0:0|0:0,0:0:0:0:
231,49,65170,1,0,3:0:0:0:
231,49,65330,2,0,L|235:150,1,92.8200005665283,2|0,3:2|0:0,0:0:0:0:
132,291,65649,5,8,0:0:0:0:
153,115,65808,1,0,3:0:0:0:
310,296,65968,1,8,0:0:0:0:
364,65,66128,1,0,3:0:0:0:
481,311,66287,2,0,L|489:206,1,92.8200005665283,8|0,0:0|3:0,0:0:0:0:
278,26,66606,5,8,0:0:0:0:
281,72,66685,1,8,0:0:0:0:
284,118,66765,1,8,0:0:0:0:
287,164,66845,1,8,0:0:0:0:
290,211,66925,5,6,3:2:0:0:
364,135,67085,1,2,0:2:0:0:
202,104,67245,1,10,0:2:0:0:
358,32,67404,1,2,0:2:0:0:
203,197,67564,2,0,L|93:186,1,101.920001244141,2|0,3:2|0:0,0:0:0:0:
284,118,67883,1,8,0:0:0:0:
290,211,68043,1,0,0:0:0:0:
446,153,68202,5,2,3:2:0:0:
299,297,68362,1,2,0:2:0:0:
406,73,68521,2,0,P|472:66|511:99,1,101.920001244141,10|0,0:0|0:0,0:0:0:0:
382,292,68840,1,2,3:2:0:0:
284,118,69000,1,2,0:2:0:0:
359,371,69160,2,0,P|408:373|449:344,1,101.920001244141,10|0,0:0|0:0,0:0:0:0:
246,222,69479,5,2,3:2:0:0:
183,359,69638,1,2,0:2:0:0:
116,165,69798,1,10,0:2:0:0:
106,320,69957,1,2,0:2:0:0:
243,127,70117,2,0,P|309:146|331:204,1,101.920001244141,2|0,3:2|0:0,0:0:0:0:
336,265,70436,1,8,0:0:0:0:
246,222,70596,1,0,0:0:0:0:
402,131,70755,5,2,3:2:0:0:
327,65,70915,1,2,3:2:0:0:
238,45,71074,1,10,0:2:0:0:
161,65,71234,1,2,0:2:0:0:
402,131,71394,5,2,3:2:0:0:
270,136,71554,1,2,3:2:0:0:
168,199,71713,1,10,0:2:0:0:
114,286,71873,1,2,0:2:0:0:
333,298,72032,6,0,L|341:189,1,101.920001244141,2|0,3:2|0:0,0:0:0:0:
247,296,72351,1,10,0:2:0:0:
413,301,72511,1,2,0:2:0:0:
151,291,72670,2,0,L|39:281,1,101.920001244141,2|0,3:2|0:0,0:0:0:0:
216,213,72989,1,10,0:2:0:0:
247,296,73149,1,2,0:2:0:0:
125,173,73308,5,2,3:2:0:0:
307,24,73468,1,2,0:2:0:0:
99,92,73628,2,0,P|172:102|192:126,1,101.920001244141,10|0,0:2|0:0,0:0:0:0:
370,269,73947,1,2,3:2:0:0:
188,120,74107,1,2,0:2:0:0:
396,188,74267,2,0,P|323:198|303:222,1,101.920001244141,10|0,0:2|0:0,0:0:0:0:
498,71,74585,6,0,L|355:54,1,101.920001244141,2|0,3:2|0:0,0:0:0:0:
226,199,74904,1,10,0:2:0:0:
396,188,75064,1,2,0:2:0:0:
178,99,75223,1,2,3:2:0:0:
261,275,75383,1,2,0:2:0:0:
396,58,75543,1,10,0:2:0:0:
400,271,75702,1,2,0:2:0:0:
138,206,75862,5,2,3:2:0:0:
396,188,76021,1,2,3:2:0:0:
107,284,76181,5,10,0:2:0:0:
330,140,76340,1,2,3:2:0:0:
76,360,76500,5,10,0:2:0:0:
267,95,76660,1,2,3:2:0:0:
257,351,76819,5,10,0:2:0:0:
256,310,76898,1,8,0:0:0:0:
255,269,76978,1,8,0:0:0:0:
255,228,77058,1,8,0:0:0:0:
254,187,77138,5,2,3:2:0:0:
182,157,77298,1,2,0:2:0:0:
155,228,77457,1,2,3:2:0:0:
109,131,77617,1,2,0:2:0:0:
125,300,77777,1,2,3:2:0:0:
125,300,78096,5,10,3:2:0:0:
198,332,78255,1,2,0:2:0:0:
229,260,78415,1,2,3:2:0:0:
275,364,78574,1,2,0:2:0:0:
256,188,78734,1,2,3:2:0:0:
256,188,79053,5,2,3:2:0:0:
318,233,79213,1,2,0:2:0:0:
359,86,79372,1,10,3:2:0:0:
359,86,79691,5,2,3:2:0:0:
285,53,79850,1,2,0:2:0:0:
254,125,80010,1,2,3:2:0:0:
208,21,80169,1,2,0:2:0:0:
227,196,80329,1,2,3:2:0:0:
227,196,80649,5,10,3:2:0:0:
153,229,80808,1,2,0:2:0:0:
122,157,80968,1,2,3:2:0:0:
76,261,81127,1,2,0:2:0:0:
95,86,81287,1,2,3:2:0:0:
95,86,81606,5,2,3:2:0:0:
174,89,81766,1,2,0:2:0:0:
291,185,81925,1,2,3:2:0:0:
289,98,82085,1,2,0:2:0:0:
291,269,82245,6,0,L|292:299,3,23.6599998555908,0|0|0|0,3:0|0:0|0:0|0:0,0:0:0:0:
201,308,82564,2,0,L|201:284,3,23.6599998555908,8|0|0|0,0:0|0:0|0:0|0:0,0:0:0:0:
117,259,82883,2,0,L|117:282,3,23.6599998555908,0|0|0|0,3:0|0:0|0:0|0:0,0:0:0:0:
26,267,83202,2,0,L|26:243,3,23.6599998555908,8|0|0|0,0:0|0:0|0:0|0:0,0:0:0:0:
84,169,83521,6,0,P|82:130|78:121,3,32.7600007998047,0|0|0|0,3:0|0:0|0:0|0:0,0:0:0:0:
165,91,83840,2,0,P|163:107|164:123,3,32.7600007998047,8|0|0|0,0:0|0:0|0:0|0:0,0:0:0:0:
251,150,84160,2,0,P|252:133|250:117,3,32.7600007998047,0|0|0|0,3:0|0:0|0:0|0:0,0:0:0:0:
331,163,84479,2,0,P|329:179|330:195,3,32.7600007998047,8|0|0|0,0:0|0:0|0:0|0:0,0:0:0:0:
362,88,84798,5,0,3:0:0:0:
419,147,84957,1,0,0:0:0:0:
410,228,85117,1,0,3:0:0:0:
337,273,85277,1,0,0:0:0:0:
500,177,85436,5,8,0:0:0:0:
259,317,85596,1,8,0:0:0:0:
362,88,85755,1,8,0:0:0:0:
445,308,85915,1,8,0:0:0:0:
246,235,86074,1,8,3:0:0:0:
410,228,86234,2,0,P|375:220|366:214,1,32.7600007998047,8|8,0:0|0:0,0:0:0:0:
231,155,86394,1,8,0:0:0:0:
71,286,86553,6,0,P|133:266|158:233,1,92.8200005665283,4|0,3:2|0:0,0:0:0:0:
217,75,86872,1,0,3:0:0:0:
259,317,87032,1,0,3:0:0:0:
293,37,87191,1,0,2:0:0:0:
