osu file format v14

[General]
AudioFilename: audio.mp3
AudioLeadIn: 0
PreviewTime: 36048
Countdown: 0
SampleSet: Soft
StackLeniency: 0.2
Mode: 0
LetterboxInBreaks: 0
WidescreenStoryboard: 0

[Editor]
Bookmarks: 87351,87989
DistanceSpacing: 1.2
BeatDivisor: 4
GridSize: 4
TimelineZoom: 3.299999

[Metadata]
Title:Uso no Hibana
TitleUnicode:嘘の火花
Artist:96neko
ArtistUnicode:96猫
Creator:Nevo
Version:Shira's Insane
Source:クズの本懐
Tags:Kuzu no Honkai Scum's Wish opening OP armin a_r_m_i_n happyrocket88 shogunmoon byd bite you death shiratoi renumi sotarks lafayla
BeatmapID:1500994
BeatmapSetID:625669

[Difficulty]
HPDrainRate:6
CircleSize:4
OverallDifficulty:7
ApproachRate:9
SliderMultiplier:1.75
SliderTickRate:1

[Events]
//Background and Video events
0,0,"hanabi-wallpaper.jpg",0,0
//Break Periods
//Storyboard Layer 0 (Background)
//Storyboard Layer 1 (Fail)
//Storyboard Layer 2 (Pass)
//Storyboard Layer 3 (Foreground)
//Storyboard Sound Samples

[TimingPoints]
543,319.148936170213,4,2,1,70,1,0
543,-125,4,2,1,70,0,0
3096,-100,4,2,2,50,0,0
3415,-100,4,2,1,40,0,0
3894,-125,4,2,1,40,0,0
4213,-125,4,2,1,50,0,0
4372,-125,4,2,2,50,0,0
5649,-111.111111111111,4,2,2,70,0,0
6287,-111.111111111111,4,2,3,70,0,0
6447,-111.111111111111,4,2,2,70,0,0
7245,-111.111111111111,4,2,3,70,0,0
7404,-111.111111111111,4,2,2,70,0,0
7883,-111.111111111111,4,2,3,70,0,0
8043,-111.111111111111,4,2,2,70,0,0
8840,-111.111111111111,4,2,3,70,0,0
9000,-111.111111111111,4,2,2,70,0,0
10117,-111.111111111111,4,2,3,70,0,0
10277,-111.111111111111,4,2,2,70,0,0
11394,-111.111111111111,4,2,3,70,0,0
11553,-111.111111111111,4,2,2,70,0,0
12351,-111.111111111111,4,2,3,70,0,0
12511,-111.111111111111,4,2,2,70,0,0
12989,-111.111111111111,4,2,3,70,0,0
13149,-111.111111111111,4,2,2,70,0,0
15862,-125,4,2,3,50,0,0
25755,-125,4,2,2,50,0,0
26074,-111.111111111111,4,2,3,60,0,0
26234,-111.111111111111,4,2,2,60,0,0
27351,-111.111111111111,4,2,3,60,0,0
27511,-111.111111111111,4,2,2,60,0,0
28628,-111.111111111111,4,2,3,60,0,0
28787,-111.111111111111,4,2,2,60,0,0
29346,-111.111111111111,4,2,2,5,0,0
29425,-111.111111111111,4,2,2,60,0,0
29904,-111.111111111111,4,2,3,60,0,0
30064,-111.111111111111,4,2,2,60,0,0
31181,-111.111111111111,4,2,3,60,0,0
31261,-111.111111111111,4,2,3,5,0,0
31340,-111.111111111111,4,2,2,60,0,0
32457,-111.111111111111,4,2,3,60,0,0
32617,-111.111111111111,4,2,2,60,0,0
33734,-111.111111111111,4,2,3,60,0,0
33894,-111.111111111111,4,2,2,60,0,0
33973,-111.111111111111,4,2,2,5,0,0
34053,-111.111111111111,4,2,2,60,0,0
35011,-111.111111111111,4,2,3,45,0,0
35489,-111.111111111111,4,2,2,60,0,0
35649,-111.111111111111,4,2,2,60,0,0
36287,-100,4,2,2,70,0,1
36527,-100,4,2,2,5,0,1
36606,-100,4,2,2,70,0,1
39080,-100,4,2,2,5,0,1
39160,-100,4,2,2,70,0,1
41473,-100,4,2,2,5,0,1
41553,-100,4,2,2,70,0,1
42112,-100,4,2,2,5,0,1
42191,-100,4,2,2,70,0,1
42750,-100,4,2,2,5,0,1
42830,-100,4,2,2,70,0,1
44186,-100,4,2,2,5,0,1
44266,-100,4,2,2,70,0,1
44824,-100,4,2,2,5,0,1
44904,-100,4,2,2,70,0,1
45223,-111.111111111111,4,2,2,70,0,0
45463,-111.111111111111,4,2,2,5,0,0
45543,-111.111111111111,4,2,2,70,0,0
46500,-100,4,2,2,70,0,1
51686,-100,4,2,2,5,0,1
51766,-100,4,2,2,70,0,1
52324,-100,4,2,2,5,0,1
52404,-100,4,2,2,70,0,1
52963,-100,4,2,2,5,0,1
53043,-100,4,2,2,70,0,1
56713,-125,4,2,5,50,0,0
56872,-125,4,2,3,50,0,0
64372,-111.111111111111,4,2,3,50,0,0
65649,-111.111111111111,4,2,2,50,0,0
66925,-100,4,2,2,70,0,1
67803,-100,4,2,2,5,0,1
67883,-100,4,2,2,70,0,1
68761,-100,4,2,2,5,0,1
68840,-100,4,2,2,70,0,1
69399,-100,4,2,2,5,0,1
69479,-100,4,2,3,70,0,1
69638,-100,4,2,2,70,0,1
70356,-100,4,2,2,5,0,1
70436,-100,4,2,2,70,0,1
72032,-100,4,2,3,70,0,1
72191,-100,4,2,2,70,0,1
72910,-100,4,2,2,5,0,1
72989,-100,4,2,2,70,0,1
74505,-100,4,2,2,5,0,1
74585,-100,4,2,3,70,0,1
74745,-100,4,2,2,70,0,1
74824,-100,4,2,2,5,0,1
74904,-100,4,2,2,70,0,1
75862,-100,4,2,3,70,0,1
76021,-100,4,2,2,70,0,1
76181,-100,4,2,3,70,0,1
76340,-100,4,2,2,70,0,1
76500,-100,4,2,3,70,0,1
76660,-100,4,2,2,70,0,1
77138,-125,4,2,4,40,0,0
77777,-125,4,2,3,40,0,0
77936,-125,4,2,4,40,0,0
78016,-125,4,2,4,5,0,0
78096,-125,4,2,4,40,0,0
78734,-125,4,2,3,40,0,0
78894,-125,4,2,4,40,0,0
78973,-125,4,2,4,5,0,0
79053,-125,4,2,4,40,0,0
79372,-125,4,2,3,40,0,0
79532,-125,4,2,4,40,0,0
80330,-125,4,2,3,40,0,0
80489,-125,4,2,4,40,0,0
80569,-125,4,2,4,5,0,0
80649,-125,4,2,4,40,0,0
81287,-125,4,2,3,40,0,0
81447,-125,4,2,4,40,0,0
81925,-125,4,2,3,40,0,0
82085,-125,4,2,4,40,0,0
82245,-117.647058823529,4,2,2,50,0,0
84798,-117.647058823529,4,2,2,55,0,0
86074,-117.647058823529,4,2,3,55,0,0
86234,-117.647058823529,4,2,2,55,0,0
86553,-117.647058823529,4,2,2,60,0,0

[Colours]
Combo1 : 255,160,200
Combo2 : 240,155,240
SliderBorder : 255,200,255
SliderTrackOverride : 55,35,55

[HitObjects]
202,274,543,6,0,P|195:209|266:151,1,140,0|0,0:0|0:0,0:0:0:0:
359,197,1021,2,0,P|294:204|236:133,1,140,0|0,0:0|0:0,0:0:0:0:
282,39,1500,2,0,P|289:104|218:162,1,140,0|0,0:0|0:0,0:0:0:0:
124,115,1979,2,0,P|189:108|247:179,1,140,0|0,0:0|0:0,0:0:0:0:
202,274,2457,5,0,0:0:0:0:
124,115,2617,1,8,0:3:0:0:
45,275,2777,1,8,0:3:0:0:
123,97,2936,1,8,0:3:0:0:
124,327,3096,5,4,3:2:0:0:
96,83,4213,1,0,3:0:0:0:
109,89,4293,1,0,3:0:0:0:
123,97,4372,5,0,3:0:0:0:
222,31,4532,6,0,L|256:34,1,35,0|0,3:0|3:0,0:0:0:0:
317,137,4691,1,8,0:0:0:0:
213,43,4851,6,0,L|247:46,1,35,0|0,3:0|3:0,0:0:0:0:
308,148,5011,1,8,0:0:0:0:
209,57,5170,6,0,L|243:60,1,35,0|0,3:0|3:0,0:0:0:0:
297,162,5330,1,8,0:0:0:0:
405,304,5489,1,0,3:0:0:0:
429,295,5569,1,0,3:0:0:0:
455,300,5649,6,0,P|436:250|444:211,1,78.7499975967408,6|2,3:2|0:0,0:0:0:0:
479,51,5968,2,0,P|479:90|462:125,1,78.7499975967408,10|2,0:0|0:0,0:0:0:0:
297,162,6287,2,0,L|133:167,1,157.499995193482,2|10,0:0|0:0,0:0:0:0:
40,122,6766,1,2,0:0:0:0:
72,281,6925,5,2,0:0:0:0:
139,166,7085,1,2,0:0:0:0:
150,278,7245,2,0,L|35:281,1,78.7499975967408,10|0,0:0|1:0,0:0:0:0:
187,369,7564,1,2,0:0:0:0:
254,254,7724,1,2,0:0:0:0:
265,366,7883,2,0,L|150:369,1,78.7499975967408,10|0,0:0|0:0,0:0:0:0:
251,177,8202,6,0,P|261:218|249:263,1,78.7499975967408,2|2,0:0|0:0,0:0:0:0:
367,367,8521,2,0,P|359:328|369:290,1,78.7499975967408,10|2,0:0|0:0,0:0:0:0:
408,172,8840,2,0,L|244:177,1,157.499995193482,2|10,0:0|0:0,0:0:0:0:
131,95,9319,1,2,0:0:0:0:
250,176,9479,6,0,L|246:79,1,78.7499975967408,2|2,0:0|0:0,0:0:0:0:
411,93,9798,2,0,L|407:171,1,78.7499975967408,10|2,0:0|0:0,0:0:0:0:
325,25,10117,1,2,0:0:0:0:
486,17,10277,1,2,0:0:0:0:
407,171,10436,2,0,L|410:92,1,78.7499975967408,10|2,0:0|0:0,0:0:0:0:
458,244,10755,6,0,P|408:259|371:249,1,78.7499975967408,2|2,0:0|0:0,0:0:0:0:
251,329,11074,2,0,P|301:314|338:324,1,78.7499975967408,10|2,0:0|0:0,0:0:0:0:
248,171,11394,2,0,L|251:343,1,157.499995193482,2|10,0:0|0:0,0:0:0:0:
128,257,11872,1,2,0:0:0:0:
248,171,12032,5,2,0:0:0:0:
250,328,12191,1,2,0:0:0:0:
169,166,12351,2,0,L|269:172,1,78.7499975967408,10|0,0:0|1:0,0:0:0:0:
122,80,12670,1,2,0:0:0:0:
128,257,12830,1,2,0:0:0:0:
43,84,12989,2,0,L|121:79,1,78.7499975967408,10|0,0:0|1:0,0:0:0:0:
323,60,13308,6,0,B|296:142|367:123|324:220,1,157.499995193482,6|10,3:2|0:0,0:0:0:0:
363,306,13787,1,2,0:0:0:0:
403,214,13947,2,0,P|373:204|313:219,1,78.7499975967408,0|2,0:0|0:0,0:0:0:0:
174,324,14266,2,0,P|204:334|264:319,1,78.7499975967408,10|2,0:0|0:0,0:0:0:0:
215,157,14585,6,0,L|213:247,1,78.7499975967408,4|0,3:2|3:0,0:0:0:0:
364,384,14904,2,0,L|362:305,1,78.7499975967408,8|0,0:0|3:0,0:0:0:0:
215,157,15223,1,8,0:0:0:0:
174,324,15383,1,8,0:0:0:0:
158,334,15463,1,8,0:0:0:0:
138,344,15543,2,0,L|90:336,1,39.3749987983704,8|8,0:0|0:0,0:0:0:0:
25,255,15702,2,0,L|63:248,1,39.3749987983704,8|8,0:0|0:0,0:0:0:0:
99,158,15862,5,6,3:2:0:0:
276,358,16181,2,0,L|274:279,1,70,0|2,0:0|3:2,0:0:0:0:
340,160,16500,2,0,P|281:185|205:143,1,140,0|0,0:0|0:0,0:0:0:0:
280,88,16979,1,0,0:0:0:0:
356,255,17138,5,6,3:2:0:0:
409,153,17298,2,0,L|319:161,1,70,0|0,0:0|0:0,0:0:0:0:
398,13,17617,2,0,L|409:162,1,140,2|0,3:2|0:0,0:0:0:0:
470,237,18096,1,0,0:0:0:0:
356,255,18255,1,0,0:0:0:0:
280,88,18415,5,6,3:2:0:0:
360,324,18734,2,0,L|354:231,1,70,0|2,0:0|3:2,0:0:0:0:
261,318,19053,2,0,P|211:348|125:316,1,140,0|0,0:0|0:0,0:0:0:0:
102,239,19532,1,0,0:0:0:0:
261,318,19691,5,6,3:2:0:0:
197,188,19851,2,0,L|194:286,1,70,0|0,0:0|0:0,0:0:0:0:
336,183,20170,2,0,L|196:187,1,140,2|0,3:2|0:0,0:0:0:0:
103,119,20649,1,0,0:0:0:0:
102,239,20808,1,0,0:0:0:0:
261,318,20968,5,6,3:2:0:0:
198,117,21287,2,0,L|195:215,1,70,0|2,0:0|3:2,0:0:0:0:
336,183,21606,2,0,P|299:128|315:61,1,140,0|0,0:0|0:0,0:0:0:0:
401,110,22085,1,0,0:0:0:0:
209,202,22245,5,6,3:2:0:0:
128,120,22404,2,0,L|207:116,1,70,0|0,0:0|0:0,0:0:0:0:
124,259,22723,2,0,L|128:107,1,140,2|0,3:2|0:0,0:0:0:0:
93,24,23202,1,0,0:0:0:0:
20,104,23362,1,0,0:0:0:0:
209,202,23521,5,6,3:2:0:0:
128,120,23681,1,0,0:0:0:0:
124,259,23840,1,0,0:0:0:0:
197,117,24000,2,0,L|127:120,1,70,2|0,3:2|0:0,0:0:0:0:
276,284,24319,1,0,0:0:0:0:
280,145,24478,1,0,0:0:0:0:
195,324,24638,1,0,0:0:0:0:
341,214,24798,6,0,L|385:211,2,35,8|8|8,0:0|0:0|0:0,0:0:0:0:
209,202,25117,1,0,3:0:0:0:
361,297,25277,2,0,L|405:294,2,35,8|8|8,0:0|0:0|0:0,0:0:0:0:
280,145,25596,1,0,3:0:0:0:
195,324,25755,1,2,0:0:0:0:
164,307,25834,1,2,0:0:0:0:
129,302,25914,1,2,0:0:0:0:
95,309,25994,1,2,0:0:0:0:
69,328,26074,6,0,L|58:225,1,78.7499975967408,6|0,3:2|0:0,0:0:0:0:
129,108,26394,2,0,L|120:186,1,78.7499975967408,10|0,0:0|0:0,0:0:0:0:
195,324,26713,2,0,P|261:315|330:318,1,118.124996395111,2|0,3:2|0:0,0:0:0:0:
361,297,27032,2,0,P|423:306|467:307,1,78.7499975967408,10|2,0:0|0:0,0:0:0:0:
376,114,27351,6,0,L|365:11,1,78.7499975967408,6|0,3:2|0:0,0:0:0:0:
280,145,27671,2,0,L|271:223,1,78.7499975967408,10|2,0:0|0:0,0:0:0:0:
454,105,27989,2,0,L|351:116,1,78.7499975967408,2|2,3:2|3:2,0:0:0:0:
201,136,28308,2,0,L|304:147,1,78.7499975967408,10|0,0:0|0:0,0:0:0:0:
479,208,28628,5,6,3:2:0:0:
454,105,28787,1,0,0:0:0:0:
439,306,28947,1,8,0:0:0:0:
361,200,29106,2,0,P|427:209|496:206,1,118.124996395111,2|0,0:0|0:0,0:0:0:0:
468,233,29425,2,0,P|451:268|438:305,1,78.7499975967408,2|8,0:0|0:0,0:0:0:0:
235,350,29745,6,0,L|151:346,1,78.7499975967408,2|6,0:0|3:2,0:0:0:0:
50,257,30064,2,0,L|134:253,1,78.7499975967408,2|8,0:0|0:0,0:0:0:0:
237,165,30383,2,0,L|153:161,1,78.7499975967408,2|0,0:0|3:2,0:0:0:0:
52,72,30702,2,0,L|136:68,1,78.7499975967408,2|8,3:2|0:0,0:0:0:0:
316,56,31021,6,0,P|256:77|237:155,1,118.124996395111,2|0,0:0|0:0,0:0:0:0:
237,165,31340,1,2,0:0:0:0:
199,13,31500,1,8,0:0:0:0:
322,137,31660,2,0,L|420:130,1,78.7499975967408,2|0,0:0|3:2,0:0:0:0:
360,289,31979,1,2,0:0:0:0:
322,137,32139,1,10,0:0:0:0:
281,294,32298,6,0,L|379:287,1,78.7499975967408,2|6,0:0|3:2,0:0:0:0:
158,159,32617,1,2,0:0:0:0:
196,311,32777,1,10,0:0:0:0:
237,165,32936,2,0,L|139:158,1,78.7499975967408,2|0,0:0|3:2,0:0:0:0:
111,333,33255,1,2,3:2:0:0:
69,150,33415,1,8,0:0:0:0:
37,247,33574,1,2,0:0:0:0:
158,159,33734,6,0,P|152:104|91:57,1,118.124996395111,6|0,3:2|0:0,0:0:0:0:
164,58,34053,2,0,L|242:63,1,78.7499975967408,8|0,0:0|0:0,0:0:0:0:
353,26,34372,1,2,3:2:0:0:
313,109,34532,1,0,3:0:0:0:
353,192,34691,1,10,0:0:0:0:
313,275,34851,1,2,0:0:0:0:
353,358,35011,5,2,3:2:0:0:
353,371,35649,1,8,3:0:0:0:
355,182,35808,1,8,3:0:0:0:
431,279,35968,1,8,0:0:0:0:
391,278,36047,1,0,0:0:0:0:
352,276,36127,1,8,0:0:0:0:
313,275,36207,1,8,0:0:0:0:
270,273,36287,6,0,B|236:235|236:235|259:120,1,131.25,4|0,3:2|0:0,0:0:0:0:
274,117,36606,1,8,0:0:0:0:
391,278,36766,1,0,0:0:0:0:
182,279,36925,2,0,L|296:271,1,87.5,2|0,0:0|3:0,0:0:0:0:
117,167,37245,1,8,0:0:0:0:
68,329,37404,1,0,0:0:0:0:
179,104,37564,6,0,P|136:80|84:87,1,87.5,2|0,3:2|0:0,0:0:0:0:
274,117,37883,2,0,L|375:112,1,87.5,10|0,0:0|0:0,0:0:0:0:
480,15,38202,1,2,3:2:0:0:
468,189,38362,1,2,3:2:0:0:
391,25,38521,2,0,L|303:29,1,87.5,8|0,0:0|0:0,0:0:0:0:
341,203,38840,6,0,B|322:274|384:256|344:347,1,131.25,0|0,0:0|0:0,0:0:0:0:
376,361,39160,2,0,P|425:347|486:374,1,87.5,8|0,0:0|0:0,0:0:0:0:
265,299,39479,2,0,P|216:313|155:286,1,87.5,2|0,0:2|3:0,0:0:0:0:
43,203,39798,1,8,0:0:0:0:
109,368,39957,1,0,0:0:0:0:
260,211,40117,6,0,L|265:307,1,87.5,2|0,3:2|0:0,0:0:0:0:
38,290,40436,2,0,L|42:202,1,87.5,10|0,0:0|0:0,0:0:0:0:
167,78,40755,1,2,3:2:0:0:
174,215,40915,2,0,P|227:205|287:223,1,87.5,2|8,3:2|0:0,0:0:0:0:
435,89,41234,6,0,P|373:111|287:78,1,131.25,2|0,0:0|0:0,0:0:0:0:
338,134,41553,2,0,P|362:175|362:224,1,87.5,2|8,0:0|0:0,0:0:0:0:
257,342,41872,2,0,L|259:190,1,131.25,2|0,0:0|0:0,0:0:0:0:
174,215,42191,2,0,P|227:205|287:223,1,87.5,2|8,0:0|0:0,0:0:0:0:
420,319,42511,6,0,L|258:325,1,131.25,2|0,0:0|0:0,0:0:0:0:
257,342,42830,1,2,0:0:0:0:
105,310,42989,2,0,P|52:320|-8:302,1,87.5,8|2,0:0|0:0,0:0:0:0:
53,135,43308,1,0,3:0:0:0:
105,310,43468,1,2,3:2:0:0:
137,128,43628,1,10,0:0:0:0:
60,229,43787,1,2,0:0:0:0:
172,368,43947,6,0,P|196:299|147:224,1,131.25,2|0,3:2|0:0,0:0:0:0:
174,215,44266,2,0,P|227:205|287:223,1,87.5,10|0,0:0|0:0,0:0:0:0:
375,58,44585,2,0,L|221:75,1,131.25,2|0,3:2|0:0,0:0:0:0:
209,40,44904,2,0,L|245:158,1,87.5,10|0,0:0|0:0,0:0:0:0:
348,293,45223,6,0,B|338:251|338:251|350:211|350:211|342:159,1,118.124996395111,4|8,3:2|0:0,0:0:0:0:
369,142,45543,1,8,0:0:0:0:
257,304,45702,1,0,3:0:0:0:
447,197,45862,2,0,L|499:191,2,39.3749987983704,8|8|8,0:0|0:0|0:0,0:0:0:0:
233,148,46181,1,8,0:0:0:0:
238,186,46260,1,8,0:0:0:0:
244,225,46340,1,8,0:0:0:0:
250,264,46420,1,0,0:0:0:0:
257,304,46500,6,0,L|146:294,1,87.5,4|0,3:2|0:0,0:0:0:0:
28,169,46819,2,0,L|139:159,1,87.5,8|0,0:0|0:0,0:0:0:0:
369,142,47138,1,2,0:0:0:0:
257,304,47298,1,0,3:0:0:0:
301,69,47457,2,0,P|356:46|399:51,1,87.5,8|0,0:0|0:0,0:0:0:0:
344,311,47777,6,0,L|256:303,1,87.5,2|0,3:2|0:0,0:0:0:0:
213,76,48096,2,0,L|301:68,1,87.5,10|0,0:0|0:0,0:0:0:0:
431,260,48415,1,2,3:2:0:0:
235,157,48574,2,0,P|212:102|217:59,1,87.5,2|8,3:2|0:0,0:0:0:0:
150,252,48894,1,0,0:0:0:0:
344,311,49053,6,0,B|301:202|388:246|336:118,1,175,0|8,0:0|0:0,0:0:0:0:
212,75,49532,1,0,0:0:0:0:
150,252,49691,2,0,L|245:260,1,87.5,2|0,0:0|3:0,0:0:0:0:
30,137,50011,2,0,L|117:129,1,87.5,8|0,0:0|0:0,0:0:0:0:
159,338,50330,6,0,L|147:232,1,87.5,2|0,3:2|0:0,0:0:0:0:
39,50,50649,2,0,L|27:156,1,87.5,10|0,0:0|0:0,0:0:0:0:
51,339,50968,1,2,3:2:0:0:
235,157,51128,2,0,L|147:149,1,87.5,2|8,3:2|0:0,0:0:0:0:
159,338,51447,6,0,P|221:311|287:341,1,131.25,2|0,0:0|0:0,0:0:0:0:
314,336,51766,2,0,P|360:353|420:330,1,87.5,2|8,0:0|0:0,0:0:0:0:
472,149,52085,2,0,P|410:122|344:152,1,131.25,2|0,0:0|0:0,0:0:0:0:
317,147,52404,2,0,P|271:164|211:141,1,87.5,2|8,0:0|0:0,0:0:0:0:
466,17,52723,6,0,L|472:158,1,131.25,2|0,0:0|0:0,0:0:0:0:
452,179,53043,2,0,L|439:277,1,87.5,2|8,0:0|0:0,0:0:0:0:
266,83,53362,2,0,L|78:88,1,175,2|2,0:0|3:2,0:0:0:0:
28,168,53840,1,10,0:0:0:0:
176,243,54000,1,2,0:0:0:0:
261,0,54160,6,0,B|277:40|277:40|263:100,1,87.5,4|0,3:2|3:0,0:0:0:0:
299,290,54479,2,0,B|288:246|288:246|304:206,1,87.5,8|0,0:0|3:0,0:0:0:0:
176,243,54798,2,0,P|110:250|12:263,1,131.25,8|0,0:0|0:0,0:0:0:0:
14,290,55117,1,0,3:0:0:0:
215,341,55277,1,8,0:0:0:0:
114,157,55436,6,0,P|71:162|28:168,1,87.5,8|0,3:2|0:0,0:0:0:0:
231,82,55755,2,0,P|256:85|295:90,3,43.75,8|8|8|8,0:0|0:0|0:0|0:0,0:0:0:0:
312,120,56074,2,0,P|333:117|355:114,3,43.75,8|8|8|8,0:0|0:0|0:0|0:0,0:0:0:0:
402,134,56394,2,0,P|390:190|410:242,1,87.5,8|8,0:0|0:0,0:0:0:0:
321,337,56713,6,0,P|334:293|320:248,2,70,6|0|0,3:2|0:0|0:0,0:0:0:0:
239,292,57191,1,0,0:0:0:0:
321,337,57351,2,0,P|388:316|460:348,1,140,0|0,0:0|0:0,0:0:0:0:
491,241,57830,1,0,0:0:0:0:
425,166,57989,6,0,P|392:176|337:162,2,70,0|0|0,0:0|0:0|0:0,0:0:0:0:
171,297,58628,2,0,P|204:287|259:301,2,70,0|0|0,0:0|0:0|0:0,0:0:0:0:
64,310,59106,1,0,0:0:0:0:
185,194,59266,6,0,L|191:102,2,70,0|0|0,0:0|0:0|0:0,0:0:0:0:
171,297,59745,1,0,0:0:0:0:
185,194,59904,2,0,L|33:198,1,140,0|0,0:0|0:0,0:0:0:0:
18,101,60383,1,0,0:0:0:0:
45,197,60543,6,0,L|43:266,2,70,0|0|0,0:0|0:0|0:0,0:0:0:0:
126,110,61021,1,0,0:0:0:0:
185,194,61181,2,0,L|186:263,2,70,0|0|0,0:0|0:0|0:0,0:0:0:0:
74,30,61660,1,0,0:0:0:0:
126,110,61819,6,0,P|208:104|281:94,1,140,0|0,0:0|0:0,0:0:0:0:
442,202,62457,2,0,P|372:193|302:188,1,140,0|0,0:0|0:0,0:0:0:0:
185,194,62936,1,0,0:0:0:0:
185,194,63734,1,0,0:0:0:0:
442,202,64053,1,0,0:0:0:0:
393,114,64213,1,0,3:0:0:0:
302,333,64372,6,0,B|288:279|288:279|316:234|316:234|297:168,1,157.499995193482,6|0,3:2|3:0,0:0:0:0:
106,199,64851,2,0,L|202:192,1,78.7499975967408,2|0,0:0|0:0,0:0:0:0:
266,81,65170,1,0,3:0:0:0:
97,120,65330,2,0,L|108:217,1,78.7499975967408,2|0,3:2|0:0,0:0:0:0:
212,359,65649,5,8,0:0:0:0:
184,193,65808,1,0,3:0:0:0:
194,368,65968,1,8,0:0:0:0:
198,181,66128,1,0,3:0:0:0:
176,377,66287,1,8,0:0:0:0:
213,167,66447,1,0,3:0:0:0:
461,338,66606,1,8,0:0:0:0:
421,337,66685,1,8,0:0:0:0:
382,336,66765,1,8,0:0:0:0:
342,335,66845,1,8,0:0:0:0:
302,333,66925,6,0,L|309:237,1,87.5,4|0,3:2|0:0,0:0:0:0:
206,79,67245,2,0,L|212:166,1,87.5,8|0,0:0|0:0,0:0:0:0:
368,86,67564,2,0,P|304:116|221:76,1,131.25,2|0,3:2|0:0,0:0:0:0:
206,79,67883,1,8,0:0:0:0:
374,188,68043,1,0,0:0:0:0:
361,2,68202,6,0,P|354:54|387:106,1,87.5,2|2,3:2|0:0,0:0:0:0:
505,191,68521,2,0,L|361:187,1,131.25,10|0,0:0|0:0,0:0:0:0:
337,212,68840,1,2,3:2:0:0:
449,350,69000,1,2,0:0:0:0:
205,215,69160,2,0,L|336:211,1,131.25,8|0,0:0|0:0,0:0:0:0:
373,187,69479,6,0,L|360:304,1,87.5,6|0,3:2|0:0,0:0:0:0:
209,116,69798,2,0,L|199:29,1,87.5,8|0,0:0|0:0,0:0:0:0:
59,230,70117,2,0,P|110:192|201:212,1,131.25,2|0,3:2|0:0,0:0:0:0:
205,215,70436,1,8,0:0:0:0:
54,119,70596,1,0,0:0:0:0:
55,314,70755,6,0,P|67:267|45:207,1,87.5,2|0,3:2|0:0,0:0:0:0:
49,34,71074,2,0,P|41:76|53:118,1,87.5,10|2,0:0|0:0,0:0:0:0:
142,322,71394,2,0,L|43:312,1,87.5,2|2,3:2|0:0,0:0:0:0:
292,206,71713,2,0,L|204:214,1,87.5,10|2,0:0|0:0,0:0:0:0:
391,350,72032,6,0,P|403:303|381:243,1,87.5,6|0,3:2|0:0,0:0:0:0:
385,70,72351,2,0,P|377:112|389:154,1,87.5,8|0,0:0|0:0,0:0:0:0:
391,350,72670,2,0,P|327:327|244:364,1,131.25,2|0,3:2|0:0,0:0:0:0:
241,366,72989,1,8,0:0:0:0:
292,206,73149,1,0,0:0:0:0:
478,358,73308,6,0,L|390:349,1,87.5,2|2,3:2|0:0,0:0:0:0:
204,214,73628,2,0,L|291:205,1,87.5,10|0,0:0|0:0,0:0:0:0:
103,65,73947,1,2,3:2:0:0:
86,231,74106,1,2,0:0:0:0:
257,74,74266,2,0,P|201:97|108:71,1,131.25,10|0,0:0|0:0,0:0:0:0:
103,65,74585,6,0,L|112:222,1,131.25,6|0,3:2|0:0,0:0:0:0:
86,231,74904,1,10,0:0:0:0:
257,74,75064,1,2,3:2:0:0:
378,196,75223,2,0,L|290:204,1,87.5,10|2,0:0|3:2,0:0:0:0:
170,334,75543,2,0,L|257:342,1,87.5,10|2,0:0|3:2,0:0:0:0:
453,247,75862,6,0,P|465:191|452:150,1,87.5,10|2,3:2|3:2,0:0:0:0:
175,249,76181,2,0,P|163:305|176:346,1,87.5,10|2,0:0|3:2,0:0:0:0:
280,133,76500,1,10,0:0:0:0:
73,133,76660,1,2,3:2:0:0:
293,299,76819,1,8,0:0:0:0:
289,255,76898,1,8,0:0:0:0:
285,211,76978,1,8,0:0:0:0:
282,168,77058,1,8,0:0:0:0:
280,133,77138,6,0,B|242:145|242:145|192:132,2,70,2|2|2,3:2|0:0|3:2,0:0:0:0:
375,42,77617,1,2,0:0:0:0:
373,159,77777,2,0,L|389:286,1,105,2|0,3:2|0:0,0:0:0:0:
421,296,78096,1,6,3:0:0:0:
460,106,78255,1,2,0:0:0:0:
490,299,78415,6,0,L|397:294,1,70,2|2,3:2|0:0,0:0:0:0:
298,336,78734,2,0,L|177:342,1,105,2|0,3:2|0:0,0:0:0:0:
161,320,79053,1,2,3:2:0:0:
249,163,79213,1,2,0:0:0:0:
298,336,79372,1,6,3:0:0:0:
254,95,79691,6,0,P|244:144|263:189,1,70,2|2,3:2|0:0,0:0:0:0:
161,320,80011,2,0,P|165:285|155:252,1,70,2|2,3:2|0:0,0:0:0:0:
117,95,80330,2,0,P|170:117|242:95,1,105,2|0,3:2|0:0,0:0:0:0:
254,95,80649,1,6,3:0:0:0:
90,183,80808,1,2,0:0:0:0:
112,25,80968,6,0,L|118:126,1,70,2|2,3:2|0:0,0:0:0:0:
254,95,81287,2,0,P|318:72|384:93,1,140,2|2,3:2|3:2,0:0:0:0:
437,182,81766,1,2,0:0:0:0:
388,23,81925,2,0,L|382:124,1,70,6|0,3:0|0:0,0:0:0:0:
487,258,82245,6,0,P|430:276|355:213,1,148.750002837181,2|10,3:2|0:0,0:0:0:0:
437,182,82723,1,2,0:0:0:0:
360,229,82883,2,0,P|378:286|315:361,1,148.750002837181,2|10,3:2|0:0,0:0:0:0:
289,277,83362,1,2,0:0:0:0:
140,280,83521,6,0,L|303:276,1,148.750002837181,2|10,3:2|0:0,0:0:0:0:
360,229,84000,1,0,0:0:0:0:
294,171,84160,2,0,L|131:167,1,148.750002837181,2|10,3:2|0:0,0:0:0:0:
76,213,84638,1,0,0:0:0:0:
140,95,84798,6,0,P|151:139|136:181,1,74.3750014185906,6|0,3:2|0:0,0:0:0:0:
294,171,85117,2,0,P|287:134|298:99,1,74.3750014185906,10|0,0:0|3:0,0:0:0:0:
214,13,85436,1,10,0:0:0:0:
294,171,85596,1,0,3:0:0:0:
334,13,85755,1,10,0:0:0:0:
414,171,85915,6,0,L|452:165,2,37.1875007092953,0|0|2,3:2|0:0|3:2,0:0:0:0:
294,171,86234,1,8,0:0:0:0:
300,181,86314,1,8,0:0:0:0:
304,190,86394,1,8,0:0:0:0:
456,295,86553,2,0,P|383:271|307:305,1,148.750002837181,12|8,0:0|0:0,0:0:0:0:
187,135,87032,1,8,0:0:0:0:
318,294,87191,5,12,0:0:0:0:
