osu file format v14

[General]
AudioFilename: audio.mp3
AudioLeadIn: 0
PreviewTime: 36048
Countdown: 0
SampleSet: Soft
StackLeniency: 0.7
Mode: 0
LetterboxInBreaks: 0
WidescreenStoryboard: 1

[Editor]
Bookmarks: 87351
DistanceSpacing: 1.1
BeatDivisor: 4
GridSize: 4
TimelineZoom: 1.5

[Metadata]
Title:Uso no Hibana
TitleUnicode:嘘の火花
Artist:96neko
ArtistUnicode:96猫
Creator:Nevo
Version:Rocket's Hard
Source:クズの本懐
Tags:Kuzu no Honkai Scum's Wish opening OP armin a_r_m_i_n happyrocket88 shogunmoon byd bite you death shiratoi renumi sotarks lafayla
BeatmapID:1500993
BeatmapSetID:625669

[Difficulty]
HPDrainRate:5
CircleSize:4
OverallDifficulty:6
ApproachRate:8
SliderMultiplier:1.15
SliderTickRate:1

[Events]
//Background and Video events
0,0,"hanabi-wallpaper.jpg",0,0
//Break Periods
2,59466,60590
//Storyboard Layer 0 (Background)
//Storyboard Layer 1 (Fail)
//Storyboard Layer 2 (Pass)
//Storyboard Layer 3 (Foreground)
//Storyboard Sound Samples

[TimingPoints]
543,319.148936170213,4,2,1,70,1,0
543,-133.333333333333,4,2,1,70,0,0
3096,-133.333333333333,4,2,2,50,0,0
3415,-133.333333333333,4,2,1,40,0,0
3894,-133.333333333333,4,2,1,40,0,0
4213,-100,4,2,1,50,0,0
4372,-100,4,2,2,50,0,0
5649,-86.9565217391304,4,2,2,70,0,0
6287,-86.9565217391304,4,2,3,70,0,0
6447,-86.9565217391304,4,2,2,70,0,0
7245,-86.9565217391304,4,2,3,70,0,0
7404,-86.9565217391304,4,2,2,70,0,0
7883,-86.9565217391304,4,2,3,70,0,0
8043,-86.9565217391304,4,2,2,70,0,0
8840,-86.9565217391304,4,2,3,70,0,0
9000,-86.9565217391304,4,2,2,70,0,0
10117,-86.9565217391304,4,2,3,70,0,0
10277,-86.9565217391304,4,2,2,70,0,0
11394,-86.9565217391304,4,2,3,70,0,0
11553,-86.9565217391304,4,2,2,70,0,0
12351,-86.9565217391304,4,2,3,70,0,0
12511,-86.9565217391304,4,2,2,70,0,0
12989,-86.9565217391304,4,2,3,70,0,0
13149,-86.9565217391304,4,2,2,70,0,0
15862,-100,4,2,3,50,0,0
25755,-100,4,2,2,50,0,0
26074,-86.9565217391304,4,2,3,60,0,0
26234,-86.9565217391304,4,2,2,60,0,0
27351,-86.9565217391304,4,2,3,60,0,0
27511,-86.9565217391304,4,2,2,60,0,0
28628,-86.9565217391304,4,2,3,60,0,0
28787,-86.9565217391304,4,2,2,60,0,0
29904,-86.9565217391304,4,2,3,60,0,0
30064,-86.9565217391304,4,2,2,60,0,0
31181,-86.9565217391304,4,2,3,60,0,0
31340,-86.9565217391304,4,2,2,60,0,0
32457,-86.9565217391304,4,2,3,60,0,0
32617,-86.9565217391304,4,2,2,60,0,0
33734,-86.9565217391304,4,2,3,60,0,0
33894,-86.9565217391304,4,2,2,60,0,0
35011,-100,4,2,3,45,0,0
35489,-100,4,2,2,60,0,0
35968,-100,4,2,2,60,0,0
36287,-86.9565217391304,4,2,2,70,0,1
46340,-100,4,2,2,70,0,0
46500,-80,4,2,2,70,0,1
56713,-100,4,2,5,50,0,0
56872,-100,4,2,3,50,0,0
65649,-100,4,2,2,50,0,0
66925,-80,4,2,2,70,0,1
69479,-80,4,2,3,70,0,1
69638,-80,4,2,2,70,0,1
72032,-80,4,2,3,70,0,1
72191,-80,4,2,2,70,0,1
74585,-80,4,2,3,70,0,1
74745,-80,4,2,2,70,0,1
75862,-80,4,2,3,70,0,1
76021,-80,4,2,2,70,0,1
76181,-80,4,2,3,70,0,1
76340,-80,4,2,2,70,0,1
76500,-80,4,2,3,70,0,1
76660,-80,4,2,2,70,0,1
77138,-100,4,2,4,40,0,0
77777,-100,4,2,3,40,0,0
77936,-100,4,2,4,40,0,0
78734,-100,4,2,3,40,0,0
78894,-100,4,2,4,40,0,0
79372,-100,4,2,3,40,0,0
79532,-100,4,2,4,40,0,0
80330,-100,4,2,3,40,0,0
80489,-100,4,2,4,40,0,0
81287,-100,4,2,3,40,0,0
81447,-100,4,2,4,40,0,0
81606,-100,4,2,4,40,0,0
81925,-100,4,2,3,40,0,0
82085,-100,4,2,4,40,0,0
82245,-100,4,2,2,50,0,0
84798,-100,4,2,2,55,0,0
86074,-100,4,2,3,55,0,0
86234,-100,4,2,2,55,0,0
86553,-100,4,2,2,60,0,0
88149,-100,4,2,2,5,0,0

[Colours]
Combo1 : 255,160,200
Combo2 : 74,165,255
SliderBorder : 255,200,255
SliderTrackOverride : 55,35,55

[HitObjects]
248,144,543,6,0,L|336:176,1,86.2500032901765,0|0,0:0|0:0,0:0:0:0:
364,108,1021,2,0,L|268:76,1,86.2500032901765,0|0,0:0|0:0,0:0:0:0:
208,84,1500,2,0,P|176:124|180:168,1,86.2500032901765,0|0,0:0|0:0,0:0:0:0:
220,216,1979,2,0,P|212:260|167:291,1,86.2500032901765,0|0,0:0|0:0,0:0:0:0:
120,328,2457,1,0,0:0:0:0:
120,328,2617,2,0,L|65:338,2,43.1250016450883,8|8|8,0:3|0:3|0:3,0:0:0:0:
199,354,3096,6,0,P|230:318|278:323,1,86.2500032901765,4|0,3:2|0:0,0:0:0:0:
332,280,3574,2,0,P|384:244|420:248,1,86.2500032901765,0|0,0:0|3:0,0:0:0:0:
468,284,4053,1,0,3:0:0:0:
400,316,4213,1,0,3:0:0:0:
469,211,4372,6,0,P|479:180|464:138,1,57.5,0|0,3:0|3:0,0:0:0:0:
359,141,4691,2,0,P|376:163|402:173,1,57.5,8|0,0:0|3:0,0:0:0:0:
473,79,5011,2,0,P|445:83|423:101,1,57.5,8|0,0:0|3:0,0:0:0:0:
359,141,5330,2,0,P|310:160|264:135,1,86.25,8|0,0:0|0:0,0:0:0:0:
228,84,5649,6,0,B|196:24|196:24|160:104,1,132.250002522469,6|10,3:2|0:0,0:0:0:0:
132,152,6128,1,2,0:0:0:0:
196,200,6287,2,0,P|235:250|222:312,1,132.250002522469,2|10,0:0|0:0,0:0:0:0:
156,268,6766,1,2,0:0:0:0:
196,200,6925,6,0,L|272:204,1,66.1250012612343,2|2,0:0|0:0,0:0:0:0:
376,203,7245,2,0,P|312:231|256:195,1,132.250002522469,10|2,0:0|0:0,0:0:0:0:
320,152,7723,1,2,0:0:0:0:
452,192,7883,1,10,0:0:0:0:
452,192,8202,6,0,L|476:268,2,66.1250012612343,2|2|10,0:0|0:0|0:0,0:0:0:0:
400,132,8681,1,2,0:0:0:0:
312,248,8840,2,0,P|296:308|352:364,1,132.250002522469,2|10,0:0|0:0,0:0:0:0:
372,292,9319,1,2,0:0:0:0:
312,248,9479,6,0,P|272:228|240:232,1,66.1250012612343,2|2,0:0|0:0,0:0:0:0:
200,284,9798,2,0,P|240:304|272:300,1,66.1250012612343,10|2,0:0|0:0,0:0:0:0:
384,248,10117,6,0,P|424:228|456:232,1,66.1250012612343,2|2,0:0|0:0,0:0:0:0:
496,284,10436,2,0,P|456:304|424:300,1,66.1250012612343,10|2,0:0|0:0,0:0:0:0:
384,248,10755,6,0,B|352:212|352:212|348:180|348:180|312:140,1,132.250002522469,2|10,0:0|0:0,0:0:0:0:
256,88,11234,1,2,0:0:0:0:
198,140,11394,2,0,P|250:168|314:140,1,132.250002522469,2|10,0:0|0:0,0:0:0:0:
256,88,11872,1,2,0:0:0:0:
124,164,12032,6,0,L|60:204,2,66.1250012612343,2|2|10,0:0|0:0|0:0,0:0:0:0:
256,252,12670,2,0,L|256:340,2,66.1250012612343,2|2|10,0:0|0:0|0:0,0:0:0:0:
388,164,13308,6,0,L|452:204,1,66.1250012612343,6|0,3:2|0:0,0:0:0:0:
508,244,13628,1,10,0:0:0:0:
508,244,13787,1,2,0:0:0:0:
456,116,13947,2,0,L|398:83,1,66.1250012612343,2|0,0:0|0:0,0:0:0:0:
312,212,14266,2,0,L|369:244,1,66.1250012612343,2|0,0:0|0:0,0:0:0:0:
444,199,14585,6,0,L|372:159,1,66.1250012612343
328,112,14904,2,0,P|323:71|339:39,2,66.1250012612343
398,83,15383,1,0,0:0:0:0:
467,115,15543,2,0,P|462:164|430:200,1,99.1875018918515,8|0,0:0|0:0,0:0:0:0:
412,212,15862,6,0,P|384:256|408:324,1,115,6|0,3:2|0:0,0:0:0:0:
457,271,16340,2,0,B|413:247|369:267|369:267|321:287|281:239,1,172.5,2|0,3:2|0:0,0:0:0:0:
152,184,17138,6,0,P|205:167|254:195,1,115,6|0,3:2|0:0,0:0:0:0:
198,243,17617,2,0,P|144:259|96:232,1,115,2|0,3:2|0:0,0:0:0:0:
56,158,18096,1,0,0:0:0:0:
56,158,18255,1,0,0:0:0:0:
46,287,18415,6,0,P|94:323|158:335,1,115,6|0,3:2|0:0,0:0:0:0:
251,295,18894,2,0,P|200:326|135:333,1,115,2|0,3:2|0:0,0:0:0:0:
150,255,19372,2,0,L|150:183,1,57.5,0|0,0:0|0:0,0:0:0:0:
251,89,19691,6,0,P|299:53|363:41,1,115,6|0,3:2|0:0,0:0:0:0:
456,81,20170,2,0,P|405:50|340:43,1,115,2|0,3:2|0:0,0:0:0:0:
360,124,20649,2,0,L|360:182,1,57.5,0|0,0:0|0:0,0:0:0:0:
406,314,20968,6,0,B|421:242|421:242|360:290|307:246,2,172.5,6|2|0,3:2|3:2|0:0,0:0:0:0:
360,181,22245,2,0,P|419:159|477:177,1,115,6|0,3:2|0:0,0:0:0:0:
485,276,22723,2,0,P|495:227|449:158,1,115,2|0,3:2|0:0,0:0:0:0:
442,97,23202,2,0,P|435:64|451:35,1,57.5,0|0,0:0|0:0,0:0:0:0:
368,104,23521,6,0,B|312:120|312:120|240:100,1,115,6|0,3:2|0:0,0:0:0:0:
184,80,24000,2,0,P|220:36|292:36,1,115,2|0,3:2|0:0,0:0:0:0:
257,104,24479,2,0,P|237:140|213:148,1,57.5
184,80,24798,6,0,B|123:33|123:33|148:76,1,115,8|0,0:0|3:0,0:0:0:0:
148,148,25277,2,0,P|148:192|96:240,1,115,8|0,0:0|3:0,0:0:0:0:
32,288,25755,2,0,L|68:316,3,28.75,2|2|2|2,0:0|0:0|0:0|0:0,0:0:0:0:
80,316,26074,6,0,L|152:312,1,66.1250012612343,6|0,3:2|0:0,0:0:0:0:
208,228,26394,2,0,L|136:232,1,66.1250012612343,10|0,0:0|0:0,0:0:0:0:
248,296,26713,2,0,P|276:272|272:180,1,132.250002522469,2|10,3:2|0:0,0:0:0:0:
232,116,27191,1,2,0:0:0:0:
372,168,27351,6,0,L|440:196,1,66.1250012612343,6|0,3:2|0:0,0:0:0:0:
448,280,27670,2,0,L|376:252,1,66.1250012612343,10|2,0:0|0:0,0:0:0:0:
316,312,27989,2,0,L|396:348,1,66.1250012612343,2|2,3:2|3:2,0:0:0:0:
386,256,28308,2,0,L|310:224,1,66.1250012612343,10|0,0:0|0:0,0:0:0:0:
216,196,28628,5,6,3:2:0:0:
288,164,28787,1,0,0:0:0:0:
256,264,28947,2,0,P|224:276|172:264,2,66.1250012612343,8|2|0,0:0|0:0|3:2,0:0:0:0:
180,188,29425,1,2,0:0:0:0:
108,220,29585,2,0,L|40:252,1,66.1250012612343,8|2,0:0|0:0,0:0:0:0:
180,188,29904,6,0,P|204:140|196:104,1,66.1250012612343,6|2,3:2|0:0,0:0:0:0:
143,60,30223,2,0,P|119:108|127:144,1,66.1250012612343,8|2,0:0|0:0,0:0:0:0:
180,188,30543,2,0,L|272:191,2,66.1250012612343,0|2|8,3:2|3:2|0:0,0:0:0:0:
119,118,31021,1,2,0:0:0:0:
260,118,31181,6,0,P|290:130|310:155,1,66.1250012612343,6|2,3:2|0:0,0:0:0:0:
264,261,31500,2,0,P|314:217|309:153,1,132.250002522469,8|0,0:0|3:2,0:0:0:0:
179,190,31979,2,0,L|245:190,1,66.1250012612343,2|10,0:0|0:0,0:0:0:0:
367,89,32298,6,0,P|426:58|493:98,1,132.250002522469,2|2,0:0|0:0,0:0:0:0:
428,136,32777,1,10,0:0:0:0:
296,60,32936,2,0,B|264:48|232:60|232:64|232:68|196:84|160:56,1,132.250002522469,2|2,0:0|3:2,0:0:0:0:
95,74,33415,2,0,P|63:98|58:141,1,66.1250012612343,8|2,0:0|0:0,0:0:0:0:
80,208,33734,6,0,B|92:240|92:240|44:276|60:336,1,132.250002522469,6|8,3:2|0:0,0:0:0:0:
116,380,34213,1,0,0:0:0:0:
184,340,34372,2,0,P|152:308|116:308,1,66.1250012612343,2|0,3:2|3:0,0:0:0:0:
57,325,34691,1,10,0:0:0:0:
0,268,34851,1,2,0:0:0:0:
52,208,35011,6,0,B|88:184|124:200|124:200|159:217|196:199|196:199|236:176|284:216,1,230,2|8,3:2|3:0,0:0:0:0:
340,248,35808,1,8,3:0:0:0:
272,284,35968,1,8,0:0:0:0:
270,206,36128,1,8,0:0:0:0:
402,207,36287,6,0,P|410:270|367:318,1,132.250002522469,4|8,3:0|0:0,0:0:0:0:
275,288,36766,1,0,0:0:0:0:
275,288,36925,2,0,P|263:248|279:208,2,66.1250012612343,2|0|8,0:0|3:0|0:0,0:0:0:0:
340,248,37404,1,0,0:0:0:0:
228,148,37564,6,0,L|144:112,1,66.1250012612343,2|0,3:2|0:0,0:0:0:0:
132,256,37883,2,0,L|205:201,1,66.1250012612343,10|0,0:0|0:0,0:0:0:0:
88,120,38202,2,0,L|98:210,2,66.1250012612343,2|2|8,3:2|3:2|0:0,0:0:0:0:
272,96,38840,6,0,B|312:96|328:68|328:68|344:96|392:100,1,132.250002522469,0|8,0:0|0:0,0:0:0:0:
452,60,39319,1,0,0:0:0:0:
372,176,39479,2,0,P|372:212|392:240,1,66.1250012612343,2|0,0:2|3:0,0:0:0:0:
472,332,39798,2,0,P|468:296|448:268,1,66.1250012612343,8|0,0:0|0:0,0:0:0:0:
332,328,40117,6,0,L|416:320,1,66.1250012612343,2|0,3:2|0:0,0:0:0:0:
512,184,40436,2,0,L|432:192,1,66.1250012612343,10|0,0:0|0:0,0:0:0:0:
256,200,40755,2,0,L|321:193,1,66.1250012612343,2|2,3:2|3:2,0:0:0:0:
387,236,41074,1,8,0:0:0:0:
264,314,41234,6,0,P|232:259|256:200,1,132.250002522469,2|2,0:0|0:0,0:0:0:0:
407,187,41713,1,8,0:0:0:0:
407,187,41872,2,0,P|375:242|312:252,1,132.250002522469,2|2,0:0|0:0,0:0:0:0:
229,120,42351,1,8,0:0:0:0:
229,120,42511,6,0,P|299:130|333:200,1,132.250002522469,2|2,0:0|0:0,0:0:0:0:
311,251,42989,1,8,0:0:0:0:
232,278,43149,1,2,0:0:0:0:
176,216,43308,2,0,L|96:196,2,66.1250012612343,0|2|10,3:0|3:2|0:0,0:0:0:0:
256,198,43787,1,2,0:0:0:0:
311,251,43947,6,0,P|319:295|304:328,1,66.1250012612343,2|0,3:2|0:0,0:0:0:0:
256,198,44266,2,0,L|268:122,1,66.1250012612343,10|0,0:0|0:0,0:0:0:0:
228,280,44585,2,0,B|184:300|184:300|72:276,1,132.250002522469,2|10,3:2|0:0,0:0:0:0:
36,232,45064,1,0,0:0:0:0:
111,203,45223,6,0,L|191:219,2,66.1250012612343,4|8|8,3:2|0:0|0:0,0:0:0:0:
68,136,45702,1,0,3:0:0:0:
144,108,45862,2,0,L|184:68,2,33.0625006306172,8|8|8,0:0|0:0|0:0,0:0:0:0:
276,104,46181,2,0,L|236:64,2,33.0625006306172,8|8|8,0:0|0:0|0:0,0:0:0:0:
336,168,46500,6,0,P|380:232|344:312,1,143.75,4|8,3:0|0:0,0:0:0:0:
284,320,46979,1,0,0:0:0:0:
232,212,47138,2,0,L|328:256,1,71.875,2|0,0:0|3:0,0:0:0:0:
364,291,47457,1,8,0:0:0:0:
297,241,47617,1,0,0:0:0:0:
208,296,47777,6,0,P|204:328|236:380,1,71.875,2|0,3:2|0:0,0:0:0:0:
356,359,48096,2,0,P|368:329|350:270,1,71.875,10|0,0:0|0:0,0:0:0:0:
297,241,48415,1,2,3:2:0:0:
363,290,48574,2,0,P|397:302|432:296,1,71.875,2|8,3:2|0:0,0:0:0:0:
208,356,49053,6,0,B|168:352|148:316|148:316|68:336,1,143.75,0|8,0:0|0:0,0:0:0:0:
52,256,49532,1,0,0:0:0:0:
52,256,49691,2,0,L|148:232,1,71.875,2|0,0:0|3:0,0:0:0:0:
286,257,50011,2,0,L|210:281,1,71.875,8|0,0:0|0:0,0:0:0:0:
121,238,50330,5,2,3:2:0:0:
217,278,50489,1,0,0:0:0:0:
200,160,50649,2,0,P|212:124|200:92,1,71.875,10|0,0:0|0:0,0:0:0:0:
264,224,50968,1,2,3:2:0:0:
267,227,51128,2,0,P|292:253|327:260,1,71.875,2|8,3:2|0:0,0:0:0:0:
396,80,51447,6,0,P|338:115|336:198,1,143.75,2|2,0:0|0:0,0:0:0:0:
468,268,51926,1,8,0:0:0:0:
468,268,52086,2,0,P|465:200|395:157,1,143.75,2|0,0:0|0:0,0:0:0:0:
268,240,52564,1,8,0:0:0:0:
268,240,52723,6,0,P|328:271|400:232,1,143.75,2|2,0:0|0:0,0:0:0:0:
466,117,53202,2,0,L|403:161,1,71.875,8|2,0:0|0:0,0:0:0:0:
335,109,53521,2,0,L|398:63,1,71.875,0|2,3:0|3:2,0:0:0:0:
333,191,53840,1,10,0:0:0:0:
267,239,54000,1,2,0:0:0:0:
372,320,54160,6,0,L|444:344,1,71.875,4|0,3:2|3:0,0:0:0:0:
464,328,54399,1,8,0:0:0:0:
480,312,54479,2,0,P|488:272|456:232,1,71.875,8|0,0:0|3:0,0:0:0:0:
424,176,54798,2,0,L|416:112,2,35.9375,8|8|8,0:0|0:0|0:0,0:0:0:0:
352,220,55117,2,0,L|268:200,1,71.875,0|8,3:0|0:0,0:0:0:0:
268,200,55356,1,8,0:0:0:0:
252,196,55436,5,8,3:2:0:0:
179,236,55596,1,0,0:0:0:0:
124,180,55755,1,8,0:0:0:0:
194,133,55915,1,8,0:0:0:0:
116,192,56074,2,0,L|84:224,3,35.9375,8|8|8|8,0:0|0:0|0:0|0:0,0:0:0:0:
84,248,56394,2,0,L|44:296,3,35.9375,8|8|8|8,0:0|0:0|0:0|0:0,0:0:0:0:
52,312,56713,5,6,3:2:0:0:
256,192,56872,12,0,59266,0:0:0:0:
296,196,61340,6,0,L|368:192,2,57.5,0|0|0,0:0|0:0|0:0,0:0:0:0:
236,244,61819,6,2,P|208:304|300:324,1,172.5,0|0,0:0|0:0,0:0:0:0:
352,296,62457,2,0,P|408:276|456:312,1,115,0|0,0:0|0:0,0:0:0:0:
504,248,62936,2,0,B|468:200|468:200|464:144|464:144|428:92,1,172.5,0|0,0:0|0:0,0:0:0:0:
288,52,63734,1,0,0:0:0:0:
320,200,64053,1,0,0:0:0:0:
360,136,64213,1,0,3:0:0:0:
284,128,64372,6,0,P|248:160|244:228,1,115,6|0,3:2|3:0,0:0:0:0:
352,272,64851,2,0,P|388:240|392:172,1,115,2|0,0:0|3:0,0:0:0:0:
320,200,65330,2,0,L|260:308,1,115,2|8,3:2|0:0,0:0:0:0:
187,323,65808,1,0,3:0:0:0:
128,271,65968,1,8,0:0:0:0:
68,325,66128,1,0,3:0:0:0:
128,271,66287,2,0,P|140:239|135:210,2,57.5,8|0|8,0:0|3:0|0:0,0:0:0:0:
60,230,66766,1,8,0:0:0:0:
60,230,66846,1,8,0:0:0:0:
60,230,66925,6,0,B|56:188|80:164|80:164|44:136|56:80,1,143.75,4|8,3:0|0:0,0:0:0:0:
100,28,67404,1,0,0:0:0:0:
180,60,67564,2,0,B|216:76|244:60|244:60|280:32|328:56,1,143.75,2|8,3:2|0:0,0:0:0:0:
376,112,68043,1,0,0:0:0:0:
324,180,68202,6,0,P|292:140|292:104,1,71.875,2|2,3:2|0:0,0:0:0:0:
376,112,68521,2,0,L|364:264,1,143.75,10|2,0:0|3:2,0:0:0:0:
368,340,69000,1,2,0:0:0:0:
446,313,69160,2,0,P|398:261|334:261,1,107.8125,8|0,0:0|0:0,0:0:0:0:
328,272,69479,6,0,P|280:284|240:260,1,71.875,6|0,3:2|0:0,0:0:0:0:
127,236,69798,2,0,P|160:223|195:230,1,71.875,8|0,0:0|0:0,0:0:0:0:
292,208,70117,2,0,L|308:40,1,143.75,2|8,3:2|0:0,0:0:0:0:
228,100,70596,1,0,0:0:0:0:
152,60,70755,6,0,P|108:48|72:72,1,71.875,2|0,3:2|0:0,0:0:0:0:
84,184,71074,2,0,P|116:151|113:108,1,71.875,10|2,0:0|0:0,0:0:0:0:
12,64,71394,2,0,P|23:108|62:127,1,71.875,2|2,3:2|0:0,0:0:0:0:
196,120,71713,2,0,P|236:144|244:188,1,71.875,10|2,0:0|0:0,0:0:0:0:
320,132,72032,6,0,P|280:68|204:40,1,143.75,6|8,3:2|0:0,0:0:0:0:
118,126,72511,1,0,0:0:0:0:
219,222,72670,2,0,P|283:192|320:132,1,143.75,2|8,3:2|0:0,0:0:0:0:
360,56,73149,1,0,0:0:0:0:
432,108,73308,6,0,P|456:132|460:200,1,71.875,2|2,3:2|0:0,0:0:0:0:
432,308,73628,2,0,P|456:284|460:216,1,71.875,10|0,0:0|0:0,0:0:0:0:
348,268,73947,6,0,L|296:348,1,71.875,2|2,3:2|0:0,0:0:0:0:
204,328,74266,2,0,L|164:267,1,71.875,10|0,0:0|0:0,0:0:0:0:
208,152,74585,6,0,P|212:112|180:68,1,71.875,6|0,3:2|0:0,0:0:0:0:
128,124,74904,1,10,0:0:0:0:
144,200,75064,1,2,3:2:0:0:
288,136,75223,2,0,L|392:120,1,71.875,10|2,0:0|3:2,0:0:0:0:
444,116,75543,1,10,0:0:0:0:
408,192,75702,1,2,3:2:0:0:
232,80,75862,6,0,P|204:48|208:4,1,71.875,10|2,3:2|3:2,0:0:0:0:
288,136,76181,2,0,P|312:168|308:220,1,71.875,10|2,0:0|3:2,0:0:0:0:
184,332,76500,2,0,P|160:292|164:256,1,71.875,10|2,0:0|3:2,0:0:0:0:
300,296,76819,2,0,L|356:320,3,35.9375,8|8|8|8,0:0|0:0|0:0|0:0,0:0:0:0:
368,316,77138,5,2,3:2:0:0:
400,280,77298,1,2,0:0:0:0:
408,236,77457,1,2,3:2:0:0:
392,192,77617,1,2,0:0:0:0:
356,164,77777,1,2,3:2:0:0:
376,108,78096,5,6,3:0:0:0:
439,156,78255,1,2,0:0:0:0:
463,233,78415,1,2,3:2:0:0:
448,312,78574,1,2,0:0:0:0:
387,365,78734,1,2,3:2:0:0:
256,216,79053,6,0,L|256:152,2,57.5,2|2|6,3:2|0:0|3:0,0:0:0:0:
144,316,79691,5,2,3:2:0:0:
112,280,79851,1,2,0:0:0:0:
104,236,80010,1,2,3:2:0:0:
120,192,80170,1,2,0:0:0:0:
156,164,80330,1,2,3:2:0:0:
136,108,80649,5,6,3:0:0:0:
70,154,80808,1,2,0:0:0:0:
48,231,80968,1,2,3:2:0:0:
64,312,81127,1,2,0:0:0:0:
124,365,81287,1,2,3:2:0:0:
256,216,81606,6,0,L|256:152,2,57.5,2|2|6,3:2|0:0|3:0,0:0:0:0:
300,284,82085,1,0,0:0:0:0:
212,284,82245,6,0,L|136:284,1,57.5,2|2,3:2|0:0,0:0:0:0:
300,284,82564,2,0,L|376:284,1,57.5,10|2,0:0|0:0,0:0:0:0:
184,360,82883,2,0,L|60:360,2,115,2|10|2,3:2|0:0|3:2,0:0:0:0:
256,384,83681,1,0,0:0:0:0:
328,360,83840,2,0,L|452:360,1,115,10|2,0:0|3:2,0:0:0:0:
472,288,84319,1,2,3:2:0:0:
432,224,84479,2,0,P|416:192|424:164,1,57.5,10|0,0:0|0:0,0:0:0:0:
464,112,84798,5,6,3:2:0:0:
336,220,85117,1,10,0:0:0:0:
332,64,85436,1,10,0:0:0:0:
332,64,85596,1,0,3:0:0:0:
256,104,85755,1,10,0:0:0:0:
256,104,85915,1,0,3:2:0:0:
180,64,86074,5,2,3:2:0:0:
180,64,86234,2,0,L|148:104,2,28.75,8|8|8,0:0|0:0|0:0,0:0:0:0:
256,104,86553,2,0,L|256:236,1,115,12|8,0:0|0:0,0:0:0:0:
260,296,87032,1,8,0:0:0:0:
196,340,87191,6,0,P|184:272|320:344,1,345,12|0,0:0|0:0,0:0:0:0:
