osu file format v14

[General]
AudioFilename: audio.mp3
AudioLeadIn: 0
PreviewTime: 36048
Countdown: 0
SampleSet: Soft
StackLeniency: 0.5
Mode: 0
LetterboxInBreaks: 0
WidescreenStoryboard: 1

[Editor]
Bookmarks: 19213,87351
DistanceSpacing: 1.55
BeatDivisor: 4
GridSize: 16
TimelineZoom: 2.1

[Metadata]
Title:Uso no Hibana
TitleUnicode:嘘の火花
Artist:96neko
ArtistUnicode:96猫
Creator:Nevo
Version:Lafa's Advanced
Source:クズの本懐
Tags:Kuzu no Honkai Scum's Wish opening OP armin a_r_m_i_n happyrocket88 shogunmoon byd bite you death shiratoi renumi sotarks lafayla
BeatmapID:1509645
BeatmapSetID:625669

[Difficulty]
HPDrainRate:4.5
CircleSize:3.7
OverallDifficulty:4.5
ApproachRate:6
SliderMultiplier:1.05
SliderTickRate:1

[Events]
//Background and Video events
0,0,"hanabi-wallpaper.jpg",0,0
//Break Periods
2,58828,63262
//Storyboard Layer 0 (Background)
//Storyboard Layer 1 (Fail)
//Storyboard Layer 2 (Pass)
//Storyboard Layer 3 (Foreground)
//Storyboard Sound Samples

[TimingPoints]
543,319.148936170213,4,2,1,70,1,0
543,-100,4,2,1,70,0,0
2617,-100,4,2,1,70,0,0
3096,-100,4,2,2,50,0,0
3415,-100,4,2,1,40,0,0
3894,-100,4,2,1,40,0,0
4213,-100,4,2,1,50,0,0
4372,-100,4,2,2,50,0,0
5649,-100,4,2,2,70,0,0
6287,-100,4,2,3,70,0,0
6447,-100,4,2,2,70,0,0
7245,-100,4,2,3,70,0,0
7404,-100,4,2,2,70,0,0
7883,-100,4,2,3,70,0,0
8043,-100,4,2,2,70,0,0
8840,-100,4,2,3,70,0,0
9000,-100,4,2,2,70,0,0
10117,-100,4,2,3,70,0,0
10277,-100,4,2,2,70,0,0
11394,-100,4,2,3,70,0,0
11553,-100,4,2,2,70,0,0
12351,-100,4,2,3,70,0,0
12511,-100,4,2,2,70,0,0
12989,-100,4,2,3,70,0,0
13149,-100,4,2,2,70,0,0
15862,-100,4,2,3,50,0,0
25755,-100,4,2,2,50,0,0
26074,-100,4,2,3,60,0,0
26234,-100,4,2,2,60,0,0
27351,-100,4,2,3,60,0,0
27511,-100,4,2,2,60,0,0
28628,-100,4,2,3,60,0,0
28787,-100,4,2,2,60,0,0
29904,-100,4,2,3,60,0,0
30064,-100,4,2,2,60,0,0
31181,-100,4,2,3,60,0,0
31340,-100,4,2,2,60,0,0
32457,-100,4,2,3,60,0,0
32617,-100,4,2,2,60,0,0
33734,-100,4,2,3,60,0,0
33894,-100,4,2,2,60,0,0
35011,-100,4,2,3,45,0,0
35489,-100,4,2,2,60,0,0
35569,-100,4,2,2,60,0,0
35649,-100,4,2,2,60,0,0
35729,-100,4,2,2,60,0,0
35808,-100,4,2,2,60,0,0
35888,-100,4,2,2,60,0,0
35968,-100,4,2,2,60,0,0
36287,-100,4,2,2,70,0,1
45223,-100,4,2,2,70,0,1
46340,-100,4,2,2,70,0,0
46500,-100,4,2,2,70,0,1
56713,-100,4,2,5,50,0,0
56872,-100,4,2,3,50,0,0
64372,-100,4,2,3,50,0,0
65649,-100,4,2,2,50,0,0
66925,-100,4,2,2,70,0,1
69479,-100,4,2,3,70,0,1
69638,-100,4,2,2,70,0,1
72032,-100,4,2,3,70,0,1
72191,-100,4,2,2,70,0,1
74585,-100,4,2,3,70,0,1
74745,-100,4,2,2,70,0,1
75862,-100,4,2,3,70,0,1
76021,-100,4,2,2,70,0,1
76181,-100,4,2,3,70,0,1
76340,-100,4,2,2,70,0,1
76500,-100,4,2,3,70,0,1
76660,-100,4,2,2,70,0,1
77138,-100,4,2,4,40,0,0
77777,-100,4,2,3,40,0,0
77936,-100,4,2,4,40,0,0
78734,-100,4,2,3,40,0,0
78894,-100,4,2,4,40,0,0
79372,-100,4,2,3,40,0,0
79532,-100,4,2,4,40,0,0
80330,-100,4,2,3,40,0,0
80489,-100,4,2,4,40,0,0
81287,-100,4,2,3,40,0,0
81447,-100,4,2,4,40,0,0
81925,-100,4,2,3,40,0,0
82245,-100,4,2,2,50,0,0
84798,-100,4,2,2,55,0,0
86074,-100,4,2,3,55,0,0
86234,-100,4,2,2,55,0,0
86553,-100,4,2,2,60,0,0
87191,-100,4,2,2,60,0,0

[Colours]
Combo1 : 255,160,200
Combo2 : 240,155,240
SliderBorder : 255,200,255
SliderTrackOverride : 55,35,55

[HitObjects]
510,334,543,6,0,P|452:340|395:331,1,105,0|0,0:0|0:0,0:0:0:0:
341,289,1021,2,0,P|290:275|241:289,1,105,0|0,0:0|0:0,0:0:0:0:
165,313,1500,6,0,P|159:255|168:198,1,105,0|0,0:0|0:0,0:0:0:0:
211,145,1978,2,0,P|224:94|211:44,1,105,0|0,0:0|0:0,0:0:0:0:
140,9,2457,1,0,0:0:0:0:
70,46,2617,2,0,L|20:65,2,52.5,8|8|8,0:3|0:3|0:3,0:0:0:0:
134,93,3096,1,4,3:2:0:0:
7,300,3894,6,0,L|58:292,1,52.5,0|0,3:0|3:0,0:0:0:0:
136,278,4213,1,0,3:0:0:0:
208,308,4372,2,0,P|257:322|307:308,1,105,0|8,3:0|0:0,0:0:0:0:
373,264,4851,1,0,3:0:0:0:
373,264,5011,2,0,L|428:276,1,52.5,8|0,0:0|3:0,0:0:0:0:
501,293,5330,1,8,0:0:0:0:
508,135,5649,6,0,P|455:139|403:134,1,105,6|10,3:2|0:0,0:0:0:0:
326,118,6128,1,2,0:0:0:0:
261,73,6287,2,0,P|211:58|162:74,1,105,2|10,0:0|0:0,0:0:0:0:
97,119,6766,1,2,0:0:0:0:
97,119,6925,2,0,B|27:104,2,52.5,2|2|10,0:0|0:0|0:0,0:0:0:0:
230,203,7564,2,0,B|281:192,2,52.5,2|2|10,0:0|0:0|0:0,0:0:0:0:
156,341,8202,6,0,P|207:337|259:340,1,105,2|10,0:0|0:0,0:0:0:0:
339,346,8681,1,2,0:0:0:0:
417,353,8840,2,0,P|464:333|491:288,1,105,2|10,0:0|0:0,0:0:0:0:
434,232,9319,1,2,0:0:0:0:
434,232,9479,2,0,B|381:239,2,52.5,2|2|10,0:0|0:0|0:0,0:0:0:0:
505,91,10117,2,0,B|453:79,1,52.5,2|2,0:0|0:0,0:0:0:0:
403,18,10436,2,0,B|350:25,1,52.5,10|2,0:0|0:0,0:0:0:0:
286,71,10755,6,0,P|232:76|179:72,1,105,2|10,0:0|0:0,0:0:0:0:
103,61,11234,1,2,0:0:0:0:
30,92,11394,2,0,P|5:136|11:187,1,105,2|10,0:0|0:0,0:0:0:0:
67,252,11873,1,2,0:0:0:0:
67,252,12032,2,0,B|31:290,2,52.5,2|2|10,0:0|0:0|0:0,0:0:0:0:
215,200,12670,2,0,B|251:162,2,52.5,2|2|10,0:0|0:0|0:0,0:0:0:0:
317,319,13308,5,6,3:2:0:0:
317,319,13628,2,0,B|365:298,1,52.5,10|2,0:0|0:0,0:0:0:0:
437,265,13947,2,0,P|452:215|442:164,1,105,2|2,0:0|0:0,0:0:0:0:
339,45,14585,6,0,P|306:85|259:108,1,105,0|0,0:0|0:0,0:0:0:0:
187,77,15064,1,0,0:0:0:0:
187,77,15223,2,0,L|138:94,1,52.5,0|0,0:0|0:0,0:0:0:0:
111,169,15543,2,0,L|60:162,1,52.5,8|0,0:0|0:0,0:0:0:0:
1,107,15862,1,6,3:2:0:0:
1,107,17138,6,0,P|77:87|153:105,1,157.5,6|2,3:2|3:2,0:0:0:0:
152,104,18096,1,0,0:0:0:0:
226,242,18415,6,0,P|150:263|73:246,1,157.5,6|2,3:2|3:2,0:0:0:0:
74,246,19372,1,0,0:0:0:0:
156,108,19691,2,0,P|232:88|308:106,1,157.5,6|2,3:2|3:2,0:0:0:0:
307,105,20649,1,0,0:0:0:0:
377,237,20968,6,0,P|301:258|225:241,1,157.5,6|2,3:2|3:2,0:0:0:0:
225,241,21925,1,0,0:0:0:0:
307,105,22245,2,0,P|235:88|144:115,1,157.5,6|2,3:2|3:2,0:0:0:0:
33,208,23043,6,0,L|41:259,2,52.5,0|0|0,0:0|0:0|0:0,0:0:0:0:
88,60,23681,2,0,L|67:9,2,52.5,0|0|2,0:0|0:0|3:2,0:0:0:0:
170,194,24319,2,0,L|177:246,2,52.5,0|0|0,0:0|0:0|0:0,0:0:0:0:
218,44,24957,2,0,L|271:50,1,52.5,0|0,0:0|3:0,0:0:0:0:
344,77,25277,2,0,L|350:23,2,52.5,8|0|0,0:0|0:0|3:0,0:0:0:0:
311,148,25755,2,0,L|295:199,1,52.5,2|2,0:0|0:0,0:0:0:0:
253,265,26074,6,0,P|201:277|150:264,1,105,6|10,3:2|0:0,0:0:0:0:
78,125,26713,2,0,L|50:81,2,52.5,2|0|10,3:2|0:0|0:0,0:0:0:0:
147,162,27191,1,2,0:0:0:0:
220,133,27351,2,0,P|270:122|321:135,1,105,6|10,3:2|0:0,0:0:0:0:
394,164,27830,1,2,0:0:0:0:
472,156,27989,2,0,L|500:112,2,52.5,2|2|10,3:2|3:2|0:0,0:0:0:0:
405,299,28628,6,0,L|454:316,2,52.5,6|0|8,3:2|0:0|0:0,0:0:0:0:
332,268,29106,2,0,L|280:276,1,52.5,2|0,0:0|3:2,0:0:0:0:
201,284,29425,1,2,0:0:0:0:
127,144,29745,2,0,P|123:92|128:40,1,105,2|2,0:0|0:0,0:0:0:0:
282,68,30383,2,0,P|284:120|280:172,1,105,2|2,0:0|3:2,0:0:0:0:
251,327,31021,1,2,0:0:0:0:
101,279,31340,6,0,L|48:267,2,52.5,2|8|0,0:0|0:0|0:0,0:0:0:0:
228,184,31979,2,0,L|280:172,2,52.5,2|10|2,0:0|0:0|0:0,0:0:0:0:
81,125,32617,2,0,L|28:113,2,52.5,2|10|2,0:0|0:0|0:0,0:0:0:0:
214,40,33255,2,0,P|266:38|318:41,1,105,2|2,3:2|0:0,0:0:0:0:
393,66,33734,2,0,P|442:81|491:66,1,105,6|8,3:2|0:0,0:0:0:0:
424,207,34372,6,0,P|409:256|424:305,1,105,2|10,3:2|0:0,0:0:0:0:
460,377,34851,2,0,L|407:384,1,52.5,2|2,0:0|3:2,0:0:0:0:
333,357,35170,2,0,L|284:340,1,52.5,0|0,0:0|0:0,0:0:0:0:
269,262,35489,2,0,L|302:222,2,52.5,0|8|8,0:0|3:0|3:0,0:0:0:0:
199,299,35968,1,8,0:0:0:0:
199,299,36128,6,0,P|150:314|101:299,1,105,8|0,0:0|0:0,0:0:0:0:
43,244,36606,2,0,L|69:198,1,52.5,8|0,0:0|0:0,0:0:0:0:
152,216,36925,2,0,L|185:176,1,52.5,2|0,0:0|3:0,0:0:0:0:
162,99,37245,2,0,L|207:72,1,52.5,8|0,0:0|0:0,0:0:0:0:
252,7,37564,2,0,L|315:2,2,52.5,2|0|10,3:2|0:0|0:0,0:0:0:0:
94,7,38202,1,2,3:2:0:0:
94,7,38362,1,2,3:2:0:0:
28,155,38681,6,0,P|52:200|98:223,1,105,0|0,0:0|0:0,0:0:0:0:
172,188,39160,2,0,L|222:197,1,52.5,8|0,0:0|0:0,0:0:0:0:
232,278,39479,2,0,L|278:300,1,52.5,2|0,0:2|3:0,0:0:0:0:
341,247,39799,2,0,L|380:280,1,52.5,8|0,0:0|0:0,0:0:0:0:
447,326,40117,2,0,L|452:389,2,52.5,2|0|10,3:2|0:0|0:0,0:0:0:0:
507,174,40755,1,2,3:2:0:0:
507,174,40915,1,2,3:2:0:0:
370,85,41234,6,0,P|318:82|266:84,1,105,2|2,0:0|0:0,0:0:0:0:
142,198,41872,2,0,P|194:201|246:199,1,105,2|2,0:0|0:0,0:0:0:0:
127,80,42511,2,0,P|74:76|22:78,1,105,2|2,0:0|0:0,0:0:0:0:
5,245,43149,2,0,P|29:290|75:313,1,105,2|2,0:0|3:2,0:0:0:0:
156,288,43628,2,0,L|221:306,1,52.5,10|2,0:0|0:0,0:0:0:0:
286,327,43947,6,0,P|337:328|390:326,1,105,2|10,3:2|0:0,0:0:0:0:
474,183,44585,2,0,P|421:180|368:182,1,105,2|10,3:2|0:0,0:0:0:0:
289,189,45064,1,0,0:0:0:0:
289,189,45223,2,0,L|262:234,2,52.5,4|8|8,3:2|0:0|0:0,0:0:0:0:
277,105,45702,1,0,3:0:0:0:
277,105,45862,2,0,L|324:56,1,52.5,8|8,0:0|0:0,0:0:0:0:
475,57,46340,6,0,P|501:100|500:151,1,105,8|0,0:0|0:0,0:0:0:0:
476,231,46819,2,0,L|445:273,1,52.5,8|0,0:0|0:0,0:0:0:0:
371,237,47138,2,0,L|330:270,1,52.5,2|0,0:0|3:0,0:0:0:0:
297,344,47457,2,0,L|249:366,1,52.5,8|0,0:0|0:0,0:0:0:0:
176,333,47777,2,0,L|130:377,2,52.5,2|0|10,3:2|0:0|0:0,0:0:0:0:
86,203,48415,1,2,3:2:0:0:
86,203,48575,1,2,3:2:0:0:
171,70,48894,6,0,P|221:87|270:72,1,105,0|0,0:0|0:0,0:0:0:0:
343,39,49372,2,0,L|377:79,1,52.5,8|0,0:0|0:0,0:0:0:0:
336,150,49691,2,0,L|358:197,1,52.5,2|0,0:0|3:0,0:0:0:0:
439,206,50011,2,0,L|442:259,1,52.5,8|0,0:0|0:0,0:0:0:0:
415,335,50330,2,0,L|463:376,2,52.5,2|0|10,3:2|0:0|0:0,0:0:0:0:
280,240,50968,1,2,3:2:0:0:
280,240,51128,1,2,3:2:0:0:
403,126,51447,6,0,P|455:123|507:126,1,105,2|2,0:0|0:0,0:0:0:0:
385,241,52085,2,0,P|332:243|280:240,1,105,2|0,0:0|0:0,0:0:0:0:
161,120,52724,2,0,P|213:118|266:121,1,105,2|2,0:0|0:0,0:0:0:0:
424,175,53362,2,0,P|468:148|488:100,1,105,2|2,0:0|3:2,0:0:0:0:
457,21,53841,2,0,L|393:15,1,52.5,10|2,0:0|0:0,0:0:0:0:
305,14,54160,6,0,P|252:13|200:15,1,105,4|8,3:2|0:0,0:0:0:0:
93,130,54798,2,0,P|145:133|197:131,1,105,8|0,0:0|3:0,0:0:0:0:
281,138,55277,1,8,0:0:0:0:
281,138,55436,2,0,L|332:125,2,52.5,8|0|8,3:2|0:0|0:0,0:0:0:0:
247,215,55915,2,0,L|213:255,1,52.5,8|8,0:0|0:0,0:0:0:0:
132,229,56235,2,0,L|91:264,1,52.5,8|8,0:0|0:0,0:0:0:0:
56,338,56553,1,8,0:0:0:0:
256,192,56713,12,0,58628,0:0:0:0:
153,93,64372,6,0,L|99:104,2,52.5,6|0|0,3:2|0:0|3:0,0:0:0:0:
208,32,64851,1,2,0:0:0:0:
208,32,65011,2,0,L|260:24,1,52.5,0|0,0:0|3:0,0:0:0:0:
331,68,65329,1,2,3:2:0:0:
491,98,65649,6,0,L|499:44,2,52.5,8|0|8,0:0|3:0|0:0,0:0:0:0:
512,177,66128,1,0,3:0:0:0:
512,177,66287,2,0,B|493:224,1,52.5,8|0,0:0|3:0,0:0:0:0:
464,302,66606,1,8,0:0:0:0:
304,315,66925,6,12,L|295:366,2,52.5,4|0|8,3:2|0:0|0:0,0:0:0:0:
316,235,67403,1,0,0:0:0:0:
311,154,67563,2,0,P|284:108|240:79,1,105,2|8,3:2|0:0,0:0:0:0:
158,67,68042,1,0,0:0:0:0:
75,81,68202,2,0,L|53:30,2,52.5,2|2|10,3:2|0:0|0:0,0:0:0:0:
157,227,68840,2,0,L|135:278,2,52.5,2|2|8,3:2|0:0|0:0,0:0:0:0:
241,79,69479,6,0,L|219:28,2,52.5,6|0|8,3:2|0:0|0:0,0:0:0:0:
268,159,69958,1,0,0:0:0:0:
333,210,70117,2,0,P|383:222|434:211,1,105,2|8,3:2|0:0,0:0:0:0:
484,144,70596,1,0,0:0:0:0:
447,68,70755,6,0,L|469:17,2,52.5,2|0|10,3:2|0:0|0:0,0:0:0:0:
385,125,71234,1,2,0:0:0:0:
319,71,71394,2,0,B|259:66,1,52.5,2|2,3:2|0:0,0:0:0:0:
203,124,71713,2,0,L|153:105,1,52.5,10|2,0:0|0:0,0:0:0:0:
73,79,72032,6,0,L|51:28,2,52.5,6|0|8,3:2|0:0|0:0,0:0:0:0:
45,158,72511,1,0,0:0:0:0:
52,241,72670,2,0,P|97:266|148:269,1,105,2|8,3:2|0:0,0:0:0:0:
229,241,73150,1,0,0:0:0:0:
295,290,73308,2,0,L|283:344,2,52.5,2|2|10,3:2|0:0|0:0,0:0:0:0:
365,137,73947,2,0,L|356:84,2,52.5,2|2|10,3:2|0:0|0:0,0:0:0:0:
489,249,74585,6,0,L|477:303,2,52.5,6|0|10,3:2|0:0|0:0,0:0:0:0:
501,165,75064,1,2,3:2:0:0:
478,84,75223,2,0,L|510:45,2,52.5,10|2|10,0:0|3:2|0:0,0:0:0:0:
396,108,75703,1,2,3:2:0:0:
327,62,75862,2,0,L|274:50,1,52.5,10|2,3:2|3:2,0:0:0:0:
239,124,76181,2,0,L|189:126,1,52.5,10|2,0:0|3:2,0:0:0:0:
133,62,76501,2,0,L|86:78,1,52.5,10|2,0:0|3:2,0:0:0:0:
5,110,76819,1,8,0:0:0:0:
106,230,77138,6,0,P|159:225|211:229,1,105,2|2,3:2|3:2,0:0:0:0:
288,240,77617,1,2,0:0:0:0:
288,240,77777,1,2,3:2:0:0:
196,367,78096,6,0,P|143:372|91:368,1,105,6|2,3:0|3:2,0:0:0:0:
18,356,78575,1,2,0:0:0:0:
18,356,78735,1,2,3:2:0:0:
7,199,79053,2,0,B|1:135,2,52.5,2|2|6,3:2|0:0|3:0,0:0:0:0:
157,152,79691,6,0,P|210:147|262:151,1,105,2|2,3:2|3:2,0:0:0:0:
339,162,80170,1,2,0:0:0:0:
339,162,80330,1,2,3:2:0:0:
402,306,80649,6,0,P|349:311|297:307,1,105,6|2,3:0|3:2,0:0:0:0:
223,298,81128,1,2,0:0:0:0:
223,298,81288,1,2,3:2:0:0:
207,141,81606,2,0,B|255:99,2,52.5,2|2|6,3:2|0:0|3:0,0:0:0:0:
52,186,82245,6,0,P|47:239|51:291,1,105,2|10,3:2|0:0,0:0:0:0:
65,370,82724,1,2,0:0:0:0:
65,370,82884,1,2,3:2:0:0:
218,320,83202,6,0,P|223:267|219:215,1,105,10|2,0:0|3:2,0:0:0:0:
208,140,83681,1,0,0:0:0:0:
208,140,83840,1,10,0:0:0:0:
54,105,84160,2,0,B|-10:99,2,52.5,2|2|10,3:2|3:2|0:0,0:0:0:0:
171,14,84798,6,0,P|223:11|275:15,1,105,6|10,3:2|0:0,0:0:0:0:
353,25,85277,1,0,0:0:0:0:
422,65,85436,2,0,B|454:24,2,52.5,10|0|10,0:0|3:0|0:0,0:0:0:0:
366,130,85915,6,0,P|362:182|367:234,1,105,0|8,3:2|0:0,0:0:0:0:
512,294,86553,2,0,P|515:241|510:189,1,105,12|8,0:0|0:0,0:0:0:0:
483,115,87032,1,8,0:0:0:0:
422,65,87191,1,12,0:0:0:0:
