osu file format v14

[General]
AudioFilename: audio.mp3
AudioLeadIn: 0
PreviewTime: -1
Countdown: 1
SampleSet: Soft
StackLeniency: 0.7
Mode: 0
LetterboxInBreaks: 0
WidescreenStoryboard: 0

[Editor]
DistanceSpacing: 2
BeatDivisor: 4
GridSize: 16
TimelineZoom: 2.999999

[Metadata]
Title:Uso no Hibana
TitleUnicode:Uso no Hibana
Artist:96neko
ArtistUnicode:96neko
Creator:LeNoobster12
Version:Insane
Source:Kuzu no Honkai
Tags:
BeatmapID:1487626
BeatmapSetID:703092

[Difficulty]
HPDrainRate:8
CircleSize:4
OverallDifficulty:9
ApproachRate:9
SliderMultiplier:1.6
SliderTickRate:1

[Events]
//Background and Video events
0,0,"thumb-1920-790829.png",0,0
//Break Periods
//Storyboard Layer 0 (Background)
//Storyboard Layer 1 (Fail)
//Storyboard Layer 2 (Pass)
//Storyboard Layer 3 (Foreground)
//Storyboard Sound Samples

[TimingPoints]
543,319.148936170213,4,2,0,30,1,0
8840,-133.333333333333,4,2,0,30,0,0
10436,-100,4,2,0,30,0,0
22245,-200,4,2,0,30,0,0
22723,-100,4,2,0,30,0,0
29745,-79.9999999999999,4,2,0,30,0,0
35489,-133.333333333333,4,2,0,30,0,0
36128,-100,4,2,0,30,0,1
38681,-166.666666666667,4,2,0,30,0,1
40915,-100,4,2,0,30,0,1
51447,-142.857142857143,4,2,0,30,0,1
52723,-100,4,2,0,30,0,1
56553,-200,4,2,0,30,0,1
56713,-100,4,2,0,30,0,0
66925,-100,4,2,0,30,0,1
77138,-100,4,2,0,30,0,0
82085,-200,4,2,0,30,0,0

[HitObjects]
481,131,543,6,0,P|447:103|386:77,1,80
464,245,862,1,0,0:0:0:0:
295,231,1021,2,0,P|323:265|349:326,1,80
143,284,1340,5,0,0:0:0:0:
54,191,1500,2,0,P|115:193|187:130,1,160
271,73,1979,2,0,L|348:109,1,80
253,229,2298,5,0,0:0:0:0:
253,229,2457,1,0,0:0:0:0:
236,331,2617,1,0,0:0:0:0:
150,225,2777,1,0,0:0:0:0:
256,139,2936,1,0,0:0:0:0:
342,245,3096,2,0,L|456:275,1,80
448,93,3415,5,0,0:0:0:0:
333,53,3574,2,0,B|293:30|293:30|226:30,1,80
100,81,3894,5,0,0:0:0:0:
100,81,3973,1,0,0:0:0:0:
100,81,4053,1,0,0:0:0:0:
100,81,4133,1,0,0:0:0:0:
76,119,4213,5,0,0:0:0:0:
60,150,4293,1,0,0:0:0:0:
44,181,4372,2,0,L|20:265,1,80
147,287,4691,5,0,0:0:0:0:
338,226,4851,1,0,0:0:0:0:
338,226,4931,1,0,0:0:0:0:
338,226,5011,1,0,0:0:0:0:
411,325,5170,5,0,0:0:0:0:
439,297,5249,1,0,0:0:0:0:
460,263,5329,1,0,0:0:0:0:
471,225,5409,1,0,0:0:0:0:
473,185,5489,1,0,0:0:0:0:
340,76,5649,5,0,0:0:0:0:
97,118,5808,1,0,0:0:0:0:
346,198,5968,1,0,0:0:0:0:
124,255,6128,1,0,0:0:0:0:
327,312,6287,2,0,P|353:348|405:369,1,80
144,96,6606,5,0,0:0:0:0:
144,96,6766,1,0,0:0:0:0:
308,45,6925,1,0,0:0:0:0:
308,45,7085,1,0,0:0:0:0:
406,158,7245,2,0,P|434:136|491:115,1,80
358,318,7564,5,0,0:0:0:0:
358,318,7724,1,0,0:0:0:0:
188,319,7883,2,0,P|157:295|165:244,1,80
119,174,8202,5,0,0:0:0:0:
119,174,8362,1,0,0:0:0:0:
32,69,8521,1,0,0:0:0:0:
32,69,8681,1,0,0:0:0:0:
32,69,8841,2,0,L|76:6,1,60.0000022888184
179,133,9160,5,0,0:0:0:0:
179,133,9320,1,0,0:0:0:0:
284,46,9479,1,0,0:0:0:0:
284,46,9639,1,0,0:0:0:0:
284,46,9799,2,0,L|347:90,1,60.0000022888184
397,137,10117,5,0,0:0:0:0:
436,217,10277,1,0,0:0:0:0:
374,284,10436,2,0,B|336:290|336:290|276:276,1,80
215,242,10755,5,0,0:0:0:0:
215,242,10915,1,0,0:0:0:0:
110,329,11074,1,0,0:0:0:0:
110,329,11234,1,0,0:0:0:0:
110,329,11394,2,0,L|32:272,1,80
81,200,11713,5,0,0:0:0:0:
124,104,11872,1,0,0:0:0:0:
335,123,12032,1,0,0:0:0:0:
245,42,12191,1,0,0:0:0:0:
240,190,12351,2,0,P|230:151|198:109,1,80
126,76,12670,5,0,0:0:0:0:
69,135,12830,1,0,0:0:0:0:
69,135,12989,2,0,P|42:163|18:210,1,80
167,181,13308,6,0,P|190:205|239:221,1,80
356,48,13628,1,0,0:0:0:0:
465,214,13787,1,0,0:0:0:0:
283,71,13947,1,0,0:0:0:0:
266,268,14106,1,0,0:0:0:0:
171,188,14266,1,0,0:0:0:0:
5,297,14425,1,0,0:0:0:0:
32,124,14585,6,0,B|29:88|29:88|-2:41,1,80
175,93,14904,1,0,0:0:0:0:
253,31,15064,1,0,0:0:0:0:
345,35,15223,1,0,0:0:0:0:
444,185,15383,5,0,0:0:0:0:
430,202,15462,1,0,0:0:0:0:
415,217,15542,1,0,0:0:0:0:
398,231,15622,1,0,0:0:0:0:
380,243,15702,1,0,0:0:0:0:
360,252,15781,1,0,0:0:0:0:
338,261,15862,6,0,L|251:279,1,80
106,205,16181,1,0,0:0:0:0:
46,301,16340,1,0,0:0:0:0:
37,128,16500,2,0,P|35:84|41:32,1,80
231,55,16819,5,0,0:0:0:0:
335,118,16979,1,0,0:0:0:0:
470,125,17138,2,0,P|481:169|451:295,1,160
394,331,17617,6,0,P|360:305|304:286,1,80
140,190,17936,1,0,0:0:0:0:
62,273,18096,1,0,0:0:0:0:
66,107,18255,1,0,0:0:0:0:
192,64,18415,6,0,P|290:8|347:1,1,160
393,96,18894,1,0,0:0:0:0:
416,201,19053,2,0,B|438:234|438:234|498:259,1,80
280,256,19372,5,0,0:0:0:0:
280,256,19532,1,0,0:0:0:0:
172,264,19691,1,0,0:0:0:0:
105,143,19851,2,0,B|70:122|70:122|70:51,1,80
217,45,20170,6,0,P|259:56|301:58,1,80
398,126,20489,1,0,0:0:0:0:
398,126,20649,1,0,0:0:0:0:
468,241,20808,1,0,0:0:0:0:
363,238,20968,6,0,L|289:192,1,80
196,298,21287,2,0,P|157:287|104:241,1,80
105,159,21606,2,0,P|143:148|176:126,1,80
235,189,21925,2,0,P|260:158|297:143,1,80
306,225,22245,2,0,P|280:255|244:271,1,80
58,184,22723,6,0,P|51:143|81:88,1,80
160,64,23043,1,0,0:0:0:0:
256,44,23202,5,0,0:0:0:0:
364,120,23362,2,0,P|396:95|459:95,1,80
452,242,23681,1,0,0:0:0:0:
452,242,23840,1,0,0:0:0:0:
208,288,24000,6,0,P|169:286|117:308,1,80
208,288,24319,1,0,0:0:0:0:
200,203,24479,2,0,P|232:179|270:167,1,80
408,89,24798,5,0,0:0:0:0:
408,89,24878,1,0,0:0:0:0:
408,89,24957,2,0,L|326:103,1,80
206,69,25277,1,0,0:0:0:0:
206,69,25356,1,0,0:0:0:0:
206,69,25436,2,0,L|134:117,1,80
77,208,25755,5,0,0:0:0:0:
78,227,25834,1,0,0:0:0:0:
82,247,25914,1,0,0:0:0:0:
90,265,25994,1,0,0:0:0:0:
101,282,26074,5,0,0:0:0:0:
225,276,26234,1,0,0:0:0:0:
389,187,26394,1,0,0:0:0:0:
180,114,26553,2,0,L|236:131,1,40
263,62,26713,2,0,P|235:39|173:40,1,80
63,70,27032,2,0,B|54:108|54:108|61:152,1,80
241,163,27351,6,0,P|284:169|326:209,1,80
382,310,27670,1,0,0:0:0:0:
382,310,27830,1,0,0:0:0:0:
220,297,27989,1,0,0:0:0:0:
220,297,28149,1,0,0:0:0:0:
145,195,28308,6,0,P|106:215|85:256,1,80
66,129,28628,1,0,0:0:0:0:
66,129,28787,1,0,0:0:0:0:
66,129,28947,1,0,0:0:0:0:
167,96,29106,6,0,L|259:42,1,80
387,24,29425,2,0,P|408:45|404:97,1,80
270,271,29745,6,0,P|220:287|154:290,1,100
167,236,30064,2,0,P|216:231|263:215,1,100
256,159,30383,2,0,P|209:175|160:180,1,100
153,124,30702,2,0,P|202:119|249:103,1,100
242,47,31021,2,0,P|195:63|146:68,1,100
411,56,31340,6,0,L|481:151,1,100
422,255,31660,2,0,L|492:350,1,100
318,320,31979,1,0,0:0:0:0:
221,303,32138,1,0,0:0:0:0:
110,181,32298,2,0,P|104:229|140:286,1,100
214,216,32617,5,0,0:0:0:0:
311,199,32776,1,0,0:0:0:0:
422,77,32936,2,0,P|428:125|392:182,1,100
289,94,33255,6,0,P|241:71|174:66,1,100
99,90,33574,1,0,0:0:0:0:
98,199,33734,2,0,P|67:281|87:313,2,100
206,99,34213,1,0,0:0:0:0:
368,56,34372,6,0,P|403:83|451:154,1,100
348,146,34691,1,0,0:0:0:0:
322,235,34851,2,0,P|286:208|239:137,1,100
172,74,35170,2,0,P|125:101|94:159,1,100
113,224,35489,2,0,P|140:270|213:315,1,120.000004577637
345,254,35968,5,0,0:0:0:0:
388,277,36047,1,0,0:0:0:0:
437,290,36128,2,0,P|458:257|471:203,1,80
434,84,36447,5,0,0:0:0:0:
169,127,36606,1,0,0:0:0:0:
302,313,36766,2,0,P|266:292|244:240,1,80
65,234,37085,5,0,0:0:0:0:
195,42,37245,1,0,0:0:0:0:
391,106,37404,1,0,0:0:0:0:
473,162,37564,1,0,0:0:0:0:
341,230,37723,1,0,0:0:0:0:
289,358,37883,2,0,P|248:333|208:279,1,80
111,185,38202,1,0,0:0:0:0:
235,92,38362,2,0,P|275:81|331:47,1,80
451,199,38681,6,0,P|429:241|383:269,1,95.9999970703126
220,248,39160,1,0,0:0:0:0:
98,168,39319,1,0,0:0:0:0:
178,46,39479,5,0,0:0:0:0:
300,126,39638,1,0,0:0:0:0:
142,236,39798,1,0,0:0:0:0:
109,92,39957,1,0,0:0:0:0:
251,60,40117,1,0,0:0:0:0:
284,203,40276,1,0,0:0:0:0:
457,294,40436,5,0,0:0:0:0:
388,91,40596,1,0,0:0:0:0:
307,280,40755,1,0,0:0:0:0:
163,198,40915,2,0,P|179:239|222:273,1,80
407,118,41234,6,0,P|386:80|344:49,1,80
105,118,41553,2,0,P|125:80|168:49,1,80
359,203,41872,2,0,P|388:229|407:264,1,80
155,201,42191,2,0,P|125:227|106:262,1,80
221,317,42511,2,0,B|261:330|261:330|327:322,1,80
378,145,42830,6,0,B|391:105|391:105|383:39,1,80
251,48,43149,2,0,B|227:77|227:77|218:118,1,80
161,219,43468,1,0,0:0:0:0:
396,246,43628,1,0,0:0:0:0:
153,343,43787,1,0,0:0:0:0:
254,116,43947,6,0,P|288:134|322:169,1,80
148,86,44266,2,0,P|121:57|79:34,1,80
118,199,44585,2,0,P|89:224|64:266,1,80
215,260,44904,2,0,P|243:234|268:192,1,80
135,51,45223,5,0,0:0:0:0:
85,191,45383,1,0,0:0:0:0:
253,115,45543,1,0,0:0:0:0:
215,260,45702,1,0,0:0:0:0:
437,260,45862,1,0,0:0:0:0:
437,260,45941,1,0,0:0:0:0:
437,260,46021,1,0,0:0:0:0:
407,80,46181,5,0,0:0:0:0:
407,80,46261,1,0,0:0:0:0:
407,80,46340,2,0,P|365:68|307:86,1,80
118,60,46660,5,0,0:0:0:0:
206,163,46819,1,0,0:0:0:0:
133,285,46979,1,0,0:0:0:0:
288,325,47138,5,0,0:0:0:0:
380,211,47298,1,0,0:0:0:0:
494,303,47457,1,0,0:0:0:0:
434,93,47617,5,0,0:0:0:0:
434,93,47777,1,0,0:0:0:0:
213,59,47936,1,0,0:0:0:0:
213,59,48096,1,0,0:0:0:0:
44,206,48255,1,0,0:0:0:0:
154,296,48415,1,0,0:0:0:0:
154,296,48574,2,0,P|198:304|257:284,1,80
472,162,48894,6,0,P|448:139|381:130,1,80
271,120,49213,1,0,0:0:0:0:
112,55,49372,1,0,0:0:0:0:
271,120,49532,5,0,0:0:0:0:
112,55,49691,1,0,0:0:0:0:
47,302,49851,5,0,0:0:0:0:
206,237,50010,1,0,0:0:0:0:
41,191,50170,5,0,0:0:0:0:
206,237,50329,1,0,0:0:0:0:
327,0,50489,5,0,0:0:0:0:
280,165,50649,1,0,0:0:0:0:
439,129,50808,1,0,0:0:0:0:
431,300,50968,1,0,0:0:0:0:
225,242,51128,2,0,P|184:220|140:166,1,80
55,82,51447,6,0,P|89:61|129:59,1,55.9999982910157
319,119,51766,2,0,P|285:98|245:96,1,55.9999982910157
55,156,52085,2,0,P|89:135|129:133,1,55.9999982910157
319,193,52404,2,0,P|285:172|245:170,1,55.9999982910157
80,269,52723,6,0,P|118:299|177:307,1,80
250,309,53043,2,0,P|298:300|343:262,1,80
368,63,53362,2,0,P|401:90|461:104,1,80
109,38,53681,5,0,0:0:0:0:
44,119,53840,1,0,0:0:0:0:
158,123,54000,1,0,0:0:0:0:
37,251,54160,6,0,P|62:285|121:303,1,80
132,218,54479,2,0,P|167:235|190:268,1,80
312,301,54798,2,0,P|356:292|397:245,1,80
386,148,55117,5,0,0:0:0:0:
386,148,55277,1,0,0:0:0:0:
278,58,55436,1,0,0:0:0:0:
278,58,55596,1,0,0:0:0:0:
123,78,55755,1,0,0:0:0:0:
123,78,55915,1,0,0:0:0:0:
278,166,56074,5,0,0:0:0:0:
232,251,56234,1,0,0:0:0:0:
137,227,56394,1,0,0:0:0:0:
93,316,56553,2,0,P|129:334|186:332,1,80
329,315,57032,5,0,0:0:0:0:
408,213,57191,1,0,0:0:0:0:
427,88,57351,2,0,P|402:54|345:37,1,80
196,42,57670,5,0,0:0:0:0:
276,122,57830,1,0,0:0:0:0:
176,178,57989,1,0,0:0:0:0:
276,242,58149,1,0,0:0:0:0:
276,242,58308,2,0,P|256:278|211:294,1,80
44,269,58628,5,0,0:0:0:0:
48,157,58787,1,0,0:0:0:0:
111,250,58947,2,0,P|144:213|156:174,1,80
254,73,59266,5,0,0:0:0:0:
404,49,59425,1,0,0:0:0:0:
482,177,59585,1,0,0:0:0:0:
402,302,59745,1,0,0:0:0:0:
402,302,59904,2,0,P|376:333|361:394,1,80
248,321,60223,5,0,0:0:0:0:
179,177,60383,1,0,0:0:0:0:
36,228,60543,1,0,0:0:0:0:
90,73,60702,1,0,0:0:0:0:
232,52,60862,5,0,0:0:0:0:
331,108,61021,1,0,0:0:0:0:
416,188,61181,1,0,0:0:0:0:
311,244,61340,1,0,0:0:0:0:
197,180,61500,1,0,0:0:0:0:
229,301,61660,1,0,0:0:0:0:
67,213,61820,5,0,0:0:0:0:
67,213,61979,1,0,0:0:0:0:
146,34,62138,1,0,0:0:0:0:
146,34,62298,1,0,0:0:0:0:
290,41,62457,2,0,P|335:22|441:51,1,160
402,168,62936,5,0,0:0:0:0:
274,229,63096,1,0,0:0:0:0:
480,235,63255,1,0,0:0:0:0:
352,296,63415,2,0,P|316:322|259:333,1,80
60,241,63734,5,0,0:0:0:0:
177,133,63894,1,0,0:0:0:0:
51,123,64053,2,0,B|41:83|41:83|17:42,1,80
274,29,64372,6,0,P|351:58|418:117,1,160
370,224,64851,1,0,0:0:0:0:
192,286,65011,1,0,0:0:0:0:
56,158,65170,1,0,0:0:0:0:
125,108,65330,5,0,0:0:0:0:
130,236,65489,1,0,0:0:0:0:
213,75,65649,1,0,0:0:0:0:
243,249,65808,1,0,0:0:0:0:
310,37,65968,1,0,0:0:0:0:
351,274,66128,1,0,0:0:0:0:
426,169,66287,6,0,B|426:126|426:126|398:81,1,80
221,97,66606,1,0,0:0:0:0:
177,124,66686,1,0,0:0:0:0:
136,151,66766,1,0,0:0:0:0:
93,174,66845,1,0,0:0:0:0:
44,187,66925,5,0,0:0:0:0:
66,56,67085,1,0,0:0:0:0:
201,90,67245,2,0,P|238:113|259:163,1,80
365,206,67564,2,0,P|374:167|365:129,1,80
305,47,67883,5,0,0:0:0:0:
305,47,68043,1,0,0:0:0:0:
91,59,68202,1,0,0:0:0:0:
91,59,68362,1,0,0:0:0:0:
63,186,68521,2,0,P|92:217|143:232,1,80
179,213,68840,5,0,0:0:0:0:
287,276,69000,1,0,0:0:0:0:
404,326,69160,2,0,P|436:304|456:260,1,80
378,253,69479,5,0,0:0:0:0:
378,253,69639,1,0,0:0:0:0:
350,52,69798,1,0,0:0:0:0:
350,52,69958,1,0,0:0:0:0:
183,37,70117,2,0,P|148:10|97:2,1,80
37,112,70436,5,0,0:0:0:0:
161,172,70596,1,0,0:0:0:0:
52,203,70755,1,0,0:0:0:0:
176,263,70915,1,0,0:0:0:0:
67,294,71074,1,0,0:0:0:0:
191,354,71234,1,0,0:0:0:0:
327,267,71394,5,0,0:0:0:0:
425,162,71553,1,0,0:0:0:0:
294,144,71713,1,0,0:0:0:0:
377,32,71872,1,0,0:0:0:0:
242,27,72032,5,0,0:0:0:0:
160,96,72191,1,0,0:0:0:0:
203,189,72351,1,0,0:0:0:0:
120,253,72511,1,0,0:0:0:0:
206,305,72670,2,0,P|251:319|291:358,1,80
406,277,72989,5,0,0:0:0:0:
487,176,73149,1,0,0:0:0:0:
382,101,73308,1,0,0:0:0:0:
291,199,73468,1,0,0:0:0:0:
291,199,73628,2,0,P|246:206|188:172,1,80
132,108,73947,5,0,0:0:0:0:
50,36,74106,1,0,0:0:0:0:
40,193,74266,2,0,P|60:227|128:241,1,80
190,293,74585,6,0,P|225:321|276:318,1,80
367,278,74904,1,0,0:0:0:0:
367,278,75064,1,0,0:0:0:0:
425,166,75223,1,0,0:0:0:0:
425,166,75383,1,0,0:0:0:0:
319,93,75543,1,0,0:0:0:0:
319,93,75702,1,0,0:0:0:0:
203,61,75862,5,0,0:0:0:0:
72,31,76021,1,0,0:0:0:0:
42,156,76181,1,0,0:0:0:0:
74,279,76340,1,0,0:0:0:0:
194,234,76500,1,0,0:0:0:0:
314,276,76660,1,0,0:0:0:0:
411,199,76819,5,0,0:0:0:0:
411,199,76899,1,0,0:0:0:0:
411,199,76979,1,0,0:0:0:0:
411,199,77058,1,0,0:0:0:0:
411,199,77138,5,0,0:0:0:0:
345,22,77298,1,0,0:0:0:0:
345,22,77457,1,0,0:0:0:0:
345,22,77617,1,0,0:0:0:0:
345,22,77777,2,0,P|297:25|253:-6,1,80
139,68,78096,5,0,0:0:0:0:
139,68,78255,1,0,0:0:0:0:
139,68,78415,1,0,0:0:0:0:
139,68,78574,1,0,0:0:0:0:
139,68,78734,2,0,P|142:115|111:160,1,80
67,258,79053,5,0,0:0:0:0:
152,299,79213,1,0,0:0:0:0:
247,264,79372,2,0,B|273:234|273:234|313:230,1,80
466,285,79691,5,0,0:0:0:0:
466,285,79850,1,0,0:0:0:0:
466,285,80010,1,0,0:0:0:0:
466,285,80169,1,0,0:0:0:0:
466,285,80329,2,0,P|462:237|494:193,1,80
303,122,80649,5,0,0:0:0:0:
303,122,80808,1,0,0:0:0:0:
303,122,80968,1,0,0:0:0:0:
303,122,81127,1,0,0:0:0:0:
303,122,81287,2,0,P|255:125|211:94,1,80
82,125,81606,5,0,0:0:0:0:
140,272,81766,1,0,0:0:0:0:
140,272,81846,1,0,0:0:0:0:
140,272,81925,1,0,0:0:0:0:
270,288,82085,6,0,B|414:287|320:226|432:224,1,180
429,128,82883,2,0,L|342:96,1,80
250,106,83362,2,0,L|145:192,1,120
63,281,84319,5,0,0:0:0:0:
63,281,84479,1,0,0:0:0:0:
63,281,84638,2,0,B|158:273|113:318|235:276,1,160
321,345,85436,2,0,P|337:308|346:264,1,80
296,189,85915,2,0,P|252:195|207:173,1,80
192,117,86394,1,0,0:0:0:0:
192,117,86553,2,0,B|156:86|156:86|107:79,1,80
62,279,87032,1,0,0:0:0:0:
256,192,87191,12,0,88947,0:0:0:0:
