osu file format v14

[General]
AudioFilename: audio.mp3
AudioLeadIn: 0
PreviewTime: 36463
Countdown: 0
SampleSet: Soft
StackLeniency: 0.2
Mode: 0
LetterboxInBreaks: 0
WidescreenStoryboard: 0

[Editor]
DistanceSpacing: 0.5
BeatDivisor: 4
GridSize: 4
TimelineZoom: 1.8

[Metadata]
Title:Uso no Hibana
TitleUnicode:嘘の火花
Artist:96neko
ArtistUnicode:96猫
Creator:Kibbleru
Version:toybot's Extra
Source:クズの本懐
Tags:Kuzu Honkai scum's scums scum wish Kocari iWinnie Momochikun Mochi sahuang My_Angel_Azusa My Angel Azusa toybot opening
BeatmapID:1180633
BeatmapSetID:557651

[Difficulty]
HPDrainRate:6
CircleSize:4.5
OverallDifficulty:8
ApproachRate:9.2
SliderMultiplier:1.6
SliderTickRate:1

[Events]
//Background and Video events
0,0,"752735.jpg",0,0
Video,220,"optc.flv"
//Break Periods
//Storyboard Layer 0 (Background)
//Storyboard Layer 1 (Fail)
//Storyboard Layer 2 (Pass)
//Storyboard Layer 3 (Foreground)
//Storyboard Sound Samples

[TimingPoints]
878,319.148936170213,4,2,1,40,1,0
878,-133.333333333333,4,2,1,40,0,0
4229,-100,4,2,1,50,0,0
4707,-133.333333333333,4,2,1,60,0,0
5026,-100,4,2,1,60,0,0
5346,-80,4,2,1,60,0,0
5984,-100,4,2,1,60,0,0
16197,-133.333333333333,4,2,1,60,0,0
16516,-133.333333333333,4,2,1,40,0,0
25133,-133.333333333333,4,2,1,50,0,0
25612,-100,4,2,1,50,0,0
26409,-100,4,2,1,60,0,0
27287,-100,4,2,1,5,0,0
27367,-100,4,2,1,60,0,0
28883,-100,4,2,1,5,0,0
28963,-100,4,2,1,60,0,0
35186,-166.666666666667,4,2,1,60,0,0
35984,-66.6666666666667,4,2,1,60,0,0
36303,-66.6666666666667,4,2,1,70,0,0
36463,-90.9090909090909,4,2,1,70,0,0
36622,-90.9090909090909,4,2,1,70,0,1
41489,-90.9090909090909,4,2,1,5,0,1
41569,-90.9090909090909,4,2,1,70,0,1
45558,-90.9090909090909,4,2,1,70,0,0
46197,-80,4,2,1,70,0,0
46835,-90.9090909090909,4,2,1,70,0,1
49468,-90.9090909090909,4,2,1,5,0,1
49548,-90.9090909090909,4,2,1,70,0,1
57048,-166.666666666667,4,2,1,70,0,0
57128,-166.666666666667,4,2,1,50,0,0
64707,-166.666666666667,4,2,1,60,0,0
65186,-125,4,2,1,60,0,0
65665,-100,4,2,1,60,0,0
66941,-100,4,2,1,70,0,0
67260,-90.9090909090909,4,2,1,70,0,1
68138,-90.9090909090909,4,2,1,5,0,1
68218,-90.9090909090909,4,2,1,70,0,1
70691,-90.9090909090909,4,2,1,5,0,1
70771,-90.9090909090909,4,2,1,70,0,1
73245,-90.9090909090909,4,2,1,5,0,1
73324,-90.9090909090909,4,2,1,70,0,1
77154,-80,4,2,1,70,0,1
77473,-133.333333333333,4,2,1,50,0,0
85931,-133.333333333333,4,2,1,60,0,0
86250,-111.111111111111,4,2,1,60,0,0
86729,-111.111111111111,4,2,1,70,0,0
86888,-90.9090909090909,4,2,1,70,0,0
87526,-111.111111111111,4,2,1,70,0,0
88165,-111.111111111111,4,2,1,20,0,0

[Colours]
Combo1 : 90,243,201
Combo2 : 249,160,28
Combo3 : 255,153,242
Combo4 : 130,47,255

[HitObjects]
172,200,878,6,0,B|216:208|248:160|248:160|236:216,1,120.000004577637,12|0,0:1|0:0,0:0:0:0:
184,44,1356,2,0,B|155:78|180:129|180:129|138:91,1,120.000004577637,2|0,0:0|0:0,0:0:0:0:
313,132,1835,2,0,B|297:89|240:86|240:86|294:68,1,120.000004577637,2|0,0:0|0:0,0:0:0:0:
282,73,2314,6,0,L|406:89,1,120.000004577637,2|2,0:0|0:0,0:0:0:0:
468,52,2792,1,0,0:0:0:0:
512,164,2952,5,8,0:3:0:0:
436,172,3112,1,8,0:3:0:0:
408,264,3271,1,4,0:3:0:0:
332,272,3431,6,0,L|200:252,1,120.000004577637,12|0,0:1|0:0,0:0:0:0:
116,296,3909,2,0,P|84:252|104:180,1,120.000004577637,2|0,0:0|3:2,0:0:0:0:
144,136,4308,1,0,3:2:0:0:
144,136,4388,5,0,3:2:0:0:
141,113,4467,1,0,3:0:0:0:
138,91,4548,1,8,0:0:0:0:
135,68,4627,1,8,0:0:0:0:
133,46,4707,5,8,0:1:0:0:
260,116,4867,2,0,L|312:104,1,30.0000011444092,8|8,0:0|0:0,0:0:0:0:
144,136,5026,5,8,0:0:0:0:
304,192,5186,2,0,L|364:176,1,40,8|8,0:0|0:0,0:0:0:0:
154,225,5346,5,8,0:0:0:0:
352,264,5505,2,0,L|419:245,1,50,8|8,0:1|0:1,0:0:0:0:
165,315,5665,5,8,0:1:0:0:
162,292,5744,1,8,0:0:0:0:
159,270,5824,1,8,0:1:0:0:
156,247,5904,1,8,0:0:0:0:
154,225,5984,5,12,0:1:0:0:
248,324,6143,1,0,0:0:0:0:
76,280,6303,1,10,0:0:0:0:
232,196,6463,1,0,0:0:0:0:
76,280,6622,2,0,P|24:288|-16:280,1,80,10|0,0:1|0:0,0:0:0:0:
248,324,6941,2,0,P|287:320|326:328,1,80,10|0,0:0|0:0,0:0:0:0:
154,225,7260,5,10,0:1:0:0:
165,315,7420,1,2,0:0:0:0:
143,135,7580,2,0,L|132:32,1,80,10|0,0:0|0:0,0:0:0:0:
360,180,7899,5,10,0:1:0:0:
349,270,8059,1,2,0:0:0:0:
371,90,8219,2,0,L|382:-13,1,80,10|0,0:0|0:0,0:0:0:0:
276,215,8538,5,10,0:1:0:0:
433,235,8697,1,0,0:0:0:0:
264,305,8856,1,10,0:0:0:0:
287,123,9016,1,0,0:0:0:0:
349,270,9175,2,0,P|360:320|352:368,1,80,10|0,0:1|0:0,0:0:0:0:
202,158,9495,2,0,P|191:108|199:60,1,80,10|0,0:0|0:0,0:0:0:0:
287,123,9814,5,10,0:1:0:0:
108,152,9973,1,2,0:0:0:0:
184,1,10133,2,0,P|194:40|193:80,1,80,10|0,0:0|0:0,0:0:0:0:
100,256,10452,5,8,0:1:0:0:
72,57,10612,1,2,0:0:0:0:
210,201,10771,1,8,0:0:0:0:
14,165,10931,1,2,0:0:0:0:
193,78,11090,6,0,P|252:72|296:80,1,80,10|0,0:1|0:0,0:0:0:0:
179,259,11409,2,0,P|139:261|99:255,1,80,10|0,0:0|0:0,0:0:0:0:
240,164,11729,2,0,B|320:148|308:204|404:188,1,160,10|10,0:1|0:0,0:0:0:0:
464,144,12207,1,0,0:0:0:0:
352,272,12367,5,10,0:1:0:0:
380,96,12526,1,2,0:0:0:0:
464,248,12686,2,0,P|480:304|476:344,1,80,10|0,0:0|0:0,0:0:0:0:
380,96,13005,5,10,0:1:0:0:
352,272,13164,1,2,0:0:0:0:
268,120,13324,2,0,P|252:64|256:24,1,80,10|0,0:0|0:0,0:0:0:0:
396,208,13643,6,0,P|340:196|276:288,1,160,10|8,0:1|0:0,0:0:0:0:
96,296,14122,1,2,0:0:0:0:
180,360,14282,2,0,P|184:322|188:264,1,80,10|0,0:1|0:0,0:0:0:0:
24,164,14601,2,0,P|19:201|16:260,1,80,10|0,0:0|0:0,0:0:0:0:
120,201,14920,5,10,0:1:0:0:
258,85,15080,1,0,0:0:0:0:
156,103,15239,1,10,0:1:0:0:
325,164,15399,1,8,0:0:0:0:
187,280,15558,1,10,0:1:0:0:
289,262,15718,5,8,0:0:0:0:
309,258,15798,1,8,0:0:0:0:
328,254,15878,1,8,0:3:0:0:
347,250,15957,1,8,0:3:0:0:
366,246,16037,2,0,L|359:303,1,40,4|4,0:3|0:3,0:0:0:0:
435,343,16197,5,10,0:1:0:0:
459,199,16516,1,2,0:0:0:0:
443,283,16675,2,0,L|434:342,1,60.0000022888184,8|2,0:1|0:0,0:0:0:0:
459,199,17154,1,0,0:0:0:0:
475,115,17473,5,10,0:1:0:0:
475,115,17633,2,0,L|483:55,1,60.0000022888184,2|0,0:0|0:0,0:0:0:0:
392,88,17952,2,0,P|328:76|264:76,1,120.000004577637,10|0,0:1|0:0,0:0:0:0:
232,152,18431,2,0,P|280:160|316:156,1,60.0000022888184,2|0,0:0|0:0,0:0:0:0:
156,72,18750,5,10,0:1:0:0:
128,204,19069,1,2,0:0:0:0:
146,131,19229,2,0,L|156:71,1,60.0000022888184,8|2,0:1|0:0,0:0:0:0:
128,204,19707,1,0,0:0:0:0:
111,276,20026,5,10,0:1:0:0:
111,276,20186,2,0,L|100:335,1,60.0000022888184,2|0,0:0|0:0,0:0:0:0:
23,283,20505,2,0,P|2:228|2:168,1,120.000004577637,10|0,0:1|0:0,0:0:0:0:
56,108,20984,1,2,0:0:0:0:
56,108,21143,1,0,0:0:0:0:
145,132,21303,6,0,P|209:126|277:116,1,120.000004577637,10|2,0:1|0:0,0:0:0:0:
408,156,21782,2,0,L|336:144,1,60.0000022888184,8|2,0:1|0:0,0:0:0:0:
364,264,22260,2,0,L|424:274,1,60.0000022888184
492,128,22580,5,10,0:1:0:0:
492,128,22739,2,0,P|495:159|504:196,1,60.0000022888184,2|0,0:0|0:0,0:0:0:0:
424,274,23058,2,0,P|421:214|407:155,1,120.000004577637,10|0,0:1|0:0,0:0:0:0:
280,220,23537,2,0,L|340:230,1,60.0000022888184,2|0,0:0|0:0,0:0:0:0:
300,92,23856,5,8,0:1:0:0:
220,148,24016,2,0,L|136:132,1,60.0000022888184,2|2,0:0|0:0,0:0:0:0:
20,184,24335,2,0,B|84:172|72:224|152:208,1,120.000004577637,10|2,0:1|0:0,0:0:0:0:
220,148,24814,2,0,P|224:92|220:64,1,60.0000022888184,2|2,0:0|0:0,0:0:0:0:
188,304,25133,6,0,L|195:333,1,30.0000011444092,8|0,0:0|0:0,0:0:0:0:
264,248,25292,1,10,0:1:0:0:
264,248,25452,1,10,0:1:0:0:
316,340,25612,6,0,L|308:380,1,40,10|8,0:0|0:0,0:0:0:0:
248,176,25771,1,8,0:0:0:0:
248,176,25931,1,8,0:1:0:0:
96,276,26090,6,0,L|68:280,6,20,8|0|8|0|10|0|10,0:0|0:0|0:0|0:0|0:0|0:0|0:0,0:0:0:0:
52,264,26409,6,0,P|36:216|40:172,1,80,12|0,0:1|0:0,0:0:0:0:
264,99,26729,2,0,P|263:139|248:176,1,80,10|0,0:0|0:0,0:0:0:0:
116,208,27048,2,0,P|136:136|188:120,1,120,10|0,0:1|0:0,0:0:0:0:
248,176,27367,2,0,L|326:162,1,80,10|0,0:0|0:0,0:0:0:0:
444,52,27686,5,10,0:1:0:0:
424,140,27846,1,0,0:0:0:0:
468,304,28005,1,8,0:0:0:0:
488,216,28165,1,0,0:0:0:0:
325,161,28324,2,0,L|247:175,1,80,10|0,0:1|0:0,0:0:0:0:
305,249,28643,2,0,P|244:258|180:268,1,120,10|0,0:0|0:0,0:0:0:0:
112,320,28963,5,10,0:1:0:0:
32,220,29122,2,0,P|16:180|28:116,1,80,0|10,0:0|0:0,0:0:0:0:
222,111,29441,2,0,P|223:151|208:188,1,80,2|8,0:0|0:1,0:0:0:0:
112,320,29760,1,2,0:0:0:0:
116,128,29920,1,8,0:0:0:0:
232,264,30080,6,0,P|288:264|352:172,1,160,2|2,3:2|0:0,0:0:0:0:
340,104,30558,1,8,0:0:0:0:
429,221,30718,1,2,0:0:0:0:
283,239,30878,1,8,0:1:0:0:
435,124,31037,5,2,0:0:0:0:
363,292,31197,1,8,0:0:0:0:
252,146,31357,1,2,3:2:0:0:
351,189,31516,5,8,0:1:0:0:
184,348,31675,2,0,L|200:248,1,80,2|10,0:0|0:0,0:0:0:0:
283,239,31995,1,2,0:0:0:0:
108,300,32154,5,8,0:1:0:0:
268,352,32314,2,0,P|316:344|364:344,1,80,2|10,0:0|0:0,0:0:0:0:
156,188,32633,2,0,P|116:186|76:179,1,80,2|8,0:0|0:1,0:0:0:0:
196,269,32952,5,2,0:0:0:0:
312,144,33112,1,10,0:0:0:0:
208,68,33271,2,0,L|232:172,1,80,2|8,0:0|0:1,0:0:0:0:
340,312,33590,2,0,P|388:272|388:172,1,160,2|0,0:0|0:0,0:0:0:0:
274,256,34069,6,0,P|218:268|174:268,1,80,10|0,0:1|0:0,0:0:0:0:
104,240,34388,2,0,P|112:304|112:344,1,80,10|0,0:0|0:0,0:0:0:0:
216,147,34707,2,0,P|208:83|208:43,1,80,10|0,0:1|0:0,0:0:0:0:
312,144,35026,1,8,0:0:0:0:
124,96,35186,6,0,L|8:112,2,95.9999970703126,2|0|0,0:0|0:0|0:0,0:0:0:0:
200,32,35984,6,0,P|220:72|212:136,1,60.0000022888184,8|0,0:0|0:0,0:0:0:0:
120,232,36143,2,0,P|144:194|204:169,1,60.0000022888184,8|0,0:0|0:0,0:0:0:0:
334,202,36303,2,0,P|289:199|237:160,1,60.0000022888184,8|0,0:0|0:0,0:0:0:0:
124,96,36463,6,0,B|216:76|188:148|300:116,1,176.000005371094,8|0,0:0|0:0,0:0:0:0:
424,48,36941,1,10,0:0:0:0:
360,212,37101,1,0,0:0:0:0:
436,80,37260,5,10,0:1:0:0:
424,268,37420,1,0,0:0:0:0:
452,108,37580,5,10,0:0:0:0:
504,288,37739,1,0,0:0:0:0:
296,160,37899,5,10,0:1:0:0:
480,200,38058,1,0,0:0:0:0:
296,160,38218,2,0,P|248:168|200:172,1,88.000002685547,10|0,0:0|0:0,0:0:0:0:
272,252,38537,1,10,0:1:0:0:
368,84,38697,2,0,P|304:72|260:56,1,88.000002685547,2|8,0:0|0:0,0:0:0:0:
64,180,39016,6,0,P|132:168|184:268,1,176.000005371094,2|0,0:0|0:0,0:0:0:0:
132,360,39495,1,10,0:0:0:0:
112,244,39654,1,0,0:0:0:0:
284,372,39814,5,10,0:1:0:0:
323,261,39973,1,0,0:0:0:0:
212,320,40133,5,10,0:0:0:0:
224,144,40292,1,0,0:0:0:0:
176,228,40452,6,0,P|224:236|272:232,1,88.000002685547,10|0,0:1|0:0,0:0:0:0:
360,56,40771,2,0,P|316:53|272:61,1,88.000002685547,10|0,0:0|0:0,0:0:0:0:
212,320,41090,1,10,0:1:0:0:
328,296,41250,2,0,P|352:252|324:168,1,132.00000402832,2|0,0:0|0:0,0:0:0:0:
332,176,41569,6,0,P|329:219|345:260,1,88.000002685547,2|0,0:0|0:0,0:0:0:0:
472,188,41888,2,0,P|474:144|459:103,1,88.000002685547,2|8,0:0|0:0,0:0:0:0:
184,236,42207,2,0,P|186:279|171:320,1,88.000002685547,2|8,0:0|0:1,0:0:0:0:
44,247,42526,2,0,P|41:203|56:162,1,88.000002685547,2|8,0:0|0:0,0:0:0:0:
216,48,42846,6,0,L|228:144,1,88.000002685547,2|0,0:0|0:0,0:0:0:0:
296,336,43165,2,0,L|284:240,1,88.000002685547,2|8,0:0|0:0,0:0:0:0:
296,76,43484,1,2,0:0:0:0:
184,236,43643,1,8,0:1:0:0:
328,148,43803,2,0,P|371:156|412:170,1,88.000002685547,0|10,0:0|0:0,0:0:0:0:
256,192,44122,1,2,0:0:0:0:
404,76,44282,6,0,P|459:85|493:220,2,176.000005371094,10|10|10,0:1|0:0|0:1,0:0:0:0:
256,192,45080,1,0,0:0:0:0:
372,296,45239,1,10,0:0:0:0:
328,148,45399,1,0,0:0:0:0:
200,276,45558,6,0,P|152:284|124:280,1,44.0000013427735,8|0,0:3|0:0,0:0:0:0:
96,184,45718,1,0,0:0:0:0:
110,182,45798,1,8,0:0:0:0:
123,181,45878,2,0,P|144:183|166:189,1,44.0000013427735,8|0,0:0|3:2,0:0:0:0:
168,376,46037,6,0,P|146:373|124:367,1,44.0000013427735,8|0,0:0|3:2,0:0:0:0:
7,221,46197,1,0,3:2:0:0:
7,221,46276,2,0,B|27:273|27:273|7:341,1,100,8|0,0:0|3:2,0:0:0:0:
14,315,46516,6,0,L|88:300,1,50,8|8,0:0|0:0,0:0:0:0:
200,276,46675,2,0,L|184:360,1,50,4|0,0:3|0:0,0:0:0:0:
123,181,46835,6,0,L|108:88,1,88.000002685547,12|0,0:1|0:0,0:0:0:0:
212,180,47154,1,10,0:0:0:0:
32,144,47314,1,0,0:0:0:0:
204,88,47473,2,0,P|212:50|219:-5,1,88.000002685547,10|0,0:1|0:0,0:0:0:0:
372,140,47792,2,0,P|320:148|268:160,1,88.000002685547,10|0,0:0|0:0,0:0:0:0:
212,180,48032,1,0,0:0:0:0:
212,180,48112,5,10,0:1:0:0:
352,56,48271,1,0,0:0:0:0:
188,183,48431,5,10,0:0:0:0:
380,227,48590,1,0,0:0:0:0:
168,189,48750,5,10,0:1:0:0:
372,140,48909,2,0,P|424:132|476:120,1,88.000002685547,2|8,0:0|0:0,0:0:0:0:
284,8,49229,6,0,B|264:60|264:60|284:152,1,132.00000402832,2|0,0:0|0:0,0:0:0:0:
280,134,49548,5,0,0:0:0:0:
68,136,49707,1,10,0:0:0:0:
200,32,49867,1,0,0:0:0:0:
175,236,50026,5,10,0:1:0:0:
108,48,50186,1,0,0:0:0:0:
236,127,50346,1,10,0:0:0:0:
108,208,50505,1,0,0:0:0:0:
24,48,50665,6,0,P|12:112|16:152,1,88.000002685547,2|0,0:0|0:0,0:0:0:0:
236,127,50984,2,0,L|124:111,1,88.000002685547,10|0,0:0|0:0,0:0:0:0:
44,252,51303,1,10,0:1:0:0:
192,340,51463,2,0,P|200:288|192:228,1,88.000002685547,2|8,0:0|0:0,0:0:0:0:
149,140,51782,6,0,P|196:212|297:200,1,176.000005371094,2|2,0:0|0:0,0:0:0:0:
460,132,52260,1,8,0:0:0:0:
376,236,52420,2,0,P|368:201|364:144,1,88.000002685547,2|8,0:0|0:1,0:0:0:0:
511,224,52739,2,0,P|508:268|500:312,1,88.000002685547,2|8,0:0|0:0,0:0:0:0:
278,212,53058,5,2,0:0:0:0:
278,212,53138,1,0,0:0:0:0:
278,212,53218,1,0,0:0:0:0:
416,60,53378,1,2,0:0:0:0:
376,236,53537,1,8,0:0:0:0:
256,100,53697,6,0,B|164:84|196:156|84:136,1,176.000005371094,2|0,0:0|0:0,0:0:0:0:
0,96,54175,2,0,P|8:140|8:172,1,44.0000013427735,10|0,0:0|0:0,0:0:0:0:
184,192,54335,2,0,P|176:148|176:116,1,44.0000013427735,2|0,0:0|0:0,0:0:0:0:
90,137,54495,6,0,L|110:257,1,88.000002685547,10|0,0:1|0:0,0:0:0:0:
106,236,54734,1,8,0:0:0:0:
108,247,54814,1,10,0:0:0:0:
80,56,54973,1,8,0:1:0:0:
16,288,55133,6,0,L|24:212,1,44.0000013427735,10|8,0:0|0:0,0:0:0:0:
192,192,55292,2,0,L|184:268,1,44.0000013427735,10|8,0:0|0:0,0:0:0:0:
24,316,55452,6,0,L|32:240,1,44.0000013427735,10|0,0:0|0:0,0:0:0:0:
200,220,55611,2,0,L|192:296,1,44.0000013427735,10|8,0:0|0:0,0:0:0:0:
112,352,55771,6,0,P|154:347|208:344,1,88.000002685547,10|8,0:0|0:1,0:0:0:0:
272,340,56010,1,0,0:0:0:0:
272,340,56090,1,10,0:0:0:0:
108,247,56250,1,8,0:0:0:0:
332,128,56409,5,8,0:0:0:0:
349,141,56488,1,8,0:0:0:0:
362,159,56568,1,8,0:0:0:0:
370,179,56648,1,8,0:0:0:0:
371,201,56729,2,0,P|363:228|354:245,1,44.0000013427735,8|8,0:0|0:0,0:0:0:0:
288,119,56888,2,8,P|310:121|331:127,1,44.0000013427735
296,196,57048,6,0,B|236:216|184:176|184:176|215:230|188:294|108:320|40:272|32:192|100:148|100:148|52:176|16:160|-44:140|-28:44|80:48|56:100,1,671.999979492188,12|0,0:1|0:0,0:0:0:0:
128,212,59441,5,8,0:1:0:0:
128,212,59601,1,10,0:1:0:0:
24,356,60239,6,0,P|84:348|128:352,1,95.9999970703126,2|0,0:0|0:0,0:0:0:0:
192,368,60718,1,2,0:0:0:0:
472,272,61675,5,2,0:0:0:0:
401,273,61835,1,2,0:0:0:0:
344,230,61995,1,10,0:1:0:0:
325,162,62154,1,10,0:1:0:0:
325,162,62792,6,0,P|320:112|328:52,1,95.9999970703126,2|0,0:0|0:0,0:0:0:0:
364,8,63271,1,2,0:0:0:0:
188,284,64069,6,0,P|193:233|185:173,1,95.9999970703126,2|2,0:0|0:0,0:0:0:0:
149,129,64548,1,8,0:1:0:0:
16,204,64707,6,0,P|19:234|24:264,1,47.9999985351563,4|0,0:3|0:0,0:0:0:0:
32,324,65026,1,0,0:0:0:0:
116,164,65186,6,0,P|117:200|120:236,1,64,4|0,0:3|0:0,0:0:0:0:
128,316,65505,1,0,0:0:0:0:
228,148,65665,6,0,P|224:216|224:248,1,80,4|0,0:3|0:0,0:0:0:0:
224,324,65984,1,8,0:3:0:0:
348,148,66143,5,8,0:3:0:0:
320,344,66303,1,8,0:3:0:0:
484,160,66463,5,8,0:3:0:0:
408,376,66622,1,8,0:3:0:0:
223,227,66782,1,8,0:0:0:0:
416,260,66941,1,8,0:0:0:0:
416,260,67021,1,8,0:0:0:0:
416,260,67101,1,8,0:0:0:0:
416,260,67181,1,8,0:0:0:0:
416,260,67260,6,0,P|356:264|308:272,1,88.000002685547,12|0,0:1|0:0,0:0:0:0:
184,88,67580,2,0,P|227:93|271:96,1,88.000002685547,10|0,0:0|0:0,0:0:0:0:
464,60,67899,2,0,P|380:108|376:172,1,132.00000402832,10|0,0:1|0:0,0:0:0:0:
456,140,68218,1,10,0:0:0:0:
328,28,68378,1,0,0:0:0:0:
248,264,68537,5,10,0:1:0:0:
372,135,68697,1,2,0:0:0:0:
271,96,68856,2,0,P|276:147|287:192,1,88.000002685547,10|0,0:0|0:0,0:0:0:0:
364,256,69175,5,10,0:1:0:0:
188,152,69335,1,2,0:0:0:0:
288,348,69495,2,0,P|244:341|200:341,1,88.000002685547,10|0,0:0|0:0,0:0:0:0:
88,219,69814,5,10,0:1:0:0:
112,307,69973,1,0,0:0:0:0:
152,154,70133,1,10,0:0:0:0:
0,196,70292,1,0,0:0:0:0:
176,242,70452,2,0,P|256:224|276:152,1,132.00000402832,10|0,0:1|0:0,0:0:0:0:
271,96,70771,1,10,0:0:0:0:
152,154,70931,1,0,0:0:0:0:
360,216,71090,6,0,P|404:212|448:192,1,88.000002685547,10|0,0:1|0:0,0:0:0:0:
288,312,71409,2,0,P|332:332|376:336,1,88.000002685547,10|0,0:0|0:0,0:0:0:0:
352,96,71729,5,8,0:1:0:0:
208,160,71888,1,2,0:0:0:0:
360,216,72048,1,8,0:0:0:0:
296,20,72207,1,2,0:0:0:0:
88,144,72367,6,0,L|-8:156,1,88.000002685547,10|0,0:1|0:0,0:0:0:0:
208,9,72686,2,0,L|304:21,1,88.000002685547,10|0,0:0|0:0,0:0:0:0:
148,76,73005,2,0,P|104:52|24:76,1,132.00000402832,10|0,0:1|0:0,0:0:0:0:
8,152,73324,2,0,P|14:198|24:252,1,88.000002685547,10|0,0:0|0:0,0:0:0:0:
160,332,73643,5,10,0:1:0:0:
184,160,73803,1,2,0:0:0:0:
100,256,73963,2,0,P|156:248|204:224,1,88.000002685547,10|0,0:0|0:0,0:0:0:0:
320,64,74282,5,10,0:1:0:0:
344,236,74442,1,2,0:0:0:0:
400,140,74602,2,0,P|344:148|296:172,1,88.000002685547,10|0,0:0|0:0,0:0:0:0:
288,368,74920,6,0,P|344:376|408:268,1,176.000005371094,10|10,0:1|0:0,0:0:0:0:
208,144,75399,1,0,0:0:0:0:
228,296,75558,1,10,0:1:0:0:
344,236,75718,1,0,0:0:0:0:
136,200,75878,1,10,0:0:0:0:
156,356,76037,1,0,0:0:0:0:
296,156,76197,5,10,0:1:0:0:
64,88,76356,1,0,0:0:0:0:
320,64,76516,5,10,0:0:0:0:
104,180,76675,1,0,0:0:0:0:
344,236,76835,5,10,0:1:0:0:
184,4,76995,1,0,0:0:0:0:
76,272,77154,2,0,P|78:306|84:344,1,50,10|8,0:0|0:0,0:0:0:0:
256,188,77314,2,0,P|253:153|248:116,1,50,8|8,0:0|0:0,0:0:0:0:
64,88,77473,5,12,0:1:0:0:
32,156,77633,1,0,0:0:0:0:
104,180,77792,1,10,0:1:0:0:
136,112,77952,1,0,0:0:0:0:
32,156,78112,2,0,L|12:284,1,120.000004577637,10|8,0:1|0:3,0:0:0:0:
176,336,78590,1,8,0:3:0:0:
96,376,78750,6,0,L|84:304,1,60.0000022888184,10|0,0:1|0:0,0:0:0:0:
200,224,79069,2,0,P|232:268|304:280,1,120.000004577637,10|10,0:1|0:1,0:0:0:0:
124,248,79548,1,0,0:0:0:0:
280,200,79707,1,8,0:3:0:0:
280,200,80026,6,0,L|288:140,1,60.0000022888184,10|0,0:1|0:0,0:0:0:0:
208,136,80346,2,0,L|192:64,1,60.0000022888184,10|0,0:1|0:0,0:0:0:0:
372,180,80665,2,0,P|416:168|500:160,1,120.000004577637,10|8,0:1|0:3,0:0:0:0:
384,299,81143,1,8,0:3:0:0:
512,252,81303,6,0,P|456:248|428:240,1,60.0000022888184,10|0,0:1|0:0,0:0:0:0:
372,180,81622,2,0,P|381:247|384:327,1,120.000004577637,10|10,0:1|0:1,0:0:0:0:
300,360,82101,2,0,P|295:331|292:292,1,60.0000022888184,0|8,0:0|0:3,0:0:0:0:
304,112,82420,1,0,0:0:0:0:
228,200,82580,6,0,L|184:204,3,30.0000011444092,10|0|0|0,0:1|0:0|0:0|0:0,0:0:0:0:
132,164,82899,2,0,L|88:156,1,30.0000011444092,8|0,0:0|0:0,0:0:0:0:
200,124,83058,2,0,L|229:121,1,30.0000011444092,0|0,0:0|0:0,0:0:0:0:
102,78,83218,6,0,L|132:84,3,30.0000011444092,10|0|0|0,0:1|0:0|0:0|0:0,0:0:0:0:
28,136,83537,2,0,L|36:184,1,30.0000011444092,8|0,0:0|0:0,0:0:0:0:
128,216,83697,2,0,L|120:264,1,30.0000011444092,0|0,0:0|0:0,0:0:0:0:
49,303,83856,6,0,L|19:297,3,30.0000011444092,10|0|0|0,0:1|0:0|0:0|0:0,0:0:0:0:
152,344,84175,2,0,L|122:349,3,30.0000011444092,10|0|0|0,0:0|0:0|0:0|0:0,0:0:0:0:
232,300,84495,5,10,0:1:0:0:
239,286,84574,1,0,0:0:0:0:
244,272,84654,1,0,0:0:0:0:
248,258,84734,1,0,0:0:0:0:
250,243,84814,1,10,0:0:0:0:
250,228,84893,1,0,0:0:0:0:
248,213,84973,1,0,0:0:0:0:
244,199,85053,1,0,0:0:0:0:
239,185,85133,6,0,L|223:145,3,30.0000011444092,10|0|0|0,0:1|0:0|0:0|0:0,0:0:0:0:
316,160,85452,2,0,L|300:120,3,30.0000011444092,10|0|0|0,0:0|0:0|0:0|0:0,0:0:0:0:
393,135,85771,5,8,0:1:0:0:
168,236,85931,1,8,0:0:0:0:
331,298,86090,1,8,0:1:0:0:
230,73,86250,6,0,L|148:64,1,71.9999978027344,8|8,0:0|0:3,0:0:0:0:
52,204,86569,2,0,L|116:192,1,35.9999989013672,0|8,0:0|0:0,0:0:0:0:
232,168,86729,1,8,0:0:0:0:
158,65,86888,6,0,L|150:165,1,88.000002685547,12|0,0:1|0:0,0:0:0:0:
240,272,87207,1,12,0:1:0:0:
72,100,87367,1,10,0:1:0:0:
312,200,87526,6,0,B|385:206|452:144|452:72|400:44|316:80|372:164,1,287.999991210938,12|0,0:1|0:0,0:0:0:0:
