osu file format v14

[General]
AudioFilename: audio.mp3
AudioLeadIn: 0
PreviewTime: 36463
Countdown: 0
SampleSet: Soft
StackLeniency: 0.3
Mode: 0
LetterboxInBreaks: 0
WidescreenStoryboard: 1

[Editor]
Bookmarks: 37580
DistanceSpacing: 1
BeatDivisor: 4
GridSize: 16
TimelineZoom: 1.8

[Metadata]
Title:Uso no Hibana
TitleUnicode:嘘の火花
Artist:96neko
ArtistUnicode:96猫
Creator:Kibbleru
Version:Normal
Source:クズの本懐
Tags:Kuzu Honkai scum's scums scum wish Kocari iWinnie Momochikun Mochi sahuang My_Angel_Azusa My Angel Azusa toybot opening
BeatmapID:1184636
BeatmapSetID:557651

[Difficulty]
HPDrainRate:3
CircleSize:3
OverallDifficulty:4
ApproachRate:5
SliderMultiplier:1.1
SliderTickRate:1

[Events]
//Background and Video events
0,0,"752735.jpg",0,0
Video,220,"optc.flv"
//Break Periods
//Storyboard Layer 0 (Background)
//Storyboard Layer 1 (Fail)
//Storyboard Layer 2 (Pass)
//Storyboard Layer 3 (Foreground)
//Storyboard Sound Samples

[TimingPoints]
878,319.148936170213,4,2,1,40,1,0
878,-100,4,2,1,40,0,0
4229,-100,4,2,1,50,0,0
4707,-100,4,2,1,60,0,0
5984,-100,4,2,1,60,0,0
16197,-100,4,2,1,60,0,0
16516,-100,4,2,1,40,0,0
25133,-100,4,2,1,50,0,0
26409,-100,4,2,1,60,0,0
35346,-100,4,2,1,60,0,0
36143,-100,4,2,1,60,0,0
36303,-100,4,2,1,70,0,0
36622,-100,4,2,1,70,0,1
45558,-100,4,2,1,70,0,0
46835,-100,4,2,1,70,0,1
55452,-100,4,2,1,70,0,1
57048,-100,4,2,1,70,0,0
57128,-100,4,2,1,50,0,0
59601,-100,4,2,1,50,0,0
64707,-100,4,2,1,60,0,0
65984,-100,4,2,1,60,0,0
66941,-100,4,2,1,70,0,0
67260,-100,4,2,1,70,0,1
77473,-100,4,2,1,50,0,0
85931,-100,4,2,1,60,0,0
86729,-100,4,2,1,70,0,0
87526,-100,4,2,1,70,0,0
88165,-100,4,2,1,20,0,0

[Colours]
Combo1 : 90,243,201
Combo2 : 249,160,28
Combo3 : 255,153,242
Combo4 : 130,47,255

[HitObjects]
28,38,878,6,0,B|111:14|108:77|187:53,1,165,12|2,0:1|0:0,0:0:0:0:
324,146,1835,2,0,B|241:122|244:185|164:161,1,165,2|2,0:0|0:0,0:0:0:0:
350,280,2952,2,0,P|345:304|339:339,2,55,8|8|4,0:3|0:3|0:3,0:0:0:0:
394,248,3431,6,0,P|450:190|442:111,1,165,12|2,0:1|0:0,0:0:0:0:
356,42,4229,2,0,P|302:36|256:65,1,110,0|8,3:2|0:0,0:0:0:0:
232,115,4707,2,0,L|238:169,2,55,8|8|8,0:1|0:0|0:0,0:0:0:0:
131,70,5346,2,0,L|124:124,2,55,8|8|8,0:0|0:1|0:1,0:0:0:0:
23,92,5984,6,0,P|29:141|33:210,1,110,12|10,0:1|0:0,0:0:0:0:
24,256,6463,1,0,0:0:0:0:
24,256,6622,2,0,P|72:229|126:223,1,110,10|10,0:1|0:0,0:0:0:0:
216,285,7260,2,0,L|270:295,2,55,10|2|10,0:1|0:0|0:0,0:0:0:0:
235,176,7899,2,0,L|289:186,2,55,10|2|10,0:1|0:0|0:0,0:0:0:0:
222,66,8537,6,0,P|276:57|329:43,1,110,10|10,0:1|0:0,0:0:0:0:
379,22,9016,1,0,0:0:0:0:
379,22,9175,2,0,P|369:76|365:130,1,110,10|10,0:1|0:0,0:0:0:0:
372,240,9814,2,0,L|424:256,2,55,10|2|10,0:1|0:0|0:0,0:0:0:0:
276,294,10452,2,0,P|269:267|264:240,1,55,8|2,0:1|0:0,0:0:0:0:
253,186,10771,1,8,0:0:0:0:
332,110,11090,6,0,P|286:80|227:79,1,110,10|10,0:1|0:0,0:0:0:0:
184,105,11569,1,0,0:0:0:0:
184,105,11729,2,0,P|132:123|72:117,1,110,10|10,0:1|0:0,0:0:0:0:
49,231,12367,2,0,L|41:285,2,55,10|2|10,0:1|0:0|0:0,0:0:0:0:
150,272,13005,2,0,L|157:326,2,55,10|2|10,0:1|0:0|0:0,0:0:0:0:
208,179,13643,6,0,P|262:165|313:145,1,110,10|8,0:1|0:0,0:0:0:0:
364,166,14122,1,2,0:0:0:0:
364,165,14282,2,0,P|357:192|351:219,2,55,10|0|10,0:1|0:0|0:0,0:0:0:0:
472,151,14920,1,10,0:1:0:0:
406,62,15239,1,10,0:1:0:0:
297,78,15558,1,10,0:1:0:0:
254,179,15878,2,0,P|204:200|150:201,1,110,8|10,0:3|0:1,0:0:0:0:
55,146,16516,6,0,L|43:223,2,55,2|8|2,0:0|0:1|0:0,0:0:0:0:
131,66,17154,1,0,0:0:0:0:
226,119,17473,2,0,L|404:93,2,165,10|10|2,0:1|0:1|0:0,0:0:0:0:
170,214,18750,5,10,0:1:0:0:
78,152,19069,2,0,L|63:81,2,55,2|8|2,0:0|0:1|0:0,0:0:0:0:
64,261,19707,1,0,0:0:0:0:
161,310,20026,2,0,P|80:304|14:360,2,165,10|10|2,0:1|0:1|0:0,0:0:0:0:
254,368,21303,5,10,0:1:0:0:
335,294,21622,2,0,L|397:282,2,55,2|8|2,0:0|0:1|0:0,0:0:0:0:
261,211,22260,1,0,0:0:0:0:
331,126,22580,2,0,B|398:100|425:143|492:112,2,165,10|10|2,0:1|0:1|0:0,0:0:0:0:
244,57,23856,6,0,B|177:31|150:74|82:43,2,165,8|10|2,0:1|0:1|0:0,0:0:0:0:
195,155,25133,2,0,L|137:163,2,55,8|10|10,0:0|0:1|0:1,0:0:0:0:
246,173,25612,2,0,L|300:165,1,55,8|8,0:0|0:1,0:0:0:0:
389,101,26090,1,8,0:0:0:0:
446,194,26409,6,0,P|440:220|434:247,2,55,12|0|10,0:1|0:0|0:0,0:0:0:0:
389,100,27048,2,0,P|334:101|286:76,1,110,10|10,0:1|0:0,0:0:0:0:
178,53,27686,2,0,L|192:177,1,110,10|8,0:1|0:0,0:0:0:0:
170,213,28165,1,0,0:0:0:0:
170,213,28324,2,0,L|158:276,2,55,10|0|10,0:1|0:0|0:0,0:0:0:0:
280,213,28963,6,0,L|268:276,2,55,10|0|10,0:1|0:0|0:0,0:0:0:0:
301,162,29441,2,0,P|354:151|408:140,1,110,0|2,0:0|0:0,0:0:0:0:
463,132,29920,1,8,0:0:0:0:
422,29,30239,2,0,P|368:39|314:50,1,110,8|8,0:1|0:0,0:0:0:0:
259,46,30718,2,0,P|204:39|150:31,1,110,2|2,0:0|0:0,0:0:0:0:
95,24,31197,1,8,0:0:0:0:
102,132,31516,6,0,P|104:160|107:187,2,55,8|2|10,0:1|0:0|0:0,0:0:0:0:
208,161,32154,2,0,P|210:188|213:215,2,55,8|2|10,0:1|0:0|0:0,0:0:0:0:
273,72,32792,2,0,L|335:52,2,55,8|2|10,0:1|0:0|0:0,0:0:0:0:
336,162,33431,1,8,0:1:0:0:
425,98,33750,1,8,0:0:0:0:
439,207,34069,6,0,P|428:260|418:315,1,110,10|10,0:1|0:0,0:0:0:0:
315,270,34707,2,0,P|325:216|335:161,1,110,10|8,0:1|0:0,0:0:0:0:
279,66,35346,1,12,0:1:0:0:
279,66,35984,2,0,L|264:4,2,55,8|8|8,0:0|0:0|0:0,0:0:0:0:
219,157,36622,6,0,P|164:151|109:143,1,110,14|10,0:1|0:0,0:0:0:0:
61,170,37101,1,0,0:0:0:0:
61,170,37260,2,0,L|3:187,2,55,10|0|10,0:1|0:0|0:0,0:0:0:0:
127,256,37899,2,0,P|154:265|180:271,1,55,10|0,0:1|0:0,0:0:0:0:
223,310,38218,2,0,P|277:295|331:292,1,110,10|10,0:0|0:1,0:0:0:0:
385,281,38697,2,0,P|394:255|398:228,1,55,2|8,0:0|0:0,0:0:0:0:
380,119,39175,6,0,P|322:87|265:87,1,110,10|10,0:1|0:0,0:0:0:0:
227,101,39654,1,0,0:0:0:0:
227,101,39814,2,0,L|217:162,2,55,10|0|10,0:1|0:0|0:0,0:0:0:0:
118,120,40452,2,0,L|45:102,2,55,10|0|10,0:1|0:0|0:0,0:0:0:0:
129,229,41090,2,0,L|56:211,2,55,10|2|8,0:1|0:0|0:0,0:0:0:0:
178,205,41569,6,0,B|284:178|284:178|338:221,1,165,2|8,0:0|0:0,0:0:0:0:
363,254,42207,2,0,L|382:145,1,110,2|2,0:0|0:0,0:0:0:0:
395,92,42686,1,8,0:0:0:0:
310,20,43005,2,0,P|269:54|215:56,1,110,0|8,0:0|0:0,0:0:0:0:
160,52,43484,2,0,P|109:27|56:34,1,110,2|0,0:0|0:0,0:0:0:0:
16,70,43963,1,10,0:0:0:0:
91,149,44282,6,0,L|100:278,1,110,10|10,0:1|0:0,0:0:0:0:
206,277,44920,2,0,L|198:167,1,110,10|10,0:1|0:0,0:0:0:0:
183,58,45558,2,0,P|238:52|292:43,1,110,8|8,0:3|0:0,0:0:0:0:
337,76,46037,1,8,0:0:0:0:
337,76,46197,2,0,L|330:130,2,55,0|8|8,3:0|0:2|0:0,0:0:0:0:
436,123,46835,6,0,P|429:177|423:232,1,110,12|10,0:1|0:0,0:0:0:0:
449,280,47314,1,0,0:0:0:0:
449,280,47473,2,0,P|473:295|498:307,2,55,10|0|10,0:1|0:0|0:0,0:0:0:0:
344,315,48112,2,0,P|282:292|220:302,1,110,10|10,0:1|0:0,0:0:0:0:
190,316,48590,1,0,0:0:0:0:
190,316,48750,2,0,L|121:327,2,55,10|2|8,0:1|0:0|0:0,0:0:0:0:
182,206,49388,6,0,P|191:151|199:97,1,110,10|10,0:1|0:0,0:0:0:0:
183,44,49867,1,0,0:0:0:0:
183,44,50026,2,0,P|157:53|127:62,2,55,10|0|10,0:1|0:0|0:0,0:0:0:0:
292,55,50665,2,0,L|301:0,2,55,10|0|8,0:1|0:0|0:0,0:0:0:0:
395,92,51303,2,0,L|404:37,2,55,10|2|8,0:1|0:0|0:0,0:0:0:0:
423,138,51782,6,0,B|351:116|340:176|262:157,1,165,2|8,0:0|0:0,0:0:0:0:
225,118,52420,2,0,P|186:80|127:74,1,110,2|2,0:0|0:0,0:0:0:0:
80,91,52899,1,8,0:0:0:0:
1,167,53218,2,0,P|-12:219|11:273,1,110,0|8,0:0|0:0,0:0:0:0:
56,299,53697,2,0,L|165:288,1,110,2|0,0:0|0:0,0:0:0:0:
220,285,54175,1,10,0:0:0:0:
288,199,54495,6,0,P|334:168|393:168,1,110,10|10,0:1|0:0,0:0:0:0:
421,271,55133,2,0,P|375:301|316:302,1,110,10|10,0:0|0:0,0:0:0:0:
266,299,55612,1,10,0:0:0:0:
266,299,55771,2,0,P|261:327|258:354,2,55,10|8|10,0:0|0:1|0:0,0:0:0:0:
164,255,56409,2,0,P|159:282|156:309,2,55,8|8|8,0:0|0:0|0:0,0:0:0:0:
256,192,57048,5,12,0:1:0:0:
256,192,59601,5,0,0:0:0:0:
256,192,62154,5,0,0:0:0:0:
14,150,64707,6,0,P|68:142|122:132,1,110,4|0,0:3|0:0,0:0:0:0:
172,156,65186,2,0,P|226:163|280:173,1,110,4|0,0:3|0:0,0:0:0:0:
329,150,65665,2,0,P|355:143|382:135,1,55,4|0,0:3|0:0,0:0:0:0:
437,139,65984,1,8,0:3:0:0:
510,220,66303,1,8,0:3:0:0:
482,326,66622,1,8,0:3:0:0:
375,354,66941,1,8,0:0:0:0:
287,286,67260,6,0,L|161:264,1,110,12|10,0:1|0:0,0:0:0:0:
68,256,67899,2,0,P|47:205|54:151,1,110,10|10,0:1|0:0,0:0:0:0:
80,103,68378,1,0,0:0:0:0:
80,103,68537,2,0,L|74:48,2,55,10|2|10,0:1|0:0|0:0,0:0:0:0:
188,122,69175,2,0,L|182:67,2,55,10|2|10,0:1|0:0|0:0,0:0:0:0:
277,186,69814,6,0,P|340:183|385:153,1,110,10|10,0:1|0:0,0:0:0:0:
483,124,70452,2,0,L|460:245,1,110,10|10,0:1|0:0,0:0:0:0:
472,286,70931,1,0,0:0:0:0:
472,286,71090,2,0,P|488:307|507:327,2,55,10|0|10,0:1|0:0|0:0,0:0:0:0:
362,300,71729,2,0,P|355:327|351:354,2,55,8|2|8,0:1|0:0|0:0,0:0:0:0:
284,222,72367,6,0,P|245:248|175:248,1,110,10|10,0:1|0:0,0:0:0:0:
103,174,73005,2,0,P|104:113|134:69,1,110,10|10,0:1|0:0,0:0:0:0:
177,44,73484,1,0,0:0:0:0:
177,44,73643,2,0,L|252:33,2,55,10|2|10,0:1|0:0|0:0,0:0:0:0:
223,143,74282,2,0,L|298:132,2,55,10|2|10,0:1|0:0|0:0,0:0:0:0:
205,251,74920,6,0,P|258:239|313:232,1,110,10|10,0:1|0:0,0:0:0:0:
362,258,75399,1,0,0:0:0:0:
362,258,75558,2,0,P|355:285|350:312,2,55,10|0|10,0:1|0:0|0:0,0:0:0:0:
450,192,76197,1,10,0:1:0:0:
434,83,76516,1,10,0:0:0:0:
329,48,76835,1,10,0:1:0:0:
239,111,77154,2,0,P|212:119|185:124,1,55,10|8,0:0|0:0,0:0:0:0:
142,89,77473,6,0,B|183:176|105:210|147:303,1,220,12|10,0:1|0:1,0:0:0:0:
255,322,78431,2,0,P|293:275|449:279,1,220,8|10,0:3|0:1,0:0:0:0:
480,170,79388,2,0,P|490:144|498:115,2,55,10|0|8,0:1|0:0|0:3,0:0:0:0:
385,115,80026,6,0,B|314:93|314:93|252:112|252:112|173:88,1,220,10|10,0:1|0:1,0:0:0:0:
79,33,80984,2,0,P|151:126|115:219,1,220,8|10,0:3|0:1,0:0:0:0:
52,299,81941,2,0,P|26:291|0:287,2,55,10|0|8,0:1|0:0|0:3,0:0:0:0:
157,335,82580,6,0,L|265:320,1,110,10|8,0:1|0:0,0:0:0:0:
365,272,83218,2,0,L|473:286,1,110,10|8,0:1|0:0,0:0:0:0:
512,182,83856,2,0,L|403:167,1,110,10|10,0:1|0:0,0:0:0:0:
296,192,84494,2,0,L|187:206,1,110,10|10,0:1|0:0,0:0:0:0:
80,180,85133,6,0,P|63:158|51:133,2,55,10|0|10,0:1|0:0|0:0,0:0:0:0:
66,288,85771,2,0,P|39:296|12:298,2,55,8|8|8,0:1|0:0|0:1,0:0:0:0:
120,295,86250,2,0,P|179:254|268:283,1,165,8|8,0:0|0:0,0:0:0:0:
317,280,86888,2,0,P|338:229|343:172,1,110,12|12,0:1|0:1,0:0:0:0:
310,130,87367,2,0,P|302:103|298:76,1,55,10|12,0:1|0:1,0:0:0:0:
