osu file format v14

[General]
AudioFilename: audio.mp3
AudioLeadIn: 0
PreviewTime: 36463
Countdown: 0
SampleSet: Soft
StackLeniency: 0.3
Mode: 0
LetterboxInBreaks: 0
WidescreenStoryboard: 0

[Editor]
Bookmarks: 37580
DistanceSpacing: 1.2
BeatDivisor: 4
GridSize: 16
TimelineZoom: 1.8

[Metadata]
Title:Uso no Hibana
TitleUnicode:嘘の火花
Artist:96neko
ArtistUnicode:96猫
Creator:Kibbleru
Version:Mochi's Hard
Source:クズの本懐
Tags:Kuzu Honkai scum's scums scum wish Kocari iWinnie Momochikun Mochi sahuang My_Angel_Azusa My Angel Azusa toybot opening
BeatmapID:1181369
BeatmapSetID:557651

[Difficulty]
HPDrainRate:5.5
CircleSize:4
OverallDifficulty:6
ApproachRate:7.5
SliderMultiplier:1.43
SliderTickRate:1

[Events]
//Background and Video events
0,0,"752735.jpg",0,0
Video,220,"optc.flv"
//Break Periods
//Storyboard Layer 0 (Background)
//Storyboard Layer 1 (Fail)
//Storyboard Layer 2 (Pass)
//Storyboard Layer 3 (Foreground)
//Storyboard Sound Samples

[TimingPoints]
878,319.148936170213,4,2,1,40,1,0
878,-111.111111111111,4,2,1,40,0,0
4229,-111.111111111111,4,2,1,50,0,0
4707,-100,4,2,1,60,0,0
5984,-100,4,2,1,60,0,0
16197,-111.111111111111,4,2,1,60,0,0
16516,-111.111111111111,4,2,1,40,0,0
25133,-111.111111111111,4,2,1,50,0,0
26409,-100,4,2,1,60,0,0
35346,-181.818181818181,4,2,1,50,0,0
36143,-100,4,2,1,65,0,0
36303,-100,4,2,1,75,0,0
36622,-100,4,2,1,70,0,1
45558,-100,4,2,1,70,0,0
46835,-100,4,2,1,70,0,1
55452,-100,4,2,1,70,0,1
57048,-100,4,2,1,60,0,0
57128,-100,4,2,1,50,0,0
59601,-111.111111111111,4,2,1,50,0,0
64707,-100,4,2,1,80,0,0
65984,-100,4,2,1,60,0,0
66941,-100,4,2,1,70,0,0
67260,-100,4,2,1,70,0,1
77473,-105.263157894737,4,2,1,50,0,0
85931,-105.263157894737,4,2,1,60,0,0
86729,-105.263157894737,4,2,1,70,0,0
87526,-200,4,2,1,60,0,0
88165,-200,4,2,1,20,0,0

[Colours]
Combo1 : 90,243,201
Combo2 : 249,160,28
Combo3 : 255,153,242
Combo4 : 130,47,255

[HitObjects]
421,32,878,6,0,P|459:83|471:151,1,128.699996072388,12|0,0:1|0:0,0:0:0:0:
395,193,1356,2,0,P|337:211|271:265,1,128.699996072388,2|0,0:0|0:0,0:0:0:0:
211,308,1835,1,2,0:0:0:0:
130,146,2154,5,0,0:0:0:0:
52,192,2314,2,0,P|107:223|196:215,1,128.699996072388,2|2,0:0|0:0,0:0:0:0:
247,186,2792,1,0,0:0:0:0:
226,104,2952,2,0,P|238:67|255:31,2,64.3499980361939,8|8|4,0:3|0:3|0:3,0:0:0:0:
320,156,3431,6,0,P|382:147|454:130,1,128.699996072388,12|0,0:1|0:0,0:0:0:0:
509,83,3909,2,0,P|484:178|473:235,1,128.699996072388,2|0,0:0|0:2,0:0:0:0:
404,255,4388,2,0,P|421:300|436:326,1,64.3499980361939,0|8,0:2|0:0,0:0:0:0:
455,336,4628,5,0,1:0:0:0:
455,336,4707,2,0,L|367:315,1,71.5,8|0,0:1|1:0,0:0:0:0:
301,238,5026,2,0,L|231:254,1,71.5,8|8,0:0|0:0,0:0:0:0:
203,261,5266,1,0,1:0:0:0:
203,261,5346,2,0,P|182:224|186:188,1,71.5,8|8,0:0|0:1,0:0:0:0:
196,174,5585,1,8,0:1:0:0:
211,154,5665,2,0,L|199:102,3,35.75,0|0|0|0,1:0|1:0|1:1|1:0,0:0:0:0:
190,78,5984,6,0,L|259:94,1,71.5,12|2,0:1|0:0,0:0:0:0:
326,40,6303,2,0,L|395:56,1,71.5,8|2,0:0|0:0,0:0:0:0:
463,108,6622,2,0,P|411:146|401:235,1,143,10|8,0:1|0:0,0:0:0:0:
458,279,7101,1,2,0:0:0:0:
367,311,7260,6,0,P|346:342|340:379,2,71.5,10|0|10,0:1|0:0|0:0,0:0:0:0:
217,144,7899,2,0,P|238:175|244:212,2,71.5,10|0|10,0:1|0:0|0:0,0:0:0:0:
71,253,8537,6,0,L|147:270,1,71.5,10|0,0:1|0:0,0:0:0:0:
215,381,8856,2,0,P|185:360|150:353,1,71.5,8|0,0:0|0:0,0:0:0:0:
51,324,9175,2,0,P|35:254|7:173,1,143,10|10,0:1|0:0,0:0:0:0:
55,112,9654,1,2,0:0:0:0:
131,72,9814,6,0,P|174:81|215:94,1,71.5,10|0,0:1|0:0,0:0:0:0:
269,139,10133,1,10,0:0:0:0:
325,49,10292,1,0,0:0:0:0:
388,105,10452,2,0,L|370:179,1,71.5,10|0,0:1|0:0,0:0:0:0:
276,260,10771,2,0,L|259:190,1,71.5,10|0,0:0|0:0,0:0:0:0:
195,132,11090,5,10,0:1:0:0:
110,146,11250,1,0,0:0:0:0:
54,211,11409,1,10,0:0:0:0:
40,298,11569,1,0,0:0:0:0:
40,298,11729,2,0,P|89:355|155:353,1,143,10|10,0:1|0:0,0:0:0:0:
228,314,12207,1,0,0:0:0:0:
306,377,12367,6,0,P|345:367|378:361,2,71.5,10|0|10,0:1|0:0|0:0,0:0:0:0:
168,180,13005,2,0,P|129:170|96:164,2,71.5,10|0|10,0:1|0:0|0:0,0:0:0:0:
365,249,13643,6,0,P|428:258|478:183,1,143,10|8,0:1|0:0,0:0:0:0:
453,120,14122,1,2,0:0:0:0:
370,145,14282,2,0,P|332:138|293:128,1,71.5,10|0,0:1|0:0,0:0:0:0:
242,194,14601,2,0,P|252:228|256:263,1,71.5,10|0,0:0|0:0,0:0:0:0:
146,323,14920,6,0,P|137:288|131:253,2,71.5,10|0|10,0:1|0:0|0:1,0:0:0:0:
218,369,15399,1,8,0:0:0:0:
300,344,15558,2,0,P|340:330|386:334,1,71.5,10|8,0:1|0:0,0:0:0:0:
395,341,15798,1,8,0:0:0:0:
421,352,15878,2,0,L|468:335,3,35.75,8|8|0|0,0:3|0:3|0:0|0:0,0:0:0:0:
488,327,16197,6,0,B|483:278|506:245|506:245|495:218|470:197,1,128.699996072388,10|2,0:1|0:0,0:0:0:0:
412,163,16675,2,0,P|359:177|321:241,1,128.699996072388,8|0,0:1|0:0,0:0:0:0:
231,264,17154,2,0,P|241:233|243:200,1,64.3499980361939,0|0,0:0|0:0,0:0:0:0:
197,130,17473,6,0,P|141:97|63:112,1,128.699996072388,10|0,0:1|0:0,0:0:0:0:
36,178,17952,1,10,0:1:0:0:
153,297,18271,1,0,0:0:0:0:
231,264,18431,2,0,P|265:273|305:280,1,64.3499980361939,2|0,0:0|0:0,0:0:0:0:
377,316,18750,6,0,P|318:329|234:360,1,128.699996072388,10|2,0:1|0:0,0:0:0:0:
173,377,19229,1,8,0:1:0:0:
221,216,19548,1,0,0:0:0:0:
300,191,19707,2,0,P|343:203|369:210,1,64.3499980361939,2|0,0:0|0:0,0:0:0:0:
442,279,20026,6,0,P|456:317|462:366,2,64.3499980361939,10|2|0,0:1|0:0|0:0,0:0:0:0:
470,195,20505,2,0,P|444:136|439:61,1,128.699996072388,10|0,0:1|0:0,0:0:0:0:
369,24,20984,2,0,L|305:40,1,64.3499980361939,2|0,0:0|0:0,0:0:0:0:
213,106,21303,6,0,P|169:117|104:61,1,128.699996072388,10|2,0:1|0:0,0:0:0:0:
27,126,21782,2,0,L|55:254,1,128.699996072388,8|0,0:1|0:0,0:0:0:0:
117,345,22260,2,0,L|131:283,1,64.3499980361939,0|0,0:0|0:0,0:0:0:0:
194,227,22580,6,0,B|245:239|245:239|275:232|275:232|319:241,1,128.699996072388,10|0,0:1|0:0,0:0:0:0:
382,296,23058,1,10,0:1:0:0:
437,137,23378,1,0,0:0:0:0:
381,75,23537,2,0,P|346:60|312:59,1,64.3499980361939,2|0,0:0|0:0,0:0:0:0:
203,119,23856,6,0,P|265:141|331:145,1,128.699996072388,10|2,0:1|0:0,0:0:0:0:
419,162,24335,2,0,L|289:201,1,128.699996072388,10|2,0:1|0:0,0:0:0:0:
227,247,24814,2,0,P|209:283|210:313,1,64.3499980361939,2|2,0:0|0:0,0:0:0:0:
281,361,25133,6,0,L|322:348,2,32.174999018097,8|8|10,0:0|0:0|0:1,0:0:0:0:
208,306,25452,1,10,0:1:0:0:
301,271,25612,2,0,L|342:258,2,32.174999018097,8|8|8,0:0|0:0|0:1,0:0:0:0:
226,201,25931,1,8,0:1:0:0:
305,140,26090,2,0,L|287:88,3,32.174999018097,8|8|8|8,0:0|0:0|0:0|0:0,0:0:0:0:
279,69,26409,6,0,P|347:76|401:13,2,143,4|8|10,0:1|0:0|0:1,0:0:0:0:
200,33,27207,1,0,0:0:0:0:
131,85,27367,2,0,L|152:160,1,71.5,10|0,0:0|0:0,0:0:0:0:
192,229,27686,6,0,P|124:236|70:173,1,143,10|8,0:1|0:0,0:0:0:0:
150,153,28165,1,0,0:0:0:0:
258,177,28324,2,0,P|276:207|276:247,1,71.5,10|0,0:1|0:0,0:0:0:0:
335,343,28643,2,0,P|343:307|356:266,1,71.5,10|0,0:0|0:0,0:0:0:0:
386,195,28963,6,0,B|432:188|473:215|473:215|508:198|512:166,1,143,10|10,0:1|0:0,0:0:0:0:
478,97,29441,1,0,0:0:0:0:
417,39,29601,2,0,P|380:42|344:67,1,71.5,8|2,0:1|0:0,0:0:0:0:
296,126,29920,2,0,P|257:123|220:109,1,71.5,8|2,0:0|3:2,0:0:0:0:
136,77,30239,5,8,0:1:0:0:
74,137,30399,2,0,P|82:177|96:204,1,71.5,2|8,0:0|0:0,0:0:0:0:
149,268,30718,2,0,B|60:237|60:237|15:272,1,143,2|2,0:0|0:0,0:0:0:0:
64,341,31197,1,8,0:0:0:0:
163,374,31356,5,2,3:2:0:0:
163,374,31436,1,0,3:2:0:0:
163,374,31516,2,0,P|221:356|251:282,1,143,10|8,0:1|0:0,0:0:0:0:
273,190,31995,2,0,P|235:199|204:209,1,71.5,2|8,0:0|0:1,0:0:0:0:
220,109,32314,2,0,P|255:100|289:90,1,71.5,2|10,0:0|0:0,0:0:0:0:
362,135,32633,1,0,0:0:0:0:
412,50,32792,6,0,P|472:92|473:164,1,143,10|10,0:1|0:0,0:0:0:0:
404,218,33271,2,0,P|345:273|326:350,1,143,2|2,0:0|0:0,0:0:0:0:
246,362,33750,2,0,P|208:355|170:331,1,71.5,8|0,0:0|0:0,0:0:0:0:
130,263,34069,6,0,P|111:178|94:120,2,143,10|10|8,0:1|0:0|0:1,0:0:0:0:
242,281,34867,2,0,P|231:246|223:211,1,71.5,2|8,0:0|0:0,0:0:0:0:
245,128,35186,1,2,0:0:0:0:
322,209,35346,6,0,P|389:219|443:148,1,157.300004800415,12|8,0:1|0:0,0:0:0:0:
406,78,36143,1,8,0:0:0:0:
331,34,36303,1,8,0:0:0:0:
247,54,36463,5,8,0:0:0:0:
233,64,36542,1,8,0:0:0:0:
220,76,36622,2,0,P|201:124|193:154,1,71.5,12|0,0:1|0:0,0:0:0:0:
126,193,36941,2,0,P|146:240|162:267,1,71.5,10|0,0:0|0:0,0:0:0:0:
221,328,37260,2,0,P|301:301|363:292,1,143,10|10,0:1|0:0,0:0:0:0:
432,337,37739,1,0,0:0:0:0:
457,233,37899,6,0,P|437:186|421:159,1,71.5,10|0,0:1|0:0,0:0:0:0:
294,102,38218,2,0,P|326:118|365:120,1,71.5,10|0,0:0|0:0,0:0:0:0:
437,14,38537,2,0,P|388:29|360:43,1,71.5,10|2,0:1|0:0,0:0:0:0:
294,102,38856,1,8,0:0:0:0:
237,168,39016,6,0,P|306:211|379:205,1,143,2|0,0:0|0:0,0:0:0:0:
463,187,39495,2,0,P|442:231|437:266,1,71.5,10|0,0:0|0:0,0:0:0:0:
408,334,39814,1,10,0:1:0:0:
331,295,39973,1,0,0:0:0:0:
245,307,40133,1,10,0:0:0:0:
187,368,40292,5,0,0:0:0:0:
187,368,40452,2,0,L|105:348,1,71.5,10|0,0:1|0:0,0:0:0:0:
42,309,40771,2,0,P|12:253|21:168,1,143,10|10,0:0|0:1,0:0:0:0:
70,107,41250,2,0,L|139:123,1,71.5,2|8,0:0|0:0,0:0:0:0:
206,188,41569,6,0,P|266:198|319:130,1,143,2|2,0:0|0:0,0:0:0:0:
269,70,42048,1,8,0:0:0:0:
360,42,42207,2,0,P|406:91|418:171,1,143,2|2,0:0|0:0,0:0:0:0:
381,240,42686,1,8,0:0:0:0:
276,210,42846,6,0,P|215:200|135:251,1,143,2|2,0:0|0:0,0:0:0:0:
72,280,43324,1,8,0:0:0:0:
31,203,43484,2,0,L|13:130,1,71.5,2|8,0:0|0:1,0:0:0:0:
133,118,43803,1,2,0:0:0:0:
133,118,43963,2,0,L|151:45,1,71.5,8|2,0:0|0:0,0:0:0:0:
242,25,44282,6,0,B|284:12|284:12|322:57|405:30,1,143,10|8,0:1|0:0,0:0:0:0:
478,174,44920,2,0,P|409:191|365:264,1,143,10|8,0:1|0:0,0:0:0:0:
313,312,45399,1,2,0:0:0:0:
223,273,45558,6,0,P|177:286|146:298,1,71.5,8|0,0:3|0:0,0:0:0:0:
154,294,45798,1,8,0:0:0:0:
154,294,45878,1,8,0:0:0:0:
198,193,46037,2,0,P|207:158|219:124,1,71.5,8|0,0:0|3:2,0:0:0:0:
219,124,46277,1,8,0:0:0:0:
219,124,46357,1,8,0:0:0:0:
292,68,46516,2,0,L|329:59,2,35.75,8|8|8,0:0|0:0|0:3,0:0:0:0:
208,22,46835,6,0,P|143:34|92:117,1,143,12|8,0:1|0:0,0:0:0:0:
54,166,47314,1,2,0:0:0:0:
54,166,47473,2,0,L|71:241,1,71.5,10|0,0:1|0:0,0:0:0:0:
120,305,47792,1,10,0:0:0:0:
197,267,47952,1,0,0:0:0:0:
281,284,48112,6,0,L|264:359,1,71.5,10|0,0:1|0:0,0:0:0:0:
357,332,48431,2,0,P|388:318|433:319,1,71.5,10|0,0:0|0:0,0:0:0:0:
345,234,48750,2,0,P|328:204|331:158,1,71.5,10|2,0:1|0:0,0:0:0:0:
382,101,49069,1,8,0:0:0:0:
343,23,49229,1,2,0:0:0:0:
263,51,49388,6,0,B|226:117|226:117|246:141|239:184,1,143,10|10,0:1|0:0,0:0:0:0:
165,224,49867,1,0,0:0:0:0:
223,284,50026,2,0,P|246:320|251:349,2,71.5,10|0|10,0:1|0:0|0:0,0:0:0:0:
141,311,50505,1,0,0:0:0:0:
75,237,50665,6,0,L|57:154,1,71.5,10|0,0:1|0:0,0:0:0:0:
175,66,50984,2,0,L|159:135,1,71.5,10|0,0:0|0:0,0:0:0:0:
209,206,51303,1,10,0:1:0:0:
284,164,51463,2,0,P|326:174|368:179,1,71.5,2|8,0:0|0:0,0:0:0:0:
467,162,51782,5,2,0:0:0:0:
467,162,51862,1,0,0:0:0:0:
467,162,51941,2,0,P|464:231|381:276,1,143,10|8,0:1|0:0,0:0:0:0:
336,320,52420,2,0,P|267:306|177:284,1,143,2|2,0:0|0:0,0:0:0:0:
119,249,52899,1,8,0:0:0:0:
79,324,53058,6,0,P|88:251|49:189,1,143,2|2,0:0|0:0,0:0:0:0:
33,109,53537,1,8,0:0:0:0:
103,60,53697,2,0,B|149:104|210:87|210:87|233:109,1,143,2|0,0:0|0:0,0:0:0:0:
298,156,54175,2,0,L|377:139,1,71.5,10|2,0:0|0:0,0:0:0:0:
443,224,54495,6,0,L|373:239,1,71.5,10|0,0:1|0:0,0:0:0:0:
373,239,54734,1,8,0:0:0:0:
373,239,54814,1,10,0:0:0:0:
302,287,54973,1,8,0:1:0:0:
239,345,55133,2,0,L|254:378,2,35.75,0|8|8,0:0|0:0|0:0,0:0:0:0:
153,335,55452,2,0,P|121:309|111:267,1,71.5,8|8,0:0|0:0,0:0:0:0:
121,192,55771,6,0,P|106:152|92:126,1,71.5,10|8,0:0|0:1,0:0:0:0:
113,43,56090,2,0,L|60:18,2,35.75,10|8|8,0:0|0:0|0:0,0:0:0:0:
195,67,56409,2,0,P|226:83|260:95,1,71.5,8|8,0:0|0:0,0:0:0:0:
302,186,56729,2,0,P|271:205|244:228,1,71.5,8|8,0:0|0:0,0:0:0:0:
196,299,57048,1,4,0:1:0:0:
256,192,57128,12,0,59282,0:0:0:0:
256,64,59601,6,0,P|196:103|120:115,1,128.699996072388,10|0,0:1|0:0,0:0:0:0:
25,243,60239,2,0,P|80:273|144:280,1,128.699996072388,2|0,0:0|0:0,0:0:0:0:
219,317,60718,2,0,P|262:300|292:299,1,64.3499980361939,2|0,0:0|0:0,0:0:0:0:
316,373,61037,5,0,0:0:0:0:
316,373,61197,2,0,L|343:237,1,128.699996072388
409,199,61675,1,2,0:0:0:0:
421,116,61835,1,2,0:0:0:0:
346,78,61995,1,10,0:1:0:0:
293,142,62154,6,0,P|235:148|188:102,1,128.699996072388,10|0,0:1|0:0,0:0:0:0:
23,229,62792,2,0,P|83:211|148:194,1,128.699996072388,2|0,0:0|0:0,0:0:0:0:
220,234,63271,1,2,0:0:0:0:
294,272,63431,6,0,P|324:263|356:254,2,64.3499980361939,0|0|0,0:0|0:0|0:0,0:0:0:0:
358,117,64069,2,0,P|394:99|429:99,1,64.3499980361939,2|0,0:0|0:0,0:0:0:0:
466,165,64388,2,0,B|446:203|446:203|450:260|512:264,1,128.699996072388,2|4,0:0|0:3,0:0:0:0:
339,360,65026,5,0,0:0:0:0:
256,320,65186,2,0,P|215:329|170:351,1,71.5,4|0,0:3|0:0,0:0:0:0:
100,371,65505,1,0,0:0:0:0:
19,252,65665,2,0,P|56:270|89:276,1,71.5,4|0,0:3|0:0,0:0:0:0:
167,188,65984,6,0,P|194:165|230:151,1,71.5,8|4,0:3|0:3,0:0:0:0:
318,130,66303,1,12,0:3:0:0:
408,151,66463,1,8,0:3:0:0:
483,204,66622,1,8,0:3:0:0:
510,292,66782,1,8,0:0:0:0:
498,305,66862,1,8,0:0:0:0:
486,318,66941,2,0,L|469:355,3,35.75,8|8|8|8,0:0|0:0|0:0|0:0,0:0:0:0:
438,369,67260,6,0,P|401:358|366:351,1,71.5,12|2,0:1|0:0,0:0:0:0:
299,284,67580,2,0,P|263:291|228:302,1,71.5,8|2,0:0|0:0,0:0:0:0:
150,357,67899,2,0,P|99:334|103:236,1,143,10|10,0:1|0:0,0:0:0:0:
115,174,68378,1,0,0:0:0:0:
213,208,68537,6,0,L|192:122,1,71.5,10|2,0:1|0:0,0:0:0:0:
227,58,68856,2,0,B|270:37|270:37|325:29|360:86,1,143,8|10,0:0|0:1,0:0:0:0:
373,161,69335,1,2,0:0:0:0:
288,228,69495,2,0,B|221:208|215:260|138:240,1,143,8|10,0:0|0:1,0:0:0:0:
74,287,69973,5,2,0:0:0:0:
131,351,70133,2,0,P|173:365|218:366,1,71.5,8|2,0:0|0:0,0:0:0:0:
278,332,70452,2,0,P|349:311|439:302,1,143,10|10,0:1|0:0,0:0:0:0:
481,245,70931,1,0,0:0:0:0:
410,196,71090,6,0,L|426:121,1,71.5,10|2,0:1|0:0,0:0:0:0:
304,72,71409,2,0,P|305:109|319:141,1,71.5,8|2,0:0|0:0,0:0:0:0:
298,245,71729,2,0,P|261:248|231:230,1,71.5,8|2,0:1|0:0,0:0:0:0:
160,165,72048,2,0,P|126:148|92:151,1,71.5,8|2,0:0|0:0,0:0:0:0:
34,255,72367,6,0,L|105:236,1,71.5,10|0,0:1|0:0,0:0:0:0:
175,283,72686,1,10,0:0:0:0:
213,360,72846,1,0,0:0:0:0:
291,327,73005,2,0,B|342:313|342:313|370:322|370:322|402:300|451:305,1,143,10|10,0:1|0:0,0:0:0:0:
499,257,73484,1,0,0:0:0:0:
431,194,73643,6,0,P|437:159|454:128,1,71.5,10|2,0:1|0:0,0:0:0:0:
422,47,73963,2,0,P|338:67|271:79,1,143,10|10,0:0|0:1,0:0:0:0:
203,43,74441,1,2,0:0:0:0:
149,130,74601,2,0,P|160:175|169:202,1,71.5,10|0,0:0|0:0,0:0:0:0:
88,231,74920,6,0,P|158:244|227:261,1,143,10|10,0:1|0:0,0:0:0:0:
296,312,75399,1,0,0:0:0:0:
375,280,75558,2,0,P|393:248|391:211,1,71.5,10|2,0:1|0:0,0:0:0:0:
371,129,75878,1,8,0:0:0:0:
299,82,76037,1,2,0:0:0:0:
218,112,76197,6,0,L|143:129,1,71.5,10|0,0:1|0:0,0:0:0:0:
84,205,76516,2,0,L|159:222,1,71.5,10|0,0:0|0:0,0:0:0:0:
214,336,76835,2,0,P|178:336|148:319,1,71.5,10|0,0:1|0:0,0:0:0:0:
70,275,77154,2,0,P|79:237|84:202,1,71.5,10|8,0:0|0:0,0:0:0:0:
65,174,77393,1,8,0:0:0:0:
40,147,77473,6,0,P|98:99|168:106,1,135.849996372414,12|10,0:1|0:1,0:0:0:0:
238,139,77952,1,0,0:0:0:0:
238,139,78112,2,0,B|291:153|291:153|328:125|381:131,1,135.849996372414,10|8,0:1|0:3,0:0:0:0:
447,271,78750,6,0,P|431:321|428:348,2,67.9249981862069,10|0|10,0:1|0:0|0:1,0:0:0:0:
271,168,79388,2,0,P|282:219|293:244,1,67.9249981862069,10|0,0:1|0:0,0:0:0:0:
236,297,79707,1,8,0:3:0:0:
81,347,80026,6,0,L|151:365,1,67.9249981862069,10|0,0:1|0:0,0:0:0:0:
136,282,80346,2,0,L|70:265,1,67.9249981862069,10|0,0:1|0:0,0:0:0:0:
22,198,80665,2,0,P|52:141|45:66,1,135.849996372414,10|8,0:1|0:3,0:0:0:0:
200,17,81303,6,0,P|170:74|177:149,1,135.849996372414,10|10,0:1|0:1,0:0:0:0:
221,210,81782,1,0,0:0:0:0:
293,172,81941,2,0,P|328:160|363:160,1,67.9249981862069,10|0,0:1|0:0,0:0:0:0:
432,195,82260,2,0,L|410:275,1,67.9249981862069,8|0,0:3|0:0,0:0:0:0:
357,319,82580,6,0,B|439:291|439:291|488:309,2,135.849996372414,10|8|10,0:1|0:0|0:1,0:0:0:0:
195,297,83537,1,8,0:0:0:0:
136,354,83697,1,0,0:0:0:0:
57,333,83856,6,0,P|8:295|23:213,1,135.849996372414,10|10,0:1|0:0,0:0:0:0:
152,123,84495,2,0,L|217:106,2,67.9249981862069,8|2|8,0:1|0:0|0:0,0:0:0:0:
76,91,84973,1,2,0:0:0:0:
157,35,85133,6,0,B|223:19|223:19|259:18|291:58,1,135.849996372414,10|10,0:1|0:0,0:0:0:0:
368,186,85771,2,0,P|337:202|295:203,1,67.9249981862069,8|8,0:1|0:0,0:0:0:0:
222,170,86090,1,8,0:1:0:0:
140,205,86250,1,8,0:0:0:0:
150,292,86409,5,8,0:3:0:0:
223,339,86569,2,0,L|215:376,2,33.9624990931034,0|8|8,0:0|0:0|0:0,0:0:0:0:
288,266,86888,2,0,P|300:198|320:122,1,135.849996372414,12|12,0:1|0:1,0:0:0:0:
401,109,87367,1,8,0:1:0:0:
324,29,87526,6,0,B|257:13|257:56|177:39,1,143,12|0,0:1|0:0,0:0:0:0:
