osu file format v14

[General]
AudioFilename: audio.mp3
AudioLeadIn: 0
PreviewTime: 36463
Countdown: 0
SampleSet: Soft
StackLeniency: 0.7
Mode: 0
LetterboxInBreaks: 0
WidescreenStoryboard: 0

[Editor]
DistanceSpacing: 1.9
BeatDivisor: 4
GridSize: 4
TimelineZoom: 1.8

[Metadata]
Title:Uso no Hibana
TitleUnicode:嘘の火花
Artist:96neko
ArtistUnicode:96猫
Creator:Kibbleru
Version:Extra
Source:クズの本懐
Tags:Kuzu Honkai scum's scums scum wish Kocari iWinnie Momochikun Mochi sahuang My_Angel_Azusa My Angel Azusa toybot opening
BeatmapID:1179870
BeatmapSetID:557651

[Difficulty]
HPDrainRate:7
CircleSize:4
OverallDifficulty:8
ApproachRate:9.3
SliderMultiplier:1.7
SliderTickRate:1

[Events]
//Background and Video events
0,0,"752735.jpg",0,0
Video,220,"optc.flv"
//Break Periods
//Storyboard Layer 0 (Background)
//Storyboard Layer 1 (Fail)
//Storyboard Layer 2 (Pass)
//Storyboard Layer 3 (Foreground)
//Storyboard Sound Samples

[TimingPoints]
878,319.148936170213,4,2,1,40,1,0
878,-142.857142857143,4,2,1,40,0,0
4229,-142.857142857143,4,2,1,50,0,0
4707,-76.9230769230769,4,2,1,60,0,0
5984,-100,4,2,1,60,0,0
16516,-142.857142857143,4,2,1,40,0,0
25133,-142.857142857143,4,2,1,50,0,0
26409,-111.111111111111,4,2,1,60,0,0
36303,-76.9230769230769,4,2,1,70,0,0
36622,-100,4,2,1,70,0,1
45558,-76.9230769230769,4,2,1,70,0,0
46835,-100,4,2,1,70,0,1
55452,-76.9230769230769,4,2,1,70,0,1
57048,-76.9230769230769,4,2,1,70,0,0
57128,-76.9230769230769,4,2,1,50,0,0
59601,-200,4,2,1,50,0,0
64707,-142.857142857143,4,2,1,60,0,0
66941,-76.9230769230769,4,2,1,70,0,0
67260,-100,4,2,1,70,0,1
77473,-142.857142857143,4,2,1,50,0,0
85931,-142.857142857143,4,2,1,60,0,0
86729,-76.9230769230769,4,2,1,70,0,0
87526,-400,4,2,1,70,0,0
88165,-400,4,2,1,20,0,0

[Colours]
Combo1 : 90,243,201
Combo2 : 249,160,28
Combo3 : 255,153,242
Combo4 : 130,47,255

[HitObjects]
197,135,878,6,0,P|138:124|79:115,1,118.999996368408,12|0,0:1|0:0,0:0:0:0:
34,198,1356,2,0,P|92:207|151:217,1,118.999996368408,2|0,0:0|0:0,0:0:0:0:
236,260,1835,2,0,P|295:259|343:226,1,118.999996368408,2|0,0:0|0:0,0:0:0:0:
342,126,2314,6,0,P|335:97|330:67,1,59.4999981842042,2|0,0:0|0:0,0:0:0:0:
235,52,2633,2,0,P|240:80|245:109,1,59.4999981842042,2|0,0:0|0:0,0:0:0:0:
139,348,2952,1,8,0:3:0:0:
312,300,3112,1,8,0:3:0:0:
172,171,3271,1,4,0:3:0:0:
128,262,3431,6,0,P|186:272|221:319,1,118.999996368408,12|0,0:1|0:0,0:0:0:0:
312,300,3909,2,0,L|401:286,1,89.2499972763062,2|0,0:0|0:0,0:0:0:0:
486,312,4229,2,0,L|494:265,3,29.7499990921021,0|0|0|0,3:2|3:2|3:2|3:2,0:0:0:0:
445,204,4548,1,8,0:0:0:0:
443,186,4628,1,8,0:0:0:0:
442,168,4707,5,8,0:1:0:0:
315,62,4867,1,8,0:0:0:0:
311,85,4947,1,8,0:0:0:0:
307,108,5026,2,0,P|283:114|251:115,1,55.2499974708558,8|0,0:0|0:0,0:0:0:0:
134,179,5186,1,8,0:0:0:0:
130,156,5266,1,8,0:0:0:0:
126,132,5345,6,0,P|101:125|70:121,1,55.2499974708558,8|0,0:0|0:0,0:0:0:0:
200,301,5505,1,8,0:1:0:0:
200,301,5585,1,8,0:1:0:0:
200,301,5665,2,0,P|203:275|206:241,1,55.2499974708558,8|8,0:1|0:0,0:0:0:0:
314,52,5824,2,0,P|310:80|306:107,1,55.2499974708558,8|8,0:1|0:0,0:0:0:0:
293,199,5984,5,12,0:1:0:0:
293,199,6143,1,0,0:0:0:0:
413,127,6303,1,10,0:0:0:0:
209,88,6463,1,0,0:0:0:0:
245,277,6622,6,0,P|299:245|362:247,1,127.5,10|0,0:1|0:0,0:0:0:0:
457,298,6941,2,0,P|466:256|468:214,1,85,10|0,0:0|0:0,0:0:0:0:
311,50,7260,5,10,0:1:0:0:
358,146,7420,1,2,0:0:0:0:
427,60,7580,2,0,P|468:51|510:42,1,85,10|0,0:0|0:0,0:0:0:0:
244,138,7899,5,10,0:1:0:0:
197,234,8059,1,2,0:0:0:0:
128,148,8219,2,0,P|86:139|44:130,1,85,10|0,0:0|0:0,0:0:0:0:
153,322,8537,5,10,0:1:0:0:
153,322,8697,1,0,0:0:0:0:
304,223,8856,1,10,0:0:0:0:
128,148,9016,1,0,0:0:0:0:
270,325,9175,6,0,L|401:311,1,127.5,10|0,0:1|0:0,0:0:0:0:
496,281,9495,2,0,P|480:320|478:368,1,85,10|0,0:0|0:0,0:0:0:0:
369,162,9814,5,10,0:1:0:0:
280,222,9973,1,2,0:0:0:0:
245,37,10133,2,0,P|261:76|263:123,1,85,10|0,0:0|0:0,0:0:0:0:
171,170,10452,5,8,0:1:0:0:
369,58,10612,1,2,0:0:0:0:
171,170,10771,1,8,0:0:0:0:
380,254,10931,1,2,0:0:0:0:
296,160,11090,5,10,0:1:0:0:
296,160,11250,1,0,0:0:0:0:
312,350,11409,1,10,0:0:0:0:
404,151,11569,1,0,0:0:0:0:
231,264,11729,6,0,P|173:288|110:285,1,127.5,10|0,0:1|0:0,0:0:0:0:
54,217,12048,2,0,L|68:133,1,85,10|0,0:0|0:0,0:0:0:0:
333,33,12367,5,10,0:1:0:0:
260,111,12526,1,2,0:0:0:0:
360,143,12686,2,0,P|401:134|443:126,1,85,10|0,0:0|0:0,0:0:0:0:
146,132,13005,5,10,0:1:0:0:
219,210,13164,1,2,0:0:0:0:
118,242,13324,2,0,P|76:233|34:225,1,85,10|0,0:0|0:0,0:0:0:0:
197,327,13643,6,0,P|255:300|319:304,1,127.5,10|0,0:1|0:0,0:0:0:0:
386,352,13963,1,8,0:0:0:0:
442,134,14122,1,2,0:0:0:0:
477,227,14282,2,0,P|434:229|394:218,1,85,10|0,0:1|0:0,0:0:0:0:
171,42,14601,2,0,P|213:39|253:50,1,85,10|0,0:0|0:0,0:0:0:0:
288,149,14920,5,10,0:1:0:0:
361,68,15080,1,0,0:0:0:0:
184,134,15239,5,10,0:1:0:0:
406,163,15399,1,8,0:0:0:0:
272,342,15558,1,10,0:1:0:0:
262,71,15718,5,8,0:0:0:0:
285,107,15798,1,8,0:0:0:0:
288,149,15878,1,8,0:3:0:0:
267,177,15957,1,8,0:3:0:0:
248,214,16036,1,4,0:3:0:0:
251,256,16116,1,4,0:3:0:0:
273,292,16196,1,10,0:1:0:0:
406,246,16516,6,0,L|347:235,1,59.4999981842042,2|8,0:0|0:1,0:0:0:0:
267,194,16835,2,0,P|216:223|157:225,1,118.999996368408,2|0,0:0|0:0,0:0:0:0:
94,161,17314,1,0,0:0:0:0:
133,81,17473,5,10,0:1:0:0:
81,315,17633,2,0,P|73:286|70:256,1,59.4999981842042,2|0,0:0|0:0,0:0:0:0:
217,27,17952,2,0,P|231:83|209:138,1,118.999996368408,10|0,0:1|0:0,0:0:0:0:
127,173,18431,1,2,0:0:0:0:
272,205,18590,1,0,0:0:0:0:
126,75,18750,6,0,L|67:67,1,59.4999981842042,10|0,0:1|0:0,0:0:0:0:
216,27,19069,2,0,P|246:24|275:17,1,59.4999981842042,2|8,0:0|0:1,0:0:0:0:
361,44,19388,2,0,P|340:80|338:162,1,118.999996368408,2|0,0:0|0:0,0:0:0:0:
411,204,19867,1,0,0:0:0:0:
333,247,20026,5,10,0:1:0:0:
488,121,20186,2,0,P|458:116|429:113,1,59.4999981842042,2|0,0:0|0:0,0:0:0:0:
214,262,20505,2,0,P|273:254|332:247,1,118.999996368408,10|0,0:1|0:0,0:0:0:0:
403,305,20984,1,2,0:0:0:0:
275,164,21143,1,0,0:0:0:0:
233,346,21303,5,10,0:1:0:0:
362,117,21622,2,0,P|372:144|373:174,1,59.4999981842042,2|8,0:0|0:1,0:0:0:0:
183,200,21941,2,0,P|176:142|204:86,1,118.999996368408,2|0,0:0|0:0,0:0:0:0:
281,48,22420,1,0,0:0:0:0:
138,17,22580,5,10,0:1:0:0:
276,223,22739,2,0,P|274:193|274:163,1,59.4999981842042,2|0,0:0|0:0,0:0:0:0:
20,33,23058,2,0,L|151:15,1,118.999996368408,10|0,0:1|0:0,0:0:0:0:
175,102,23537,2,0,P|145:105|116:109,1,59.4999981842042,2|0,0:0|0:0,0:0:0:0:
56,188,23856,5,8,0:1:0:0:
188,290,24016,1,2,0:0:0:0:
154,207,24175,1,2,0:0:0:0:
97,276,24335,2,0,P|92:305|89:334,1,59.4999981842042,10|0,0:1|0:0,0:0:0:0:
331,165,24654,5,2,0:0:0:0:
264,224,24814,1,2,0:0:0:0:
247,135,24973,1,0,0:0:0:0:
427,153,25133,5,8,0:0:0:0:
427,153,25213,1,8,0:0:0:0:
427,153,25292,1,10,0:1:0:0:
264,224,25452,1,10,0:1:0:0:
402,315,25612,2,0,L|397:285,2,29.7499990921021,8|8|8,0:0|0:0|0:1,0:0:0:0:
274,342,25931,1,8,0:1:0:0:
337,152,26090,5,8,0:0:0:0:
313,133,26170,1,8,0:0:0:0:
285,123,26250,1,10,0:0:0:0:
256,123,26329,1,10,0:0:0:0:
228,132,26409,5,12,0:1:0:0:
119,256,26569,1,0,0:0:0:0:
39,186,26729,2,0,L|49:110,1,76.4999976654053,10|0,0:0|0:0,0:0:0:0:
291,306,27048,5,10,0:1:0:0:
136,158,27207,1,0,0:0:0:0:
325,96,27367,1,10,0:0:0:0:
119,256,27526,1,0,0:0:0:0:
375,366,27686,6,0,P|395:294|359:228,1,152.999995330811,10|8,0:1|0:0,0:0:0:0:
251,172,28165,1,0,0:0:0:0:
357,110,28324,5,10,0:1:0:0:
248,279,28484,1,0,0:0:0:0:
154,112,28643,1,10,0:0:0:0:
248,279,28803,1,0,0:0:0:0:
251,172,28963,5,10,0:1:0:0:
54,150,29122,1,0,0:0:0:0:
249,66,29282,2,0,P|286:61|324:55,1,76.4999976654053,10|0,0:0|0:0,0:0:0:0:
341,230,29601,5,8,0:1:0:0:
153,111,29760,2,0,P|141:75|142:37,1,76.4999976654053,2|8,0:0|0:0,0:0:0:0:
393,134,30080,1,2,3:2:0:0:
393,134,30159,1,0,3:2:0:0:
393,134,30239,5,8,0:1:0:0:
235,224,30399,2,0,P|227:261|220:299,1,76.4999976654053,2|8,0:0|0:0,0:0:0:0:
490,181,30718,2,0,P|497:143|504:105,1,76.4999976654053,2|8,0:0|0:1,0:0:0:0:
389,239,31037,1,2,0:0:0:0:
182,139,31197,1,8,0:0:0:0:
289,94,31356,1,2,3:2:0:0:
289,94,31436,1,0,3:2:0:0:
289,94,31516,5,8,0:1:0:0:
274,204,31675,1,2,0:0:0:0:
88,79,31835,1,10,0:0:0:0:
19,152,31995,2,0,P|10:187|11:235,1,76.4999976654053,2|8,0:0|0:1,0:0:0:0:
89,288,32314,5,2,0:0:0:0:
289,94,32473,1,10,0:0:0:0:
375,161,32633,2,0,P|384:196|383:244,1,76.4999976654053,2|8,0:0|0:1,0:0:0:0:
306,311,32952,5,2,0:0:0:0:
157,107,33112,1,10,0:0:0:0:
234,15,33271,2,0,L|309:2,1,76.4999976654053,2|8,0:0|0:1,0:0:0:0:
201,206,33590,2,0,L|125:218,1,76.4999976654053,2|8,0:0|0:0,0:0:0:0:
270,120,33909,1,0,0:0:0:0:
299,335,34069,6,0,P|293:278|315:225,1,114.749996498108,10|0,0:1|0:0,0:0:0:0:
360,70,34388,2,0,P|374:105|370:149,1,76.4999976654053,10|0,0:0|0:0,0:0:0:0:
212,199,34707,5,10,0:1:0:0:
212,199,34867,1,0,0:0:0:0:
121,147,35026,1,8,0:0:0:0:
65,248,35186,1,2,0:0:0:0:
23,87,35346,5,12,0:1:0:0:
160,298,35984,5,8,0:0:0:0:
286,76,36143,1,8,0:0:0:0:
322,199,36303,2,0,P|296:194|265:191,1,55.2499974708558,8|0,0:0|0:0,0:0:0:0:
187,123,36463,1,8,0:0:0:0:
187,123,36542,1,8,0:0:0:0:
187,123,36622,5,14,0:1:0:0:
388,119,36782,1,0,0:0:0:0:
292,285,36941,1,10,0:0:0:0:
286,76,37101,1,0,0:0:0:0:
462,270,37260,5,10,0:1:0:0:
272,170,37420,1,0,0:0:0:0:
487,86,37580,1,10,0:0:0:0:
272,170,37739,1,0,0:0:0:0:
407,24,37899,5,10,0:1:0:0:
244,265,38058,1,0,0:0:0:0:
153,25,38218,1,10,0:0:0:0:
341,243,38378,1,0,0:0:0:0:
89,328,38537,5,10,0:1:0:0:
127,121,38697,2,0,P|169:114|210:107,1,85,2|8,0:0|0:0,0:0:0:0:
339,49,39016,1,2,0:0:0:0:
339,49,39096,1,2,0:0:0:0:
339,48,39175,6,0,P|303:100|300:163,1,127.5,10|0,0:1|0:0,0:0:0:0:
341,243,39495,1,10,0:0:0:0:
505,155,39654,1,0,0:0:0:0:
398,141,39814,5,10,0:1:0:0:
497,315,39973,1,0,0:0:0:0:
301,333,40133,1,10,0:0:0:0:
497,315,40292,1,0,0:0:0:0:
302,69,40452,5,10,0:1:0:0:
420,250,40612,1,0,0:0:0:0:
487,19,40771,1,10,0:0:0:0:
320,229,40931,1,0,0:0:0:0:
212,8,41090,5,10,0:1:0:0:
505,122,41250,2,0,P|462:121|424:104,1,85,2|8,0:0|0:0,0:0:0:0:
157,156,41569,6,0,P|226:109|313:123,1,170,2|2,0:0|0:0,0:0:0:0:
379,312,42048,1,8,0:0:0:0:
424,103,42207,2,0,P|426:146|411:185,1,85,2|8,0:0|0:1,0:0:0:0:
261,336,42526,2,0,P|259:293|274:254,1,85,2|8,0:0|0:0,0:0:0:0:
308,120,42846,6,0,B|234:96|223:165|144:141,1,170,2|2,0:0|0:0,0:0:0:0:
171,40,43324,1,8,0:0:0:0:
284,223,43484,2,0,P|323:242|365:245,1,85,2|8,0:0|0:1,0:0:0:0:
171,40,43803,1,0,0:0:0:0:
179,237,43963,1,10,0:0:0:0:
327,135,44122,1,2,0:0:0:0:
101,136,44282,6,0,P|59:128|17:122,1,85,10|0,0:1|0:0,0:0:0:0:
298,38,44601,2,0,P|340:43|381:51,1,85,10|0,0:0|0:0,0:0:0:0:
83,29,44920,6,0,P|40:23|0:15,1,85,10|0,0:1|0:0,0:0:0:0:
270,213,45239,2,0,P|312:218|353:226,1,85,10|0,0:0|0:0,0:0:0:0:
187,34,45558,6,0,B|144:128|144:128|184:192,1,165.749992412568,8|8,0:3|0:0,0:0:0:0:
186,269,45878,2,0,L|177:325,1,55.2499974708558,8|0,0:0|3:2,0:0:0:0:
261,121,46037,2,0,L|328:110,1,55.2499974708558,8|0,0:0|3:2,0:0:0:0:
303,233,46197,5,2,3:0:0:0:
303,233,46276,1,8,0:0:0:0:
303,233,46356,2,0,L|369:222,1,55.2499974708558,8|0,0:0|3:2,0:0:0:0:
442,146,46516,1,8,0:0:0:0:
442,146,46596,1,8,0:0:0:0:
442,146,46675,2,0,P|450:121|452:82,1,55.2499974708558,4|0,0:3|0:0,0:0:0:0:
456,254,46835,5,12,0:1:0:0:
332,125,46995,1,0,0:0:0:0:
296,306,47154,1,10,0:0:0:0:
442,146,47314,1,0,0:0:0:0:
218,88,47473,5,10,0:1:0:0:
365,220,47633,1,0,0:0:0:0:
190,303,47792,1,10,0:0:0:0:
365,220,47952,1,0,0:0:0:0:
118,25,48112,5,10,0:1:0:0:
257,229,48271,1,0,0:0:0:0:
337,10,48431,1,10,0:0:0:0:
163,204,48590,1,0,0:0:0:0:
420,309,48750,5,10,0:1:0:0:
387,99,48909,2,0,P|345:106|303:112,1,85,2|8,0:0|0:0,0:0:0:0:
190,303,49229,1,2,0:0:0:0:
190,303,49308,1,2,0:0:0:0:
190,303,49388,5,10,0:1:0:0:
204,141,49548,1,0,0:0:0:0:
345,252,49707,1,10,0:0:0:0:
129,213,49867,1,0,0:0:0:0:
340,58,50026,5,10,0:1:0:0:
253,233,50186,1,0,0:0:0:0:
147,61,50346,1,10,0:0:0:0:
253,233,50505,1,0,0:0:0:0:
408,135,50665,5,10,0:1:0:0:
155,254,50824,1,0,0:0:0:0:
406,333,50983,1,10,0:0:0:0:
175,162,51143,1,0,0:0:0:0:
453,49,51303,5,10,0:1:0:0:
291,375,51463,2,0,P|283:333|277:291,1,85,2|8,0:0|0:0,0:0:0:0:
316,4,51782,6,0,P|354:76|324:153,1,170,2|2,0:0|0:0,0:0:0:0:
115,211,52260,1,8,0:0:0:0:
244,84,52420,2,0,P|204:100|160:103,1,85,2|8,0:0|0:1,0:0:0:0:
347,281,52739,2,0,P|307:264|263:262,1,85,2|8,0:0|0:0,0:0:0:0:
323,153,53058,6,0,B|406:179|412:113|487:142,1,170,2|2,0:0|0:0,0:0:0:0:
455,235,53537,1,8,0:0:0:0:
206,83,53697,2,0,P|216:124|223:166,1,85,2|8,0:0|0:1,0:0:0:0:
176,249,54016,1,0,0:0:0:0:
313,117,54175,1,10,0:0:0:0:
110,68,54335,1,2,0:0:0:0:
276,305,54495,6,0,P|283:263|291:221,1,85,10|0,0:1|0:0,0:0:0:0:
309,138,54734,1,8,0:0:0:0:
313,117,54814,1,10,0:0:0:0:
403,213,54973,1,8,0:1:0:0:
202,168,55133,5,10,0:0:0:0:
202,168,55213,2,0,L|117:160,1,85,8|8,0:0|0:0,0:0:0:0:
18,137,55452,2,0,P|22:162|25:193,1,55.2499974708558,10|0,0:0|0:0,0:0:0:0:
98,323,55612,2,0,P|101:297|108:265,1,55.2499974708558,10|8,0:0|0:0,0:0:0:0:
202,168,55771,5,10,0:0:0:0:
368,304,55931,1,8,0:1:0:0:
210,378,56090,1,10,0:0:0:0:
210,378,56170,1,8,0:0:0:0:
210,378,56250,2,0,P|213:352|219:323,1,55.2499974708558,8|8,0:0|0:0,0:0:0:0:
273,243,56409,5,8,0:0:0:0:
247,267,56489,1,8,0:0:0:0:
214,280,56569,1,8,0:0:0:0:
179,277,56649,1,8,0:0:0:0:
147,260,56729,1,8,0:0:0:0:
115,243,56809,1,8,0:0:0:0:
80,241,56889,1,8,0:0:0:0:
48,253,56969,1,8,0:0:0:0:
22,278,57049,5,12,0:1:0:0:
256,192,57128,12,8,59441,0:1:0:0:
323,148,59601,6,0,P|268:180|207:168,1,127.5,10|0,0:1|0:0,0:0:0:0:
118,214,60239,2,0,P|80:194|37:194,1,85,2|0,0:0|0:0,0:0:0:0:
162,298,60718,6,0,B|150:248|132:201|211:190|169:93,1,212.5,2|0,0:0|0:0,0:0:0:0:
74,32,61675,1,2,0:0:0:0:
258,34,61835,1,2,0:0:0:0:
74,32,61995,1,10,0:1:0:0:
120,184,62154,6,0,P|180:200|234:170,1,127.5,10|0,0:1|0:0,0:0:0:0:
334,151,62792,2,0,P|376:132|429:142,1,85,2|0,0:0|0:0,0:0:0:0:
431,315,63271,6,0,P|349:316|301:249,1,170,2|0,0:0|0:0,0:0:0:0:
239,154,64069,2,0,L|185:146,1,42.5,2|0,0:0|0:0,0:0:0:0:
153,233,64388,1,2,0:0:0:0:
153,233,64548,1,8,0:1:0:0:
89,163,64707,6,0,P|70:126|74:32,1,118.999996368408,4|0,0:3|0:0,0:0:0:0:
305,225,65186,2,0,P|317:197|325:169,1,59.4999981842042,4|0,0:3|0:0,0:0:0:0:
270,78,65505,1,0,0:0:0:0:
170,354,65665,2,0,P|161:325|156:296,1,59.4999981842042,4|0,0:3|0:0,0:0:0:0:
323,339,65984,5,8,0:3:0:0:
166,196,66143,1,8,0:3:0:0:
356,151,66303,5,8,0:3:0:0:
71,241,66463,1,8,0:3:0:0:
387,277,66622,5,8,0:3:0:0:
78,138,66782,1,8,0:0:0:0:
78,138,66862,1,8,0:0:0:0:
78,138,66941,6,0,L|90:84,1,55.2499974708558,8|8,0:0|0:0,0:0:0:0:
159,307,67101,2,0,L|147:360,1,55.2499974708558,8|8,0:0|0:0,0:0:0:0:
232,229,67260,5,12,0:1:0:0:
54,313,67420,1,0,0:0:0:0:
265,374,67580,1,10,0:0:0:0:
135,211,67739,1,0,0:0:0:0:
364,8,67899,6,0,P|383:68|374:130,1,127.5,10|0,0:1|0:0,0:0:0:0:
296,155,68218,2,0,P|258:135|211:132,1,85,10|0,0:0|0:0,0:0:0:0:
294,381,68537,5,10,0:1:0:0:
230,225,68697,1,2,0:0:0:0:
87,339,68856,2,0,B|134:316|165:340|212:322,1,127.5,10|0,0:0|0:0,0:0:0:0:
311,286,69175,5,10,0:1:0:0:
152,159,69335,1,2,0:0:0:0:
362,119,69495,2,0,B|315:96|283:120|236:102,1,127.5,10|0,0:0|0:0,0:0:0:0:
147,61,69814,5,10,0:1:0:0:
240,214,69973,1,0,0:0:0:0:
69,216,70133,1,10,0:0:0:0:
236,102,70292,1,0,0:0:0:0:
289,300,70452,6,0,P|228:313|170:284,1,127.5,10|0,0:1|0:0,0:0:0:0:
69,215,70771,2,0,P|75:257|80:300,1,85,10|0,0:0|0:0,0:0:0:0:
130,69,71090,5,10,0:1:0:0:
240,214,71250,1,0,0:0:0:0:
69,215,71409,1,10,0:0:0:0:
236,102,71569,1,0,0:0:0:0:
286,312,71729,5,8,0:1:0:0:
152,158,71888,1,2,0:0:0:0:
338,97,72048,1,8,0:0:0:0:
155,265,72207,1,2,0:0:0:0:
378,373,72367,6,0,P|395:333|394:291,1,85,10|0,0:1|0:0,0:0:0:0:
253,35,72686,2,0,P|236:74|237:116,1,85,10|0,0:0|0:0,0:0:0:0:
443,201,73005,6,0,P|382:185|323:217,1,127.5,10|0,0:1|0:0,0:0:0:0:
247,264,73324,2,0,L|162:252,1,85,10|0,0:0|0:0,0:0:0:0:
109,166,73643,5,10,0:1:0:0:
190,355,73803,1,2,0:0:0:0:
329,89,73963,2,0,P|341:151|325:213,1,127.5,10|0,0:0|0:0,0:0:0:0:
247,264,74282,5,10,0:1:0:0:
99,59,74441,1,2,0:0:0:0:
13,252,74601,2,0,P|1:189|16:128,1,127.5,10|0,0:0|0:0,0:0:0:0:
190,107,74920,6,0,P|232:101|273:93,1,85,10|0,0:1|0:0,0:0:0:0:
377,276,75239,1,10,0:0:0:0:
237,188,75399,1,0,0:0:0:0:
386,102,75558,1,10,0:1:0:0:
237,188,75718,1,0,0:0:0:0:
459,345,75878,2,0,P|481:308|486:267,1,85,10|0,0:0|0:0,0:0:0:0:
278,92,76197,5,10,0:1:0:0:
415,209,76356,1,0,0:0:0:0:
471,41,76516,1,10,0:0:0:0:
415,209,76675,1,0,0:0:0:0:
355,14,76835,5,10,0:1:0:0:
316,245,76995,1,0,0:0:0:0:
415,209,77154,1,10,0:0:0:0:
391,173,77234,1,8,0:0:0:0:
356,149,77314,1,8,0:0:0:0:
315,141,77393,1,8,0:0:0:0:
274,149,77473,6,0,P|244:145|215:140,1,59.4999981842042,12|0,0:1|0:0,0:0:0:0:
129,99,77792,2,0,P|99:95|70:90,1,59.4999981842042,10|0,0:1|0:0,0:0:0:0:
67,296,78112,2,0,P|117:265|175:271,1,118.999996368408,10|8,0:1|0:3,0:0:0:0:
246,334,78590,1,8,0:3:0:0:
338,314,78750,6,0,P|353:287|360:259,1,59.4999981842042,10|0,0:1|0:0,0:0:0:0:
331,168,79069,2,0,P|311:113|326:49,1,118.999996368408,10|10,0:1|0:1,0:0:0:0:
409,15,79548,1,0,0:0:0:0:
177,23,79707,2,0,P|186:50|188:80,1,59.4999981842042,8|0,0:3|0:0,0:0:0:0:
170,174,80026,6,0,P|164:203|158:232,1,59.4999981842042,10|0,0:1|0:0,0:0:0:0:
353,232,80346,2,0,P|347:203|342:174,1,59.4999981842042,10|0,0:1|0:0,0:0:0:0:
298,87,80665,2,0,P|239:88|188:59,1,118.999996368408,10|8,0:1|0:3,0:0:0:0:
103,101,81143,1,8,0:3:0:0:
13,205,81303,6,0,P|41:194|80:190,1,59.4999981842042,10|0,0:1|0:0,0:0:0:0:
162,212,81622,2,0,P|193:262|190:321,1,118.999996368408,10|10,0:1|0:1,0:0:0:0:
268,376,82101,1,0,0:0:0:0:
323,299,82260,2,0,P|318:269|319:240,1,59.4999981842042,8|0,0:3|0:0,0:0:0:0:
313,144,82580,6,0,P|374:158|440:173,2,118.999996368408,10|8|10,0:1|0:0|0:1,0:0:0:0:
231,94,83378,1,0,0:0:0:0:
231,94,83537,2,0,L|151:107,1,59.4999981842042,8|0,0:0|0:0,0:0:0:0:
78,84,83856,6,0,P|72:113|69:142,1,59.4999981842042,10|0,0:1|0:0,0:0:0:0:
68,238,84175,2,0,P|71:267|76:296,1,59.4999981842042,10|0,0:0|0:0,0:0:0:0:
151,357,84495,6,0,P|180:350|209:343,1,59.4999981842042,10|0,0:1|0:0,0:0:0:0:
304,345,84814,2,0,P|332:351|362:358,1,59.4999981842042,10|0,0:0|0:0,0:0:0:0:
430,298,85133,6,0,P|436:269|444:241,1,59.4999981842042,10|0,0:1|0:0,0:0:0:0:
360,198,85452,2,0,P|351:226|345:255,1,59.4999981842042,10|0,0:0|0:0,0:0:0:0:
325,95,85771,5,8,0:1:0:0:
245,190,85931,1,8,0:0:0:0:
453,98,86090,1,8,0:1:0:0:
265,0,86250,1,8,0:0:0:0:
325,95,86409,6,0,P|331:139|335:183,1,89.2499972763062,8|8,0:3|0:0,0:0:0:0:
386,310,86729,2,0,P|359:301|332:297,1,55.2499974708558,8|0,0:0|0:0,0:0:0:0:
217,339,86888,1,12,0:1:0:0:
217,339,87207,5,12,0:1:0:0:
455,221,87367,1,10,0:1:0:0:
233,76,87526,6,0,L|243:163,1,85,12|0,0:1|0:0,0:0:0:0:
