osu file format v14

[General]
AudioFilename: audio.mp3
AudioLeadIn: 0
PreviewTime: 36463
Countdown: 0
SampleSet: Soft
StackLeniency: 0.7
Mode: 0
LetterboxInBreaks: 0
WidescreenStoryboard: 0

[Editor]
DistanceSpacing: 1.1
BeatDivisor: 4
GridSize: 4
TimelineZoom: 1.8

[Metadata]
Title:Uso no Hibana
TitleUnicode:嘘の火花
Artist:96neko
ArtistUnicode:96猫
Creator:Kibbleru
Version:Easy
Source:クズの本懐
Tags:Kuzu Honkai scum's scums scum wish Kocari iWinnie Momochikun Mochi sahuang My_Angel_Azusa My Angel Azusa toybot opening
BeatmapID:1179892
BeatmapSetID:557651

[Difficulty]
HPDrainRate:2
CircleSize:3
OverallDifficulty:2
ApproachRate:3
SliderMultiplier:0.899999999999999
SliderTickRate:1

[Events]
//Background and Video events
0,0,"752735.jpg",0,0
Video,220,"optc.flv"
//Break Periods
//Storyboard Layer 0 (Background)
//Storyboard Layer 1 (Fail)
//Storyboard Layer 2 (Pass)
//Storyboard Layer 3 (Foreground)
//Storyboard Sound Samples

[TimingPoints]
878,319.148936170213,4,2,1,40,1,0
878,-100,4,2,1,40,0,0
4229,-100,4,2,1,50,0,0
4707,-100,4,2,1,60,0,0
5984,-100,4,2,1,60,0,0
16516,-100,4,2,1,40,0,0
25133,-100,4,2,1,50,0,0
26409,-100,4,2,1,60,0,0
36303,-100,4,2,1,70,0,0
36622,-100,4,2,1,70,0,1
45558,-100,4,2,1,70,0,0
46835,-100,4,2,1,70,0,1
55452,-100,4,2,1,70,0,1
57048,-100,4,2,1,70,0,0
57128,-100,4,2,1,50,0,0
59601,-100,4,2,1,50,0,0
64707,-100,4,2,1,60,0,0
66941,-100,4,2,1,70,0,0
67260,-100,4,2,1,70,0,1
77473,-100,4,2,1,50,0,0
85931,-100,4,2,1,60,0,0
86729,-100,4,2,1,70,0,0
87526,-100,4,2,1,70,0,0
88165,-100,4,2,1,20,0,0

[Colours]
Combo1 : 90,243,201
Combo2 : 249,160,28
Combo3 : 255,153,242
Combo4 : 130,47,255

[HitObjects]
135,105,878,6,0,L|-10:85,2,135,12|2|2,0:1|0:0|0:0,0:0:0:0:
279,69,2314,2,0,P|254:126|254:203,1,135,2|0,0:0|0:0,0:0:0:0:
305,282,3112,1,8,0:3:0:0:
395,242,3431,6,0,P|421:180|421:113,2,135,12|2|0,0:1|0:0|3:2,0:0:0:0:
304,282,4707,2,0,L|211:269,1,89.9999999999999,8|8,0:1|0:0,0:0:0:0:
154,190,5346,2,0,L|61:177,1,89.9999999999999,8|8,0:0|0:1,0:0:0:0:
51,79,5984,6,0,P|123:22|210:36,1,180,12|10,0:1|0:1,0:0:0:0:
274,104,6941,1,10,0:0:0:0:
239,199,7260,2,0,P|218:238|212:282,1,89.9999999999999,10|10,0:1|0:0,0:0:0:0:
290,343,7899,2,0,P|332:329|377:328,1,89.9999999999999,10|10,0:1|0:0,0:0:0:0:
461,277,8537,6,0,P|417:235|419:114,1,180,10|10,0:1|0:1,0:0:0:0:
472,41,9495,1,10,0:0:0:0:
374,22,9814,2,0,L|279:12,1,89.9999999999999,10|10,0:1|0:0,0:0:0:0:
208,76,10452,2,0,L|118:83,1,89.9999999999999,8|8,0:1|0:0,0:0:0:0:
38,25,11090,6,0,P|83:100|60:184,1,180,10|10,0:1|0:1,0:0:0:0:
73,283,12048,1,10,0:0:0:0:
158,235,12367,2,0,P|198:215|243:215,1,89.9999999999999,10|10,0:1|0:0,0:0:0:0:
329,165,13005,2,0,P|370:172|414:218,1,89.9999999999999,10|10,0:1|0:0,0:0:0:0:
417,301,13643,6,0,P|350:357|262:341,1,180,10|10,0:1|0:1,0:0:0:0:
203,265,14601,1,10,0:0:0:0:
237,172,14920,2,0,L|333:152,2,89.9999999999999,10|10|10,0:1|0:1|0:1,0:0:0:0:
159,110,15878,1,8,0:3:0:0:
83,173,16197,6,0,P|65:260|110:336,1,180,10|2,0:1|0:0,0:0:0:0:
208,342,17154,1,0,0:0:0:0:
268,263,17473,2,0,P|327:233|394:238,2,135,10|10|2,0:1|0:1|0:0,0:0:0:0:
201,188,18750,6,0,B|124:168|109:225|25:201,1,180,10|2,0:1|0:0,0:0:0:0:
64,110,19707,1,0,0:0:0:0:
149,59,20026,2,0,L|292:79,2,135,10|10|2,0:1|0:1|0:0,0:0:0:0:
64,110,21303,6,0,P|80:153|77:197,1,89.9999999999999,10|2,0:1|0:0,0:0:0:0:
169,231,21941,2,0,P|153:273|157:318,1,89.9999999999999,2|0,0:0|0:0,0:0:0:0:
238,373,22580,2,0,P|303:369|348:318,2,135,10|10|2,0:1|0:1|0:0,0:0:0:0:
156,316,23856,6,0,L|10:295,2,135,8|10|2,0:1|0:1|0:0,0:0:0:0:
186,221,25133,2,0,L|40:200,1,135,8|10,0:0|0:0,0:0:0:0:
93,111,25931,2,0,L|156:121,1,45,8|8,0:1|0:0,0:0:0:0:
236,127,26409,6,0,P|280:121|322:106,1,89.9999999999999,12|10,0:1|0:0,0:0:0:0:
399,43,27048,2,0,P|411:87|421:132,1,89.9999999999999,10|10,0:1|0:0,0:0:0:0:
451,224,27686,2,0,P|375:269|290:249,1,180,10|10,0:1|0:1,0:0:0:0:
221,178,28643,1,10,0:0:0:0:
141,238,28963,6,0,P|130:304|120:371,2,135,10|0|8,0:1|0:0|0:0,0:0:0:0:
55,185,30239,2,0,P|47:230|40:274,2,89.9999999999999,8|8|8,0:1|0:0|0:1,0:0:0:0:
142,137,31197,1,8,0:0:0:0:
226,187,31516,5,8,0:1:0:0:
288,110,31835,2,0,P|332:103|376:92,1,89.9999999999999,10|8,0:0|0:1,0:0:0:0:
458,144,32473,2,0,P|468:194|471:233,1,89.9999999999999,10|8,0:0|0:1,0:0:0:0:
382,278,33112,2,0,P|380:233|376:188,1,89.9999999999999,10|8,0:0|0:1,0:0:0:0:
288,141,33750,1,8,0:0:0:0:
210,202,34069,6,0,B|128:222|122:162|34:183,1,180,10|10,0:1|0:1,0:0:0:0:
2,276,35026,1,8,0:0:0:0:
100,289,35346,1,12,0:1:0:0:
178,106,35984,2,0,L|171:49,2,45,8|8|8,0:0|0:0|0:0,0:0:0:0:
260,159,36622,6,0,P|302:146|346:136,1,89.9999999999999,14|10,0:1|0:0,0:0:0:0:
431,186,37260,2,0,P|447:244|434:291,1,89.9999999999999,10|10,0:1|0:0,0:0:0:0:
372,342,37899,2,0,P|285:347|231:279,1,180,10|10,0:1|0:1,0:0:0:0:
180,194,38856,1,8,0:0:0:0:
105,259,39175,6,0,P|60:250|16:243,1,89.9999999999999,10|10,0:1|0:0,0:0:0:0:
16,144,39814,2,0,P|16:85|34:41,1,89.9999999999999,10|10,0:1|0:0,0:0:0:0:
122,75,40452,2,0,P|211:65|300:52,1,180,10|10,0:1|0:1,0:0:0:0:
375,117,41409,1,8,0:0:0:0:
469,87,41729,6,0,P|495:151|487:228,2,135,0|2|8,0:0|0:0|0:0,0:0:0:0:
375,117,43005,2,0,L|235:109,2,135,0|2|10,0:0|0:0|0:0,0:0:0:0:
343,210,44282,6,0,P|298:206|251:203,1,89.9999999999999,10|10,0:1|0:0,0:0:0:0:
160,169,44920,2,0,P|144:123|143:69,1,89.9999999999999,10|10,0:1|0:0,0:0:0:0:
218,19,45558,1,8,0:3:0:0:
438,74,46835,6,0,P|427:113|421:162,1,89.9999999999999,12|10,0:1|0:0,0:0:0:0:
324,180,47473,2,0,P|322:134|327:90,1,89.9999999999999,10|10,0:1|0:0,0:0:0:0:
242,38,48112,2,0,P|196:85|84:87,1,180,10|10,0:1|0:1,0:0:0:0:
21,162,49069,1,8,0:0:0:0:
90,232,49388,6,0,P|95:276|97:321,1,89.9999999999999,10|10,0:1|0:0,0:0:0:0:
187,361,50026,2,0,P|229:347|268:325,1,89.9999999999999,10|10,0:1|0:0,0:0:0:0:
323,241,50665,2,0,P|325:161|247:86,1,180,10|10,0:1|0:1,0:0:0:0:
162,72,51622,1,8,0:0:0:0:
97,146,51941,6,0,P|86:212|75:279,2,135,0|2|8,0:0|0:0|0:0,0:0:0:0:
162,72,53218,2,0,L|295:48,2,135,0|2|10,0:0|0:0|0:0,0:0:0:0:
213,156,54495,6,0,P|257:148|301:140,1,89.9999999999999,10|10,0:1|0:0,0:0:0:0:
371,211,55133,2,0,P|382:256|394:312,1,89.9999999999999,10|10,0:0|0:0,0:0:0:0:
317,363,55771,2,0,P|302:298|286:232,2,135,10|8|8,0:0|0:0|0:0,0:0:0:0:
218,348,57048,5,12,0:1:0:0:
313,139,59601,5,10,0:1:0:0:
89,166,62154,5,10,0:1:0:0:
331,292,64707,6,0,P|398:295|457:265,2,135,4|4|4,0:3|0:3|0:3,0:0:0:0:
280,207,65984,1,8,0:3:0:0:
187,171,66303,1,8,0:3:0:0:
95,208,66622,2,0,P|83:251|86:295,1,89.9999999999999,8|8,0:3|0:0,0:0:0:0:
166,354,67260,6,0,B|242:326|264:379|342:346,1,180,12|10,0:1|0:1,0:0:0:0:
413,277,68218,1,10,0:0:0:0:
347,202,68537,2,0,L|365:107,1,89.9999999999999,10|10,0:1|0:0,0:0:0:0:
274,71,69175,2,0,L|257:159,1,89.9999999999999,10|10,0:1|0:0,0:0:0:0:
191,234,69814,6,0,P|104:244|42:183,1,180,10|10,0:1|0:1,0:0:0:0:
58,86,70771,1,10,0:0:0:0:
146,42,71090,2,0,P|190:34|234:28,1,89.9999999999999,10|10,0:1|0:0,0:0:0:0:
275,118,71729,2,0,P|230:124|186:131,1,89.9999999999999,8|8,0:1|0:0,0:0:0:0:
87,139,72367,6,0,P|122:218|123:314,1,180,10|10,0:1|0:1,0:0:0:0:
209,360,73324,1,10,0:0:0:0:
280,291,73643,2,0,P|324:283|368:277,1,89.9999999999999,10|10,0:1|0:0,0:0:0:0:
328,186,74282,2,0,P|283:193|239:199,1,89.9999999999999,10|10,0:1|0:0,0:0:0:0:
199,108,74920,6,0,P|243:101|288:94,2,89.9999999999999,10|10|8,0:1|0:0|0:1,0:0:0:0:
142,189,75878,1,8,0:0:0:0:
53,145,76197,2,0,P|41:101|34:57,2,89.9999999999999,10|10|10,0:1|0:0|0:1,0:0:0:0:
28,240,77154,1,10,0:0:0:0:
117,281,77473,6,0,P|188:229|278:243,1,180,12|10,0:1|0:1,0:0:0:0:
359,295,78431,2,0,P|427:240|437:153,1,180,8|10,0:3|0:1,0:0:0:0:
368,81,79388,2,0,P|323:84|281:70,1,89.9999999999999,10|8,0:1|0:3,0:0:0:0:
201,128,80026,6,0,P|144:117|45:192,1,180,10|10,0:1|0:1,0:0:0:0:
55,281,80984,2,0,P|116:342|203:335,1,180,8|10,0:3|0:1,0:0:0:0:
226,239,81941,2,0,P|212:196|209:151,1,89.9999999999999,10|8,0:1|0:3,0:0:0:0:
294,100,82580,6,0,P|338:92|382:82,1,89.9999999999999,10|8,0:1|0:0,0:0:0:0:
440,162,83218,2,0,P|373:174|307:186,2,135,10|0|10,0:1|0:0|0:0,0:0:0:0:
494,245,84495,2,0,P|479:287|473:331,1,89.9999999999999,10|10,0:1|0:0,0:0:0:0:
376,353,85133,6,0,B|311:317|273:365|200:325,1,180,10|8,0:1|0:1,0:0:0:0:
148,241,86090,1,8,0:1:0:0:
197,155,86409,2,0,P|237:118|321:117,1,135,8|12,0:3|0:1,0:0:0:0:
376,191,87207,2,0,L|369:245,2,45,12|10|12,0:1|0:1|0:1,0:0:0:0:
