osu file format v14

[General]
AudioFilename: audio.mp3
AudioLeadIn: 0
PreviewTime: 43760
Countdown: 0
SampleSet: Soft
StackLeniency: 0.5
Mode: 0
LetterboxInBreaks: 0
WidescreenStoryboard: 1

[Editor]
DistanceSpacing: 1.4
BeatDivisor: 4
GridSize: 32
TimelineZoom: 1.899999

[Metadata]
Title:ELECT
TitleUnicode:ELECT
Artist:96neko
ArtistUnicode:96猫
Creator:Lasse
Version:Insane
Source:
Tags:niki utaite cover O2O
BeatmapID:1517345
BeatmapSetID:716122

[Difficulty]
HPDrainRate:6
CircleSize:4.5
OverallDifficulty:7
ApproachRate:8
SliderMultiplier:1.4
SliderTickRate:1

[Events]
//Background and Video events
0,0,"e.jpg",0,0
//Break Periods
//Storyboard Layer 0 (Background)
//Storyboard Layer 1 (Fail)
//Storyboard Layer 2 (Pass)
//Storyboard Layer 3 (Foreground)
//Storyboard Sound Samples

[TimingPoints]
172,461.538461538462,4,2,1,50,1,0
172,-100,4,2,1,50,0,0
3172,-133.333333333333,4,2,1,50,0,0
3864,-100,4,2,1,50,0,0
6922,-100,4,2,99,5,0,0
7095,-100,4,2,1,50,0,0
7325,-100,4,2,1,50,0,0
7383,-100,4,2,99,5,0,0
7556,-100,4,2,1,50,0,0
10614,-100,4,2,99,5,0,0
10787,-100,4,2,1,50,0,0
11075,-100,4,2,99,5,0,0
11248,-100,4,2,1,50,0,0
12864,-100,4,2,1,44,0,0
13325,-100,4,2,1,40,0,0
14479,-142.857142857143,4,2,1,40,0,0
14710,-166.666666666667,4,2,1,20,0,0
14941,-66.6666666666667,4,2,1,60,0,0
15287,-90.9090909090909,4,2,1,60,0,0
18633,-66.6666666666667,4,2,1,60,0,0
19095,-90.9090909090909,4,2,1,60,0,0
19556,-71.4285714285714,4,2,1,60,0,0
20018,-111.111111111111,4,2,1,60,0,0
20479,-62.5,4,2,1,60,0,0
20941,-83.3333333333333,4,2,1,60,0,0
21402,-90.9090909090909,4,2,1,60,0,0
22325,-142.857142857143,4,2,1,50,0,0
22787,-66.6666666666667,4,2,1,60,0,0
23018,-90.9090909090909,4,2,1,60,0,0
26018,-66.6666666666667,4,2,1,60,0,0
26364,-90.9090909090909,4,2,1,60,0,0
26941,-76.9230769230769,4,2,1,60,0,0
27402,-66.6666666666667,4,2,1,60,0,0
27864,-57.1428571428571,4,2,1,60,0,0
28325,-100,4,2,1,55,0,0
29018,-100,4,2,34,50,0,0
29133,-100,4,2,34,49,0,0
29248,-100,4,2,34,48,0,0
29364,-100,4,2,34,47,0,0
29479,-100,4,2,34,46,0,0
29595,-100,4,2,34,45,0,0
29710,-125,4,2,34,44,0,0
36864,-125,4,2,34,46,0,0
37095,-111.111111111111,4,2,34,48,0,0
44479,-142.857142857143,4,2,1,42,0,0
45633,-200,4,2,34,46,0,0
45864,-200,4,2,1,46,0,0
46095,-200,4,2,34,46,0,0
46325,-200,4,2,34,34,0,0
46556,-200,4,2,34,50,0,0
46787,-200,4,2,1,50,0,0
47018,-200,4,2,34,52,0,0
47248,-200,4,2,1,52,0,0
47479,-166.666666666667,4,2,1,40,0,0
48172,-76.9230769230769,4,2,1,70,0,1
54922,-76.9230769230769,4,2,99,5,0,1
55095,-76.9230769230769,4,2,1,70,0,1
55152,-76.9230769230769,4,2,99,5,0,1
55325,-76.9230769230769,4,2,1,70,0,1
55383,-76.9230769230769,4,2,99,5,0,1
55556,-76.9230769230769,4,2,1,70,0,1
55614,-76.9230769230769,4,2,99,5,0,1
55787,-153.846153846153,4,2,1,60,0,0
55902,-153.846153846153,4,2,1,30,0,0
56018,-66.6666666666667,4,2,1,70,0,1
56248,-76.9230769230769,4,2,1,70,0,1
59248,-71.4285714285714,4,2,1,70,0,1
59479,-76.9230769230769,4,2,1,70,0,1
59941,-142.857142857143,4,2,1,70,0,1
60172,-71.4285714285714,4,2,1,70,0,1
60402,-100,4,2,1,70,0,1
61152,-100,4,2,1,60,0,1
61556,-100,4,2,34,60,0,1
62018,-100,4,2,34,55,0,1
62248,-100,4,2,34,50,0,1
62479,-100,4,2,34,60,0,1
62633,-100,4,2,34,58,0,1
62787,-100,4,2,34,56,0,1
62941,-100,4,2,1,50,0,0
63402,-66.6666666666667,4,2,1,60,0,0
63633,-90.9090909090909,4,2,1,60,0,0
66633,-66.6666666666667,4,2,1,60,0,0
66979,-90.9090909090909,4,2,1,60,0,0
67556,-76.9230769230769,4,2,1,60,0,0
68018,-66.6666666666667,4,2,1,60,0,0
68479,-57.1428571428571,4,2,1,60,0,0
68941,-100,4,2,1,55,0,0
69633,-100,4,2,34,50,0,0
69748,-100,4,2,34,49,0,0
69864,-100,4,2,34,48,0,0
69979,-100,4,2,34,47,0,0
70095,-100,4,2,34,46,0,0
70210,-100,4,2,34,45,0,0
70325,-125,4,2,34,44,0,0
77479,-125,4,2,34,46,0,0
77710,-111.111111111111,4,2,34,48,0,0
85095,-142.857142857143,4,2,1,42,0,0
86248,-200,4,2,34,46,0,0
86479,-200,4,2,1,46,0,0
86710,-200,4,2,34,34,0,0
86941,-200,4,2,34,46,0,0
87172,-200,4,2,34,50,0,0
87402,-200,4,2,1,50,0,0
87634,-200,4,2,34,52,0,0
87864,-200,4,2,1,52,0,0
88095,-166.666666666667,4,2,1,40,0,0
88787,-76.9230769230769,4,2,1,70,0,1
95537,-76.9230769230769,4,2,99,5,0,1
95710,-76.9230769230769,4,2,1,70,0,1
95768,-76.9230769230769,4,2,99,5,0,1
95941,-76.9230769230769,4,2,1,70,0,1
95998,-76.9230769230769,4,2,99,5,0,1
96172,-76.9230769230769,4,2,1,70,0,1
96229,-76.9230769230769,4,2,99,5,0,1
96402,-153.846153846154,4,2,1,60,0,0
96518,-153.846153846154,4,2,1,30,0,0
96633,-66.6666666666667,4,2,1,70,0,1
96864,-76.9230769230769,4,2,1,70,0,1
99864,-71.4285714285714,4,2,1,70,0,1
100095,-76.9230769230769,4,2,1,70,0,1
100556,-142.857142857143,4,2,1,70,0,1
100787,-71.4285714285714,4,2,1,70,0,1
101018,-100,4,2,1,70,0,1
101768,-100,4,2,1,60,0,1
102172,-100,4,2,34,60,0,1
102633,-100,4,2,34,55,0,1
102864,-100,4,2,34,50,0,1
103095,-100,4,2,34,60,0,1
103248,-100,4,2,34,58,0,1
103402,-100,4,2,34,56,0,1
103556,-90.9090909090909,4,2,34,54,0,0
109325,-90.9090909090909,4,2,34,48,0,0
109672,-90.9090909090909,4,2,34,44,0,0
110018,-90.9090909090909,4,2,34,54,0,0
110941,-166.666666666667,4,2,1,54,0,0
111287,-166.666666666667,4,2,99,5,0,0
111402,-71.4285714285714,4,2,1,60,0,0
111633,-83.3333333333333,4,2,1,60,0,0
118095,-83.3333333333333,4,2,34,60,0,0
118325,-111.111111111111,4,2,1,52,0,0
131248,-111.111111111111,4,2,1,56,0,0
131306,-111.111111111111,4,2,1,36,0,0
132172,-111.111111111111,4,2,99,5,0,0
132402,-166.666666666666,4,2,1,40,0,0
133095,-66.6666666666667,4,2,1,70,0,1
133325,-76.9230769230769,4,2,1,70,0,1
139845,-76.9230769230769,4,2,99,5,0,1
140018,-76.9230769230769,4,2,1,70,0,1
140075,-76.9230769230769,4,2,99,5,0,1
140248,-76.9230769230769,4,2,1,70,0,1
140306,-76.9230769230769,4,2,99,5,0,1
140479,-76.9230769230769,4,2,1,70,0,1
140537,-76.9230769230769,4,2,99,5,0,1
140710,-153.846153846153,4,2,1,60,0,0
140825,-153.846153846153,4,2,1,50,0,0
140941,-66.6666666666667,4,2,1,70,0,1
141172,-76.9230769230769,4,2,1,70,0,1
144172,-71.4285714285714,4,2,1,70,0,1
144402,-76.9230769230769,4,2,1,70,0,1
144864,-142.857142857143,4,2,1,70,0,1
145095,-71.4285714285714,4,2,1,70,0,1
145325,-100,4,2,1,70,0,1
146018,-100,4,2,34,60,0,1
146075,-100,4,2,34,40,0,1
146248,-100,4,2,34,60,0,1
146306,-100,4,2,34,40,0,1
146479,-100,4,2,1,72,0,1
146825,-100,4,2,1,74,0,1
147402,-100,4,2,34,60,0,1
147460,-100,4,2,34,40,0,1
147633,-100,4,2,34,60,0,1
147691,-100,4,2,34,40,0,1
147864,-166.666666666667,4,2,1,60,0,0
148210,-166.666666666667,4,2,99,5,0,0
148325,-55.5555555555556,4,2,1,72,0,1
148556,-71.4285714285714,4,2,1,72,0,1
154614,-71.4285714285714,4,2,99,5,0,1
154787,-71.4285714285714,4,2,1,72,0,1
154845,-71.4285714285714,4,2,99,5,0,1
155018,-71.4285714285714,4,2,1,72,0,1
155075,-71.4285714285714,4,2,99,5,0,1
155248,-71.4285714285714,4,2,1,72,0,1
155306,-71.4285714285714,4,2,99,5,0,1
155479,-142.857142857143,4,2,1,60,0,0
155595,-100,4,2,1,50,0,0
155710,-58.8235294117647,4,2,1,72,0,1
155941,-71.4285714285714,4,2,1,72,0,1
158941,-66.6666666666667,4,2,1,72,0,1
159633,-125,4,2,1,72,0,1
159864,-66.6666666666667,4,2,1,72,0,1
160095,-90.9090909090909,4,2,1,72,0,1
160845,-90.9090909090909,4,2,1,60,0,1
161248,-90.9090909090909,4,2,34,60,0,1
161710,-90.9090909090909,4,2,34,55,0,1
161941,-90.9090909090909,4,2,34,50,0,1
162172,-90.9090909090909,4,2,1,60,0,1
162326,-90.9090909090909,4,2,1,58,0,1
162479,-90.9090909090909,4,2,1,56,0,1
162633,-83.3333333333333,4,2,1,52,0,0
163095,-62.5,4,2,1,62,0,0
163325,-83.3333333333333,4,2,1,62,0,0
166325,-62.5,4,2,1,62,0,0
166672,-90.9090909090909,4,2,1,62,0,0
167248,-76.9230769230769,4,2,1,62,0,0
167710,-66.6666666666667,4,2,1,62,0,0
168172,-57.1428571428571,4,2,1,62,0,0
168633,-100,4,2,1,62,0,0
169383,-100,4,2,99,5,0,0
169556,-100,4,2,1,62,0,0
169614,-100,4,2,99,5,0,0
169787,-100,4,2,1,62,0,0
169845,-100,4,2,99,5,0,0
170018,-400,4,2,1,62,0,0
170364,-602.409638554217,4,2,99,5,0,0
170479,-62.5,4,2,1,62,0,0
170710,-83.3333333333333,4,2,1,62,0,0
173018,-100,4,2,1,62,0,0
173075,-100,4,2,99,5,0,0
173248,-100,4,2,1,62,0,0
173306,-100,4,2,99,5,0,0
173479,-100,4,2,1,62,0,0
173537,-100,4,2,99,5,0,0
173710,-62.5,4,2,1,62,0,0
174056,-83.3333333333333,4,2,1,62,0,0
174633,-76.9230769230769,4,2,1,62,0,0
175095,-66.6666666666667,4,2,1,62,0,0
175556,-57.1428571428571,4,2,1,62,0,0
176710,-133.333333333333,4,2,1,58,0,0
176768,-133.333333333333,4,2,99,5,0,0
176941,-133.333333333333,4,2,1,54,0,0
176998,-133.333333333333,4,2,99,5,0,0
177172,-133.333333333333,4,2,1,50,0,0
177229,-133.333333333333,4,2,99,5,0,0
177402,-294.117647058824,4,2,1,46,0,0
177431,-666.666666666667,4,2,2,26,0,0
177460,-666.666666666667,4,2,2,26,0,0
177864,-666.666666666667,4,2,3,24,0,0
178325,-666.666666666667,4,2,2,22,0,0
178787,-666.666666666667,4,2,3,20,0,0
179248,-666.666666666667,4,2,2,18,0,0
179710,-666.666666666667,4,2,3,16,0,0
180172,-666.666666666667,4,2,2,14,0,0
180633,-666.666666666667,4,2,3,12,0,0
181095,-666.666666666667,4,2,99,10,0,0
181556,-666.666666666667,4,2,3,9,0,0
182018,-666.666666666667,4,2,2,8,0,0
182479,-666.666666666667,4,2,3,7,0,0
182941,-666.666666666667,4,2,2,6,0,0
183402,-666.666666666667,4,2,3,5,0,0
184787,-666.666666666667,4,2,99,5,0,0

[Colours]
Combo1 : 250,180,225
Combo2 : 180,180,240
Combo3 : 250,170,190
Combo4 : 170,200,250

[HitObjects]
199,106,172,6,0,L|123:98,1,70,12|0,0:1|0:0,0:0:0:0:
143,203,633,2,0,L|219:211,1,70,8|0,0:0|0:0,0:0:0:0:
313,106,1095,2,0,L|382:98,1,70,8|0,0:3|0:0,0:0:0:0:
369,203,1556,2,0,L|293:211,1,70,8|0,0:0|0:0,0:0:0:0:
199,106,2018,5,8,0:3:0:0:
212,210,2248,1,0,0:0:0:0:
313,106,2479,1,8,0:0:0:0:
299,210,2710,2,0,L|306:306,1,70,2|8,0:0|0:3,0:0:0:0:
175,354,3172,6,0,B|133:349|133:349|140:356,1,52.5000020027161,2|8,0:1|0:2,0:0:0:0:
337,354,3633,2,0,B|379:349|379:349|371:356,1,52.5000020027161,2|8,0:1|0:3,0:0:0:0:
208,279,4095,5,2,0:0:0:0:
256,337,4325,1,8,0:2:0:0:
304,279,4556,1,0,0:0:0:0:
256,219,4787,1,8,0:3:0:0:
208,279,5018,2,0,L|133:272,1,70,2|8,0:0|0:0,0:0:0:0:
304,279,5479,2,0,L|379:272,1,70,2|8,0:0|0:3,0:0:0:0:
467,189,5941,5,2,0:0:0:0:
461,201,6056,1,2,0:0:0:0:
453,189,6172,1,8,0:0:0:0:
376,89,6402,5,2,0:0:0:0:
382,101,6518,1,2,0:0:0:0:
390,89,6633,1,8,0:3:0:0:
274,140,6864,6,0,L|252:137,1,17.5,10|0,0:1|0:0,0:0:0:0:
182,134,7095,1,8,0:0:0:0:
123,52,7325,2,0,L|101:49,1,17.5,10|0,0:1|0:0,0:0:0:0:
15,101,7556,6,0,L|6:185,1,70,12|0,0:1|0:0,0:0:0:0:
91,246,8018,2,0,L|100:330,1,70,8|0,0:0|0:0,0:0:0:0:
202,357,8479,2,0,L|212:287,1,70,8|0,0:3|0:0,0:0:0:0:
311,235,8941,2,0,L|304:151,1,70,8|0,0:0|0:0,0:0:0:0:
182,68,9402,5,8,0:3:0:0:
207,165,9633,1,0,0:0:0:0:
330,68,9864,1,8,0:0:0:0:
305,165,10095,2,0,L|311:235,1,70,2|8,0:0|0:3,0:0:0:0:
384,319,10556,6,0,L|410:318,1,17.5,2|0,0:1|0:0,0:0:0:0:
475,314,10787,1,8,0:0:0:0:
402,240,11018,6,0,L|376:239,1,17.5,2|0,0:1|0:0,0:0:0:0:
311,235,11248,1,8,0:3:0:0:
254,152,11479,5,2,0:0:0:0:
303,220,11710,1,8,0:0:0:0:
338,144,11941,1,0,0:0:0:0:
289,76,12172,1,10,0:3:0:0:
205,84,12402,2,0,L|119:76,1,70,0|8,0:0|0:0,0:0:0:0:
21,29,12864,5,2,2:0:0:0:
23,49,12979,1,2,2:0:0:0:
34,31,13095,1,12,2:1:0:0:
74,110,13325,5,0,1:2:0:0:
74,116,13441,1,0,1:0:0:0:
75,123,13556,1,0,1:0:0:0:
76,130,13672,1,0,1:0:0:0:
77,137,13787,1,0,1:0:0:0:
78,144,13902,1,0,1:0:0:0:
126,213,14133,1,0,1:2:0:0:
125,220,14248,1,0,1:0:0:0:
124,227,14364,1,0,1:0:0:0:
123,234,14479,6,0,B|128:254|128:254|125:277|125:277|129:302,1,48.9999985046387,2|8,3:2|0:3,0:0:0:0:
125,282,14941,6,0,B|162:278|162:278|187:290|187:290|228:286,1,105.000004005432,12|0,0:1|0:0,0:0:0:0:
293,308,15287,1,2,0:0:0:0:
297,322,15402,1,10,0:0:0:0:
369,243,15633,1,2,0:0:0:0:
377,229,15748,2,0,L|380:183,1,38.5000011749268,2|8,0:0|0:3,0:0:0:0:
439,295,15979,1,2,0:0:0:0:
441,310,16095,1,2,0:0:0:0:
512,227,16325,1,8,0:0:0:0:
443,106,16556,5,0,3:0:0:0:
396,100,16672,1,0,3:0:0:0:
350,96,16787,2,0,B|318:93|318:93|298:81|298:81|265:79,1,77.0000023498536,10|0,0:3|0:0,0:0:0:0:
132,40,17248,5,10,0:2:0:0:
235,145,17479,1,2,0:0:0:0:
92,106,17710,1,10,0:3:0:0:
78,109,17825,2,0,L|17:97,1,38.5000011749268,2|0,0:0|0:0,0:0:0:0:
132,40,18056,2,0,L|193:33,1,38.5000011749268,2|8,0:0|0:0,0:0:0:0:
300,104,18402,1,0,3:0:0:0:
347,98,18518,1,0,3:0:0:0:
397,124,18633,6,0,B|425:168|425:168|402:212|402:212|407:267,1,157.500006008148,12|0,0:1|0:0,0:0:0:0:
357,316,19095,1,10,0:0:0:0:
476,350,19325,1,2,0:0:0:0:
407,267,19556,6,0,B|402:212|402:212|425:168|425:168|397:124,1,146.999995513916,8|0,2:3|0:0,0:0:0:0:
321,141,20018,1,10,0:0:0:0:
287,47,20248,1,2,0:0:0:0:
397,124,20479,6,0,B|425:168|425:168|402:212|402:212|408:281,1,168,12|0,0:1|0:0,0:0:0:0:
356,334,20941,1,10,0:0:0:0:
476,350,21172,1,2,0:0:0:0:
494,215,21402,5,10,0:3:0:0:
492,230,21518,2,0,L|486:283,1,38.5000011749268,2|0,0:0|0:0,0:0:0:0:
402,218,21748,2,0,L|396:165,1,38.5000011749268,2|8,0:0|0:0,0:0:0:0:
295,295,22095,1,8,3:3:0:0:
248,301,22210,1,0,3:0:0:0:
203,274,22325,6,0,B|180:269|180:269|158:277|158:277|130:273,1,73.4999977569581,10|0,0:3|0:0,0:0:0:0:
65,244,22787,5,12,0:0:0:0:
105,135,23018,1,0,0:0:0:0:
113,122,23133,2,0,L|115:75,1,38.5000011749268,2|8,0:0|0:3,0:0:0:0:
197,186,23364,1,2,0:0:0:0:
212,188,23479,1,2,0:0:0:0:
307,138,23710,1,8,0:0:0:0:
396,223,23941,5,0,3:0:0:0:
443,219,24056,1,0,3:0:0:0:
488,217,24172,2,0,B|495:274|495:274|489:304,1,77.0000023498536,10|0,0:3|0:0,0:0:0:0:
369,340,24633,5,10,0:2:0:0:
503,380,24864,1,2,0:0:0:0:
406,274,25095,1,10,0:3:0:0:
391,267,25210,2,0,L|330:255,1,38.5000011749268,2|0,0:0|0:0,0:0:0:0:
284,349,25441,2,0,L|223:342,1,38.5000011749268,2|8,0:0|0:0,0:0:0:0:
181,209,25787,1,0,3:3:0:0:
187,161,25902,1,0,3:3:0:0:
153,116,26018,6,0,B|125:97|125:97|101:112|101:112|-9:101,1,157.500006008148,12|0,0:1|0:0,0:0:0:0:
0,29,26479,1,10,0:0:0:0:
12,175,26710,1,2,0:0:0:0:
153,116,26941,6,0,B|183:111|183:111|250:134|250:134|289:126,1,136.499993751526,12|0,0:1|0:0,0:0:0:0:
285,127,27402,6,0,B|251:121|251:121|176:147|176:147|133:138,1,157.500006008148,8|0,0:0|0:0,0:0:0:0:
133,138,27864,6,0,B|172:131|172:131|259:161|259:161|309:150,1,183.750001752377,8|0,0:3|0:0,0:0:0:0:
309,150,28325,1,2,0:0:0:0:
226,252,28556,1,2,0:0:0:0:
226,252,28672,2,0,B|188:256|188:256|157:247,1,70,2|2,0:0|0:0,0:0:0:0:
96,280,29018,5,8,0:0:0:0:
96,280,29133,1,8,0:0:0:0:
96,280,29248,1,8,0:0:0:0:
96,280,29364,1,8,0:1:0:0:
112,253,29479,1,8,0:1:0:0:
108,221,29595,1,8,0:1:0:0:
82,202,29710,6,0,P|76:172|84:141,1,56,10|8,0:3|0:3,0:0:0:0:
145,84,30172,1,10,0:0:0:0:
148,94,30287,1,8,0:3:0:0:
232,125,30518,1,10,0:3:0:0:
306,75,30748,1,8,0:0:0:0:
317,73,30864,1,8,0:3:0:0:
328,73,30979,1,8,0:3:0:0:
338,76,31095,2,0,L|400:79,1,56,10|8,0:0|0:3,0:0:0:0:
232,125,31556,6,0,L|170:122,1,56,10|8,0:3|0:3,0:0:0:0:
99,76,32018,1,8,0:0:0:0:
97,64,32133,1,10,0:3:0:0:
32,126,32364,1,10,0:3:0:0:
32,126,33056,1,8,0:3:0:0:
32,137,33172,1,8,0:3:0:0:
34,147,33287,1,8,0:3:0:0:
32,158,33402,6,0,P|25:189|29:223,1,56,10|8,0:3|0:3,0:0:0:0:
75,289,33864,1,8,0:0:0:0:
77,299,33979,1,10,0:3:0:0:
143,238,34210,1,10,0:3:0:0:
205,303,34441,1,8,0:0:0:0:
214,308,34556,1,8,0:3:0:0:
225,309,34672,1,8,0:3:0:0:
236,306,34787,2,0,P|263:300|290:304,1,56,10|8,0:3|0:0,0:0:0:0:
414,349,35248,6,0,P|386:355|359:351,1,56,10|8,0:3|0:3,0:0:0:0:
291,291,35710,1,10,0:2:0:0:
290,279,35825,1,10,0:2:0:0:
368,199,36056,1,10,0:0:0:0:
288,121,36287,1,10,0:2:0:0:
210,201,36518,1,10,0:2:0:0:
106,68,36864,6,0,L|64:63,1,28,14|8,0:0|0:0,0:0:0:0:
11,115,37095,6,0,L|4:184,1,62.9999980773926,14|8,0:3|0:3,0:0:0:0:
22,203,37441,2,0,P|29:221|29:246,1,31.4999990386963,10|8,0:3|0:0,0:0:0:0:
0,363,37787,1,10,0:3:0:0:
0,363,37902,1,8,0:0:0:0:
31,364,38018,2,0,L|111:353,1,62.9999980773926,10|0,0:3|0:0,0:0:0:0:
124,347,38364,2,0,L|168:357,1,31.4999990386963,10|8,0:3|0:2,0:0:0:0:
277,325,38710,1,10,0:3:0:0:
277,325,38825,1,8,0:0:0:0:
297,301,38941,6,0,L|301:246,1,31.4999990386963,10|8,0:3|0:0,0:0:0:0:
399,191,39287,2,0,L|395:136,1,31.4999990386963,10|8,0:3|0:0,0:0:0:0:
318,58,39633,1,10,0:3:0:0:
318,58,39748,1,8,0:0:0:0:
294,78,39864,2,0,L|207:72,1,62.9999980773926,10|0,0:3|0:0,0:0:0:0:
396,159,40325,2,0,L|483:165,1,62.9999980773926,10|0,0:0|0:0,0:0:0:0:
317,286,40787,6,0,L|312:211,1,62.9999980773926,14|8,0:3|0:3,0:0:0:0:
296,196,41133,2,0,P|284:192|253:189,1,31.4999990386963,10|8,0:3|0:0,0:0:0:0:
148,219,41479,1,10,0:3:0:0:
148,219,41595,1,8,0:0:0:0:
134,247,41710,2,0,P|106:248|54:236,1,62.9999980773926,10|0,0:3|0:0,0:0:0:0:
45,223,42056,2,0,L|42:180,1,31.4999990386963,10|8,0:3|0:0,0:0:0:0:
82,70,42402,1,10,0:3:0:0:
82,70,42518,1,8,0:0:0:0:
113,75,42633,6,0,L|162:70,1,31.4999990386963,10|8,0:3|0:0,0:0:0:0:
251,136,42979,2,0,L|300:131,1,31.4999990386963,10|8,0:3|0:0,0:0:0:0:
389,197,43325,2,0,L|438:192,2,31.4999990386963,10|8|8,0:3|0:0|0:3,0:0:0:0:
496,69,43787,5,2,0:0:0:0:
420,114,44018,1,10,0:0:0:0:
347,64,44248,1,10,0:0:0:0:
347,64,44364,1,8,0:0:0:0:
314,73,44479,6,0,B|265:71|265:71|229:51,2,73.4999977569581,12|8|8,0:1|0:3|0:3,0:0:0:0:
406,16,45402,1,8,0:0:0:0:
455,90,45633,6,0,L|459:139,2,35,2|8|2,0:0|0:3|0:0,0:0:0:0:
406,16,46325,1,2,0:0:0:0:
314,73,46556,5,8,0:0:0:0:
306,98,46672,1,8,0:0:0:0:
296,73,46787,1,8,0:3:0:0:
220,56,47018,5,8,0:0:0:0:
208,83,47133,1,8,0:0:0:0:
198,54,47248,1,8,0:3:0:0:
115,24,47479,6,0,B|59:19,2,41.9999987182618,2|8|8,1:2|1:2|1:3,0:0:0:0:
115,24,48172,6,0,B|128:53|128:53|123:118,1,90.9999958343508,12|0,0:1|0:0,0:0:0:0:
73,165,48518,2,0,B|27:160,1,45.4999979171754,2|8,0:0|0:0,0:0:0:0:
123,217,48748,2,0,B|168:221,1,45.4999979171754,2|0,0:0|0:0,0:0:0:0:
69,267,48979,1,2,0:0:0:0:
51,272,49095,5,10,0:3:0:0:
27,160,49325,1,2,0:0:0:0:
168,221,49556,1,10,0:0:0:0:
215,112,49787,1,2,1:2:0:0:
232,107,49902,1,0,1:2:0:0:
249,103,50018,6,0,B|280:99|280:99|307:110|307:110|367:106,1,90.9999958343508,12|0,0:1|0:0,0:0:0:0:
404,136,50364,1,2,0:0:0:0:
402,154,50479,2,0,B|395:210,1,45.4999979171754,10|0,0:0|0:0,0:0:0:0:
472,111,50710,1,2,3:2:0:0:
477,128,50825,1,0,3:2:0:0:
489,106,50941,1,8,0:3:0:0:
376,12,51172,5,2,0:0:0:0:
286,101,51402,1,10,0:0:0:0:
172,43,51633,2,0,L|122:38,1,45.4999979171754,2|0,1:2|1:0,0:0:0:0:
137,155,51864,5,12,0:1:0:0:
268,99,52095,1,2,0:0:0:0:
286,101,52210,2,0,L|338:101,1,45.4999979171754,2|8,0:0|0:0,0:0:0:0:
388,146,52441,2,0,L|433:146,1,45.4999979171754,2|0,0:0|0:0,0:0:0:0:
347,204,52672,1,2,0:0:0:0:
341,221,52787,5,10,0:3:0:0:
286,101,53018,1,2,0:0:0:0:
216,192,53248,1,10,0:2:0:0:
277,295,53479,1,2,1:2:0:0:
281,312,53595,1,0,1:0:0:0:
285,329,53710,6,0,B|381:320,1,90.9999958343508,12|0,0:1|0:0,0:0:0:0:
440,355,54056,2,0,L|483:335,1,45.4999979171754,2|10,0:0|0:0,0:0:0:0:
490,199,54402,1,2,0:0:0:0:
398,138,54633,1,10,0:3:0:0:
277,219,54864,6,0,L|274:187,1,22.7499989585877,8|0,1:3|0:0,0:0:0:0:
224,114,55095,2,0,L|192:106,1,22.7499989585877,8|0,1:2|0:0,0:0:0:0:
107,131,55325,2,0,L|90:158,1,22.7499989585877,8|0,1:3|0:0,0:0:0:0:
87,247,55556,2,0,L|108:271,1,22.7499989585877,8|0,1:3|0:0,0:0:0:0:
191,301,55787,6,0,L|220:288,1,22.7499989585877,10|0,3:1|3:0,0:0:0:0:
293,303,56018,6,0,B|271:297|271:297|221:310|221:310|192:301,1,105.000004005432,12|0,0:0|0:0,0:0:0:0:
165,231,56364,1,2,0:0:0:0:
160,213,56479,2,0,B|165:143,1,45.4999979171754,10|0,0:3|0:0,0:0:0:0:
101,264,56710,2,0,B|96:334,1,45.4999979171754,2|0,0:0|0:0,0:0:0:0:
50,205,56941,5,10,0:2:0:0:
163,167,57172,1,2,0:3:0:0:
268,254,57402,6,0,B|295:266|295:266|371:260,1,90.9999958343508,12|0,0:1|0:0,0:0:0:0:
422,291,57748,1,2,0:0:0:0:
435,278,57864,2,0,L|442:178,1,90.9999958343508,10|0,0:2|3:3,0:0:0:0:
484,127,58210,1,2,3:0:0:0:
500,120,58325,1,8,2:3:0:0:
398,13,58556,5,2,0:0:0:0:
304,87,58787,1,8,1:2:0:0:
294,71,58902,1,0,1:2:0:0:
269,98,59018,1,0,1:1:0:0:
259,82,59133,1,0,1:1:0:0:
213,54,59248,6,0,B|187:52|187:52|146:75|146:75|121:72,1,97.9999970092774,12|0,0:1|0:1,0:0:0:0:
54,41,59595,1,2,0:0:0:0:
42,26,59710,1,8,0:0:0:0:
1,136,59941,6,0,L|7:172,1,24.4999992523194,2|0,0:1|0:0,0:0:0:0:
62,220,60172,2,0,L|122:211,1,48.9999985046387,12|0,0:1|0:0,0:0:0:0:
195,276,60402,6,0,L|233:275,1,35,2|0,1:2|1:2,0:0:0:0:
294,318,60633,1,8,0:0:0:0:
373,251,60864,5,0,1:0:0:0:
373,251,60979,1,0,1:0:0:0:
395,269,61095,2,0,L|398:296,6,17.5,12|0|0|0|0|0|0,1:1|1:0|1:0|1:0|1:0|1:0|1:0,0:0:0:0:
422,321,61556,6,0,P|442:325|486:305,1,70,10|10,0:0|0:0,0:0:0:0:
489,233,61902,1,10,0:0:0:0:
474,217,62018,6,0,P|469:201|467:168,1,35,10|8,0:0|0:0,0:0:0:0:
400,152,62248,2,0,P|407:137|429:112,1,35,10|8,0:0|0:0,0:0:0:0:
473,72,62479,2,0,L|477:23,2,46.6666666666667,8|8|8,0:0|0:0|0:0,0:0:0:0:
467,183,62941,5,10,0:3:0:0:
467,183,63402,6,0,B|440:174|440:174|413:191|413:191|348:184,1,105.000004005432,12|0,0:0|0:0,0:0:0:0:
321,135,63748,2,0,L|317:86,1,38.5000011749268,2|8,0:0|0:3,0:0:0:0:
255,191,63979,1,2,0:0:0:0:
251,206,64095,1,2,0:0:0:0:
183,103,64325,1,8,0:0:0:0:
114,205,64556,5,0,3:3:0:0:
67,199,64672,1,0,3:3:0:0:
21,193,64787,2,0,B|13:105,1,77.0000023498536,10|0,0:3|0:0,0:0:0:0:
101,14,65248,5,10,0:0:0:0:
205,65,65479,1,2,0:0:0:0:
219,58,65595,2,0,L|279:49,1,38.5000011749268,2|8,0:0|0:3,0:0:0:0:
318,20,65825,2,0,L|374:42,1,38.5000011749268,2|0,0:0|0:0,0:0:0:0:
422,36,66056,2,0,L|459:83,1,38.5000011749268,2|8,0:0|0:2,0:0:0:0:
504,101,66287,1,0,3:0:0:0:
506,120,66402,1,0,3:0:0:0:
509,139,66518,1,0,3:0:0:0:
477,169,66633,6,0,B|434:157|434:157|373:169|373:169|315:154,1,157.500006008148,12|0,0:1|0:0,0:0:0:0:
264,106,67095,1,10,0:0:0:0:
217,220,67325,1,2,0:0:0:0:
100,172,67556,6,0,B|95:142|95:142|118:75|118:75|110:36,1,136.499993751526,8|0,0:3|0:0,0:0:0:0:
111,40,68018,6,0,B|105:74|105:74|131:149|131:149|122:192,1,157.500006008148,8|0,0:0|0:0,0:0:0:0:
122,191,68479,6,0,B|115:152|115:152|145:65|145:65|134:15,1,183.750001752377,12|0,0:1|0:0,0:0:0:0:
133,14,68941,1,2,0:0:0:0:
252,72,69172,1,2,0:0:0:0:
252,72,69287,2,0,B|290:76|290:76|321:67,1,70,2|2,0:0|0:0,0:0:0:0:
390,38,69633,5,8,0:0:0:0:
390,38,69748,1,8,0:0:0:0:
390,38,69864,1,8,0:0:0:0:
390,38,69979,1,8,0:1:0:0:
374,65,70095,1,8,0:1:0:0:
378,97,70210,1,8,0:1:0:0:
404,121,70325,6,0,P|418:151|421:182,1,56,10|8,0:3|0:3,0:0:0:0:
379,253,70787,1,8,0:0:0:0:
382,263,70902,1,8,0:3:0:0:
384,273,71018,1,8,0:3:0:0:
386,283,71133,1,10,0:3:0:0:
327,350,71364,1,8,0:0:0:0:
316,348,71479,1,8,0:3:0:0:
305,348,71595,1,8,0:3:0:0:
295,351,71710,2,0,P|265:351|232:344,1,56,10|8,0:0|0:3,0:0:0:0:
138,263,72172,6,0,P|166:263|194:268,1,56,2|8,0:0|0:3,0:0:0:0:
263,210,72633,1,8,0:0:0:0:
264,199,72748,1,10,0:3:0:0:
215,124,72979,1,2,0:0:0:0:
215,124,73672,1,8,0:3:0:0:
211,113,73787,1,8,0:3:0:0:
213,102,73902,1,8,0:3:0:0:
219,93,74018,6,0,P|226:62|222:28,1,56,10|8,0:3|0:3,0:0:0:0:
138,13,74479,1,8,0:0:0:0:
126,11,74595,1,10,0:3:0:0:
52,62,74825,1,10,0:3:0:0:
59,151,75056,1,8,0:0:0:0:
61,161,75172,1,8,0:3:0:0:
63,172,75287,1,8,0:3:0:0:
66,182,75402,2,0,L|51:242,1,56,10|8,0:3|0:0,0:0:0:0:
119,325,75864,6,0,P|146:317|179:313,1,56,10|8,0:3|0:3,0:0:0:0:
262,326,76325,1,10,0:2:0:0:
273,322,76441,1,10,0:2:0:0:
316,219,76672,1,10,0:0:0:0:
419,262,76902,1,10,0:2:0:0:
376,365,77133,1,10,0:2:0:0:
316,219,77479,6,0,L|311:180,1,28,12|8,0:0|0:0,0:0:0:0:
358,136,77710,6,0,L|365:67,1,62.9999980773926,14|8,0:3|0:3,0:0:0:0:
384,49,78056,2,0,P|404:46|428:50,1,31.4999990386963,10|8,0:3|0:0,0:0:0:0:
501,138,78402,1,10,0:3:0:0:
501,138,78518,1,8,0:0:0:0:
489,167,78633,2,0,L|487:242,1,62.9999980773926,10|0,0:3|0:0,0:0:0:0:
502,257,78979,2,0,L|481:286,1,31.4999990386963,10|8,0:3|0:2,0:0:0:0:
369,332,79325,1,10,0:3:0:0:
369,332,79441,1,8,0:0:0:0:
343,350,79556,6,0,L|291:338,1,31.4999990386963,10|8,0:3|0:0,0:0:0:0:
186,346,79902,2,0,L|134:334,1,31.4999990386963,10|8,0:3|0:0,0:0:0:0:
32,352,80248,1,10,0:3:0:0:
32,352,80364,1,8,0:0:0:0:
5,334,80479,2,0,L|0:254,1,62.9999980773926,10|0,0:3|0:0,0:0:0:0:
103,153,80941,2,0,L|108:73,1,62.9999980773926,10|0,0:0|0:0,0:0:0:0:
235,246,81402,6,0,P|270:237|309:240,1,62.9999980773926,14|8,0:3|0:3,0:0:0:0:
324,252,81748,2,0,L|334:290,1,31.4999990386963,10|8,0:3|0:0,0:0:0:0:
442,342,82095,1,10,0:3:0:0:
442,342,82210,1,8,0:0:0:0:
465,320,82325,2,0,L|469:247,1,62.9999980773926,10|0,0:3|0:0,0:0:0:0:
487,231,82672,2,0,L|484:188,1,31.4999990386963,10|8,0:3|0:0,0:0:0:0:
452,79,83018,1,10,0:3:0:0:
452,79,83133,1,8,0:0:0:0:
428,99,83248,6,0,L|379:94,1,31.4999990386963,10|8,0:3|0:0,0:0:0:0:
280,46,83595,2,0,L|231:41,1,31.4999990386963,10|8,0:3|0:0,0:0:0:0:
125,70,83941,2,0,L|76:65,2,31.4999990386963,10|8|8,0:3|0:0|0:3,0:0:0:0:
214,181,84402,5,2,0:0:0:0:
282,125,84633,1,10,0:0:0:0:
358,178,84864,1,10,0:0:0:0:
358,178,84979,1,8,0:0:0:0:
391,187,85095,6,0,B|440:185|440:185|476:165,2,73.4999977569581,12|8|8,0:1|0:3|0:3,0:0:0:0:
282,125,86018,1,8,0:0:0:0:
214,181,86248,6,0,L|210:228,2,35,2|8|2,0:0|0:3|0:0,0:0:0:0:
282,125,86941,1,2,0:0:0:0:
391,187,87172,5,8,0:0:0:0:
383,162,87287,1,8,0:0:0:0:
373,208,87402,1,8,0:3:0:0:
282,125,87633,5,8,0:0:0:0:
290,100,87748,1,8,0:0:0:0:
300,146,87864,1,8,0:3:0:0:
404,40,88095,6,0,B|460:35,2,41.9999987182618,2|8|8,1:2|1:2|1:3,0:0:0:0:
404,40,88787,6,0,B|387:66|387:66|387:130,1,90.9999958343508,12|0,0:1|0:0,0:0:0:0:
430,184,89133,2,0,B|470:204,1,45.4999979171754,2|8,0:0|0:0,0:0:0:0:
379,237,89364,2,0,B|372:281,1,45.4999979171754,2|0,0:0|0:0,0:0:0:0:
312,203,89595,1,2,0:0:0:0:
294,197,89710,5,10,0:3:0:0:
240,302,89941,1,2,0:0:0:0:
128,219,90172,1,10,0:0:0:0:
182,114,90402,1,2,1:2:0:0:
199,109,90518,1,0,1:2:0:0:
216,105,90633,6,0,B|239:82|239:82|227:17,1,90.9999958343508,12|0,0:1|0:0,0:0:0:0:
157,6,90979,1,2,0:0:0:0:
142,16,91095,2,0,B|84:8,1,45.4999979171754,10|0,0:0|0:0,0:0:0:0:
24,67,91325,1,2,3:2:0:0:
12,81,91441,1,0,3:2:0:0:
14,51,91556,1,8,0:3:0:0:
85,159,91787,5,2,0:0:0:0:
196,98,92018,1,10,0:0:0:0:
303,166,92248,2,0,L|353:161,1,45.4999979171754,2|0,1:2|1:0,0:0:0:0:
425,48,92479,5,12,0:1:0:0:
314,60,92710,1,2,0:0:0:0:
296,57,92825,2,0,L|243:48,1,45.4999979171754,2|8,0:0|0:0,0:0:0:0:
196,98,93056,2,0,L|143:89,1,45.4999979171754,2|0,0:0|0:0,0:0:0:0:
80,113,93287,1,2,0:0:0:0:
73,129,93402,5,10,0:3:0:0:
104,22,93633,1,2,0:0:0:0:
196,98,93864,1,10,0:2:0:0:
165,205,94095,1,2,1:2:0:0:
169,222,94210,1,0,1:0:0:0:
173,239,94325,6,0,B|157:331,1,90.9999958343508,12|0,0:1|0:0,0:0:0:0:
94,364,94672,2,0,P|71:354|27:351,1,45.4999979171754,2|10,0:0|0:0,0:0:0:0:
0,199,95018,1,2,0:0:0:0:
54,104,95248,1,10,0:3:0:0:
232,136,95479,6,0,L|237:104,1,22.7499989585877,8|0,1:3|0:0,0:0:0:0:
173,239,95710,2,0,L|149:260,1,22.7499989585877,8|0,1:2|0:0,0:0:0:0:
280,189,95941,2,0,L|311:183,1,22.7499989585877,8|0,1:3|0:0,0:0:0:0:
164,166,96172,2,0,L|135:149,1,22.7499989585877,8|0,1:3|0:0,0:0:0:0:
244,252,96402,6,0,L|257:281,1,22.7499989585877,10|0,3:1|3:0,0:0:0:0:
354,274,96633,6,0,B|332:268|332:268|282:281|282:281|253:272,1,105.000004005432,12|0,0:0|0:0,0:0:0:0:
185,300,96979,1,2,0:0:0:0:
176,316,97095,2,0,B|167:360,1,45.4999979171754,10|0,0:3|0:0,0:0:0:0:
129,259,97325,2,0,B|125:213,1,45.4999979171754,2|0,0:0|0:0,0:0:0:0:
73,307,97556,5,10,0:2:0:0:
21,176,97787,1,2,0:3:0:0:
129,259,98018,6,0,B|190:263|190:263|217:251,1,90.9999958343508,12|0,0:1|0:0,0:0:0:0:
281,287,98364,1,2,0:0:0:0:
297,278,98479,2,0,B|358:273|358:273|385:285,1,90.9999958343508,10|0,0:2|3:3,0:0:0:0:
437,337,98825,1,2,3:0:0:0:
440,354,98941,1,8,2:3:0:0:
512,223,99172,5,2,0:0:0:0:
400,192,99402,1,8,1:2:0:0:
384,182,99518,1,0,1:2:0:0:
411,157,99633,1,0,1:1:0:0:
395,147,99748,1,0,1:1:0:0:
367,105,99864,6,0,B|342:96|342:96|296:107|296:107|273:98,1,97.9999970092774,12|0,0:1|0:1,0:0:0:0:
218,51,100210,1,2,0:0:0:0:
215,33,100325,1,8,0:0:0:0:
98,81,100556,6,0,L|53:74,1,24.4999992523194,2|0,0:1|0:0,0:0:0:0:
6,139,100787,2,0,L|0:204,1,48.9999985046387,12|0,0:1|0:0,0:0:0:0:
65,257,101018,6,0,L|117:251,1,35,2|0,1:2|1:2,0:0:0:0:
166,294,101248,1,8,0:0:0:0:
255,235,101479,5,0,1:0:0:0:
255,235,101595,1,0,1:0:0:0:
277,253,101710,2,0,L|280:280,6,17.5,12|0|0|0|0|0|0,1:1|1:0|1:0|1:0|1:0|1:0|1:0,0:0:0:0:
336,313,102172,6,0,B|373:319|373:319|400:297,1,70,10|10,0:0|0:0,0:0:0:0:
447,245,102518,1,10,0:0:0:0:
460,228,102633,6,0,L|452:174,1,35,10|8,0:0|0:0,0:0:0:0:
397,147,102864,2,0,L|405:93,1,35,10|8,0:0|0:0,0:0:0:0:
365,48,103095,2,0,P|349:39|305:32,2,46.6666666666667,8|8|8,0:0|0:0|0:0,0:0:0:0:
397,147,103556,5,14,0:3:0:0:
466,114,103787,1,2,0:0:0:0:
466,114,103902,1,2,0:0:0:0:
460,190,104133,1,2,0:0:0:0:
460,190,104248,1,2,0:0:0:0:
400,74,104479,1,8,0:3:0:0:
460,190,104710,1,2,0:0:0:0:
208,102,105402,5,10,0:3:0:0:
139,69,105633,1,2,0:0:0:0:
139,69,105748,1,2,0:0:0:0:
145,145,105979,1,2,0:0:0:0:
145,145,106095,1,2,0:0:0:0:
202,28,106325,1,10,0:3:0:0:
145,145,106556,1,2,0:0:0:0:
308,306,107018,1,0,0:0:0:0:
375,267,107248,5,10,0:3:0:0:
306,234,107479,1,2,0:0:0:0:
306,234,107595,1,2,0:0:0:0:
312,310,107825,1,2,0:0:0:0:
312,310,107941,1,2,0:0:0:0:
372,194,108172,1,8,0:3:0:0:
312,310,108402,1,2,0:0:0:0:
98,352,108864,1,0,0:0:0:0:
36,313,109095,5,14,0:3:0:0:
105,280,109325,1,2,0:0:0:0:
105,280,109441,1,2,0:0:0:0:
102,356,109672,1,2,0:0:0:0:
102,356,109787,1,2,0:0:0:0:
39,240,110018,1,10,0:0:0:0:
102,356,110248,1,10,0:0:0:0:
176,242,110479,6,0,L|236:241,1,51.3333348999024,10|8,0:0|0:0,0:0:0:0:
263,231,110710,2,0,L|272:189,1,25.6666674499512,2|8,0:0|0:0,0:0:0:0:
315,95,110941,6,0,B|312:76|321:51|321:51|325:69|334:82,1,62.9999980773926,10|0,0:3|0:0,0:0:0:0:
327,69,111402,6,0,L|385:64,1,48.9999985046387,12|0,0:0|0:0,0:0:0:0:
475,114,111633,2,0,L|486:21,2,83.9999974365235,2|8|0,2:2|0:3|0:0,0:0:0:0:
447,248,112325,1,10,0:0:0:0:
447,248,112556,1,2,0:0:0:0:
361,160,112787,5,10,0:3:0:0:
311,276,113018,1,2,0:0:0:0:
302,290,113133,2,0,L|246:290,1,41.9999987182618,2|8,0:0|0:2,0:0:0:0:
191,229,113364,1,2,0:0:0:0:
183,213,113479,2,0,L|92:201,1,83.9999974365235,2|8,0:0|0:3,0:0:0:0:
42,243,113825,2,0,P|31:224|28:204,1,41.9999987182618,2|0,1:2|1:0,0:0:0:0:
61,141,114056,2,0,P|71:122|74:102,1,41.9999987182618,2|8,1:2|1:2,0:0:0:0:
121,303,114402,6,0,P|124:282|134:264,1,41.9999987182618,2|0,1:2|1:0,0:0:0:0:
183,213,114633,1,8,0:3:0:0:
337,284,114864,5,0,3:0:0:0:
356,286,114979,1,0,3:0:0:0:
377,288,115095,1,8,3:2:0:0:
317,172,115325,5,0,3:0:0:0:
298,170,115441,1,0,3:0:0:0:
277,168,115556,1,8,3:3:0:0:
356,286,115787,5,0,3:0:0:0:
375,288,115902,1,0,3:0:0:0:
396,290,116018,1,8,3:2:0:0:
298,170,116248,5,0,3:0:0:0:
279,168,116364,1,0,3:0:0:0:
258,166,116479,1,12,3:3:0:0:
71,278,116941,5,10,1:2:0:0:
69,265,117056,1,2,1:2:0:0:
68,252,117172,1,2,1:2:0:0:
67,239,117287,1,2,1:2:0:0:
66,226,117402,6,0,L|44:187,1,41.9999987182618,10|0,1:3|1:2,0:0:0:0:
89,125,117633,2,0,L|101:81,1,41.9999987182618,10|0,1:3|1:2,0:0:0:0:
176,70,117864,2,0,L|215:48,1,41.9999987182618,10|0,1:2|1:2,0:0:0:0:
276,92,118095,1,8,0:0:0:0:
296,97,118210,1,8,0:0:0:0:
316,103,118325,6,0,L|390:95,1,62.9999980773926,14|0,0:3|0:0,0:0:0:0:
405,78,118672,2,0,L|449:90,1,31.4999990386963,2|8,0:0|0:0,0:0:0:0:
509,180,119018,1,2,0:0:0:0:
417,289,119248,2,0,L|341:280,1,62.9999980773926,10|0,0:3|0:0,0:0:0:0:
334,306,119595,2,0,L|294:292,1,31.4999990386963,2|8,0:0|0:0,0:0:0:0:
223,207,119941,1,2,0:0:0:0:
111,317,120172,6,0,L|106:251,1,62.9999980773926,10|0,0:3|0:0,0:0:0:0:
75,249,120518,2,0,L|78:212,1,31.4999990386963,2|8,0:0|0:2,0:0:0:0:
101,103,120864,1,2,0:0:0:0:
222,206,121095,2,0,P|254:206|285:201,1,62.9999980773926,10|0,0:3|0:0,0:0:0:0:
320,224,121441,1,8,0:3:0:0:
320,224,121556,2,0,P|351:224|382:229,1,62.9999980773926,10|8,0:0|0:3,0:0:0:0:
282,327,122018,6,0,P|251:327|220:322,1,62.9999980773926,10|0,0:3|0:0,0:0:0:0:
197,344,122364,2,0,P|186:320|176:298,1,31.4999990386963,2|8,0:0|0:0,0:0:0:0:
173,196,122710,1,2,0:0:0:0:
320,224,122941,2,0,P|348:222|401:206,1,62.9999980773926,10|0,0:3|0:0,0:0:0:0:
411,226,123287,2,0,P|419:202|423:185,1,31.4999990386963,2|8,0:0|0:0,0:0:0:0:
404,77,123633,1,2,0:0:0:0:
283,113,123864,6,0,L|205:105,1,62.9999980773926,10|0,0:3|0:0,0:0:0:0:
209,136,124210,2,0,L|175:110,1,31.4999990386963,2|8,0:0|0:0,0:0:0:0:
104,27,124556,1,2,0:0:0:0:
38,150,124787,2,0,L|34:240,1,62.9999980773926,10|8,0:3|0:3,0:0:0:0:
42,254,125133,1,8,0:3:0:0:
42,254,125248,2,0,P|84:245|115:246,1,62.9999980773926,10|8,0:0|0:3,0:0:0:0:
232,317,125710,6,0,P|274:326|305:325,1,62.9999980773926,12|0,0:3|0:0,0:0:0:0:
313,351,126056,2,0,P|327:341|342:324,1,31.4999990386963,2|8,0:0|0:0,0:0:0:0:
418,243,126402,1,2,0:0:0:0:
378,109,126633,2,0,P|336:100|305:101,1,62.9999980773926,10|0,0:3|0:0,0:0:0:0:
289,117,126979,2,0,L|240:97,1,31.4999990386963,2|8,0:0|0:0,0:0:0:0:
169,26,127325,1,2,0:0:0:0:
85,127,127556,6,0,L|77:211,1,62.9999980773926,10|0,0:3|0:0,0:0:0:0:
63,219,127902,2,0,L|72:261,1,31.4999990386963,2|8,0:0|0:0,0:0:0:0:
133,351,128248,1,2,0:0:0:0:
228,241,128479,2,0,L|236:157,1,62.9999980773926,10|0,0:3|0:0,0:0:0:0:
253,147,128825,1,8,0:3:0:0:
253,147,128941,2,0,P|292:137|332:145,1,62.9999980773926,10|0,0:0|0:0,0:0:0:0:
391,250,129402,6,0,L|395:340,1,62.9999980773926,10|0,0:3|0:0,0:0:0:0:
415,338,129748,2,0,P|432:337|454:335,1,31.4999990386963,2|8,0:0|0:0,0:0:0:0:
511,234,130095,1,2,0:0:0:0:
376,148,130325,2,0,P|340:141|307:139,1,62.9999980773926,10|0,0:3|0:0,0:0:0:0:
291,161,130672,2,0,L|248:145,1,31.4999990386963,2|8,0:0|0:0,0:0:0:0:
179,62,131018,1,10,0:3:0:0:
26,192,131248,6,0,B|70:178|109:194|109:194|95:148|95:148|110:101|110:101|99:78|97:58|106:29,1,251.999992309571,14|0,0:3|0:0,0:0:0:0:
179,61,132402,6,0,L|222:60,2,41.9999987182618,2|8|8,1:2|1:2|1:3,0:0:0:0:
179,61,133095,6,0,B|185:95|185:95|171:130|171:130|178:161,1,105.000004005432,12|0,0:1|0:0,0:0:0:0:
233,210,133441,2,0,B|278:210,1,45.4999979171754,2|8,0:0|0:0,0:0:0:0:
177,256,133672,2,0,B|131:255,1,45.4999979171754,2|0,0:0|0:0,0:0:0:0:
229,308,133902,1,2,0:0:0:0:
236,324,134018,5,10,0:3:0:0:
279,210,134248,1,2,0:0:0:0:
347,305,134479,1,10,0:0:0:0:
390,191,134710,1,2,1:2:0:0:
407,186,134825,1,0,1:2:0:0:
424,182,134941,6,0,B|439:155|439:155|432:85,1,90.9999958343508,12|0,0:1|0:0,0:0:0:0:
385,40,135287,1,2,0:0:0:0:
368,47,135402,2,0,B|316:40,1,45.4999979171754,10|0,0:0|0:0,0:0:0:0:
222,68,135633,1,2,3:2:0:0:
224,50,135748,1,0,3:2:0:0:
234,82,135864,1,8,0:3:0:0:
114,17,136095,5,2,0:0:0:0:
224,50,136325,1,10,0:0:0:0:
140,128,136556,2,0,L|132:183,1,45.4999979171754,2|0,1:2|1:0,0:0:0:0:
31,96,136787,5,12,0:1:0:0:
98,25,137018,1,2,0:0:0:0:
114,17,137133,2,0,L|165:11,1,45.4999979171754,2|8,0:0|0:0,0:0:0:0:
236,59,137364,2,0,L|281:53,1,45.4999979171754,2|0,0:0|0:0,0:0:0:0:
364,87,137595,1,2,0:0:0:0:
375,73,137710,5,10,0:3:0:0:
430,185,137941,1,2,0:0:0:0:
261,146,138172,1,10,0:2:0:0:
316,258,138402,1,2,1:2:0:0:
320,275,138518,1,0,1:0:0:0:
324,292,138633,6,0,B|320:344|320:344|283:365,1,90.9999958343508,12|0,0:1|0:0,0:0:0:0:
214,357,138979,2,0,L|170:347,1,45.4999979171754,2|10,0:0|0:0,0:0:0:0:
123,188,139325,1,2,0:0:0:0:
25,228,139556,1,10,0:3:0:0:
205,274,139787,6,0,L|227:271,1,22.7499989585877,8|0,1:3|0:0,0:0:0:0:
310,221,140018,2,0,L|315:198,1,22.7499989585877,8|0,1:2|0:0,0:0:0:0:
293,103,140248,2,0,L|266:86,1,22.7499989585877,8|0,1:3|0:0,0:0:0:0:
177,84,140479,2,0,L|153:105,1,22.7499989585877,8|0,1:3|0:0,0:0:0:0:
123,188,140710,6,0,L|136:217,1,22.7499989585877,10|0,3:1|3:0,0:0:0:0:
205,274,140941,6,0,B|181:226|181:226|132:208,1,105.000004005432,12|0,0:0|0:0,0:0:0:0:
62,225,141287,1,2,0:0:0:0:
52,240,141402,2,0,B|41:311,1,45.4999979171754,10|0,0:3|0:0,0:0:0:0:
3,183,141633,2,0,B|-2:113,1,45.4999979171754,2|0,0:0|0:0,0:0:0:0:
132,208,141864,5,10,0:2:0:0:
194,107,142095,1,2,0:3:0:0:
321,161,142325,6,0,B|423:157,1,90.9999958343508,12|0,0:1|0:0,0:0:0:0:
473,115,142672,1,2,0:0:0:0:
460,127,142787,2,0,B|446:157|446:157|446:217,1,90.9999958343508,10|0,0:2|3:3,0:0:0:0:
451,287,143133,1,2,3:0:0:0:
447,304,143248,1,8,2:3:0:0:
315,359,143479,5,2,0:0:0:0:
226,299,143710,1,8,1:2:0:0:
216,283,143825,1,0,1:2:0:0:
191,310,143941,1,0,1:1:0:0:
181,294,144056,1,0,1:1:0:0:
135,266,144172,6,0,B|109:264|109:264|68:287|68:287|43:284,1,97.9999970092774,12|0,0:1|0:1,0:0:0:0:
0,226,144518,1,2,0:0:0:0:
0,207,144633,1,8,0:0:0:0:
61,95,144864,6,0,L|76:63,1,24.4999992523194,2|0,0:1|0:0,0:0:0:0:
164,126,145095,2,0,L|224:117,1,48.9999985046387,12|0,0:1|0:0,0:0:0:0:
326,43,145325,6,0,L|260:32,1,35,2|0,1:2|1:2,0:0:0:0:
215,20,145556,1,8,0:0:0:0:
293,122,145787,5,0,1:0:0:0:
293,122,145902,1,0,1:0:0:0:
315,140,146018,2,0,P|322:157|324:181,1,35,14|8,0:0|0:0,0:0:0:0:
388,208,146248,2,0,P|377:223|359:238,1,35,8|8,0:0|0:0,0:0:0:0:
307,291,146479,5,10,0:3:0:0:
324,296,146595,2,0,P|332:311|338:327,1,35,10|0,0:0|0:0,0:0:0:0:
265,227,146825,5,2,0:1:0:0:
248,232,146941,2,0,P|240:247|234:263,1,35,10|0,0:3|0:0,0:0:0:0:
177,311,147172,6,0,P|169:296|163:280,1,35,10|0,0:0|0:0,0:0:0:0:
90,264,147402,2,0,P|94:247|102:232,1,35,10|8,0:0|0:0,0:0:0:0:
57,172,147633,2,0,P|73:163|89:157,1,35,10|8,0:0|0:0,0:0:0:0:
99,81,147864,6,0,P|129:91|153:112,1,62.9999980773926,6|0,0:3|0:0,0:0:0:0:
152,111,148325,6,0,B|183:107|183:107|198:98|198:98|215:104|215:104|279:97,1,125.999996154785,12|0,0:0|0:0,0:0:0:0:
352,86,148672,1,2,0:0:0:0:
349,105,148787,2,0,B|343:153,1,48.9999985046387,10|0,0:3|0:0,0:0:0:0:
419,67,149018,2,0,B|424:18,1,48.9999985046387,2|0,0:0|0:0,0:0:0:0:
470,125,149248,5,10,0:0:0:0:
343,153,149479,1,2,1:2:0:0:
324,159,149595,1,0,1:2:0:0:
305,165,149710,6,0,B|278:189|278:189|274:254,1,97.9999970092774,12|0,0:1|0:0,0:0:0:0:
237,320,150056,1,2,0:0:0:0:
224,334,150172,2,0,B|166:325,1,48.9999985046387,10|0,0:0|0:0,0:0:0:0:
36,350,150402,1,2,3:2:0:0:
42,330,150518,1,0,3:2:0:0:
48,363,150633,1,8,0:3:0:0:
131,238,150864,5,2,0:0:0:0:
224,334,151095,1,10,0:0:0:0:
355,295,151325,2,0,L|406:292,1,48.9999985046387,2|0,1:2|1:0,0:0:0:0:
478,174,151556,5,12,0:1:0:0:
373,197,151787,1,2,0:0:0:0:
357,208,151902,2,0,L|300:199,1,48.9999985046387,2|8,0:0|0:0,0:0:0:0:
233,232,152133,2,0,L|178:221,1,48.9999985046387,2|0,0:0|0:0,0:0:0:0:
106,239,152364,1,2,0:0:0:0:
95,255,152479,5,10,0:3:0:0:
14,157,152710,1,2,0:0:0:0:
93,22,152941,1,10,0:2:0:0:
174,120,153172,1,2,1:2:0:0:
191,124,153287,1,0,1:0:0:0:
208,128,153402,6,0,B|312:117,1,97.9999970092774,12|0,0:1|0:0,0:0:0:0:
379,89,153748,2,0,P|388:67|394:27,1,48.9999985046387,2|10,0:0|0:0,0:0:0:0:
508,169,154095,1,2,0:0:0:0:
471,291,154325,1,10,0:3:0:0:
352,186,154556,6,0,L|351:151,1,24.4999992523194,8|0,1:3|0:0,0:0:0:0:
305,302,154787,2,0,L|283:328,1,24.4999992523194,8|0,1:2|0:0,0:0:0:0:
411,231,155018,2,0,L|442:219,1,24.4999992523194,8|0,1:3|0:0,0:0:0:0:
284,227,155248,2,0,L|250:213,1,24.4999992523194,8|0,1:3|0:0,0:0:0:0:
383,305,155479,6,0,L|401:333,1,24.4999992523194,10|0,3:1|3:0,0:0:0:0:
512,329,155710,6,0,B|484:320|484:320|432:334|432:334|396:325,1,119.000002269745,12|0,0:0|0:0,0:0:0:0:
322,352,156056,1,2,0:0:0:0:
306,363,156172,2,0,B|253:341,1,48.9999985046387,10|0,0:3|0:0,0:0:0:0:
196,267,156402,2,0,B|203:198,1,48.9999985046387,2|0,0:0|0:0,0:0:0:0:
99,356,156633,5,10,0:2:0:0:
6,296,156864,1,2,0:3:0:0:
106,215,157095,6,0,B|138:211|138:211|158:223|158:223|220:216,1,97.9999970092774,12|0,0:1|0:0,0:0:0:0:
274,245,157441,1,2,0:0:0:0:
257,255,157556,2,0,B|240:233|240:233|248:149,1,97.9999970092774,10|0,0:2|3:3,0:0:0:0:
259,85,157902,1,2,3:0:0:0:
251,67,158018,1,8,2:3:0:0:
114,15,158248,5,2,0:0:0:0:
81,136,158479,1,8,1:2:0:0:
63,146,158595,1,0,1:2:0:0:
92,174,158710,1,0,1:1:0:0:
75,185,158825,1,0,1:1:0:0:
44,225,158941,6,0,B|38:250|38:250|45:270|45:270|42:348,1,105.000004005432,12|0,0:1|0:1,0:0:0:0:
111,363,159287,1,2,0:0:0:0:
131,358,159402,1,8,0:0:0:0:
216,278,159633,6,0,L|218:240,1,28,2|0,0:1|0:0,0:0:0:0:
279,175,159864,2,0,B|300:166|300:166|353:171,1,52.5000020027161,12|0,0:1|0:0,0:0:0:0:
419,229,160095,6,0,L|427:279,1,38.5000011749268,2|0,1:2|1:2,0:0:0:0:
442,340,160325,1,8,0:0:0:0:
317,357,160556,5,0,1:0:0:0:
317,357,160672,1,0,1:0:0:0:
289,347,160787,2,0,L|262:351,6,19.2500005874634,12|0|0|0|0|0|0,1:1|1:0|1:0|1:0|1:0|1:0|1:0,0:0:0:0:
195,367,161248,6,0,B|149:359|149:359|127:337,1,77.0000023498536,2|0,0:0|0:0,0:0:0:0:
78,283,161595,1,10,0:0:0:0:
65,266,161710,6,0,L|73:212,1,38.5000011749268,2|0,0:0|0:0,0:0:0:0:
127,180,161941,2,0,L|119:126,1,38.5000011749268,2|0,0:0|0:0,0:0:0:0:
93,74,162172,2,0,P|77:65|26:60,2,51.3333348999024,2|2|2,1:2|1:2|1:2,0:0:0:0:
127,180,162633,5,10,0:3:0:0:
127,180,163095,6,0,B|156:175|156:175|190:188|190:188|246:181,1,112,12|0,0:0|0:0,0:0:0:0:
290,128,163441,2,0,L|290:86,1,41.9999987182618,2|8,0:0|0:3,0:0:0:0:
343,181,163672,1,2,0:0:0:0:
350,197,163788,1,2,0:0:0:0:
462,151,164018,1,8,0:0:0:0:
376,26,164249,5,0,3:3:0:0:
329,32,164365,1,0,3:3:0:0:
283,38,164480,2,0,B|252:32|252:32|228:38|228:38|195:33,1,83.9999974365235,10|0,0:3|0:0,0:0:0:0:
79,8,164941,5,10,0:0:0:0:
160,97,165172,1,2,0:0:0:0:
167,111,165288,2,0,P|173:138|168:170,1,41.9999987182618,2|8,0:0|0:3,0:0:0:0:
241,182,165518,2,0,P|226:205|199:224,1,41.9999987182618,2|0,0:0|0:0,0:0:0:0:
243,284,165748,2,0,P|216:290|184:285,1,41.9999987182618,2|8,0:0|0:0,0:0:0:0:
172,357,165979,1,0,3:0:0:0:
153,346,166094,1,0,3:0:0:0:
139,331,166209,1,0,3:0:0:0:
130,284,166325,6,0,B|128:239|128:239|95:169|95:169|93:116,1,168,12|0,0:1|0:0,0:0:0:0:
135,57,166788,1,10,0:0:0:0:
195,198,167018,1,2,0:0:0:0:
317,88,167249,6,0,B|347:83|347:83|414:105|414:105|453:98,1,136.499993751526,8|0,0:3|0:0,0:0:0:0:
449,99,167710,6,0,B|407:90|407:90|331:116|331:116|297:110,1,157.500006008148,8|0,0:0|0:0,0:0:0:0:
298,110,168172,6,0,B|337:103|337:103|424:132|424:132|474:123,1,183.750001752377,12|0,0:1|0:0,0:0:0:0:
475,122,168634,1,10,0:2:0:0:
338,190,168865,1,0,3:0:0:0:
338,190,168979,1,0,3:0:0:0:
338,190,169095,1,10,0:3:0:0:
247,101,169325,6,0,L|219:92,1,17.5,10|0,1:3|0:0,0:0:0:0:
154,104,169556,2,0,L|126:95,1,17.5,10|0,1:2|0:0,0:0:0:0:
61,107,169787,2,0,L|33:98,1,17.5,10|0,1:3|0:0,0:0:0:0:
32,178,170018,6,0,L|6:180,1,26.25,8|0,3:3|0:0,0:0:0:0:
7,181,170479,6,0,B|7:205|7:205|-2:221|-2:221|3:238|3:238|1:295,1,112,12|0,0:0|0:0,0:0:0:0:
52,346,170825,2,0,P|75:349|99:344,1,41.9999987182618,2|8,0:0|0:3,0:0:0:0:
187,291,171056,1,2,0:0:0:0:
183,307,171172,1,2,0:0:0:0:
98,223,171402,1,8,0:0:0:0:
195,129,171633,5,0,3:0:0:0:
240,123,171748,1,0,3:0:0:0:
286,117,171864,2,0,B|310:114|310:114|337:122|337:122|384:119,1,83.9999974365235,10|0,0:3|0:0,0:0:0:0:
504,41,172325,5,10,0:0:0:0:
447,149,172556,1,2,0:0:0:0:
381,45,172787,1,10,0:3:0:0:
286,117,173018,6,0,L|258:108,1,17.5,2|0,1:2|0:0,0:0:0:0:
193,120,173249,2,0,L|165:111,1,17.5,10|0,1:2|0:0,0:0:0:0:
100,123,173480,2,0,L|72:114,1,17.5,2|0,1:2|0:0,0:0:0:0:
171,264,173710,6,0,B|146:236|146:236|150:186|150:186|173:161|173:161|177:115,1,168,12|0,0:3|0:0,0:0:0:0:
195,40,174172,1,10,0:0:0:0:
243,191,174402,1,2,0:0:0:0:
358,50,174633,6,0,B|401:44|401:44|442:67|442:67|487:63,1,136.499993751526,8|0,0:3|0:0,0:0:0:0:
488,63,175095,6,0,B|434:59|434:59|386:86|386:86|336:79,1,157.500006008148,8|0,0:0|0:0,0:0:0:0:
338,79,175556,6,0,B|398:70|398:70|459:104|459:104|527:99,1,183.750001752377,8|0,0:3|0:0,0:0:0:0:
512,100,176018,5,10,0:2:0:0:
388,166,176248,1,0,3:0:0:0:
388,166,176364,1,0,3:0:0:0:
388,166,176479,1,10,0:3:0:0:
258,29,176710,6,0,L|256:16,1,13.125000500679,8|0,1:3|0:0,0:0:0:0:
278,129,176941,2,0,L|280:115,1,13.125000500679,8|0,1:2|0:0,0:0:0:0:
258,229,177172,2,0,L|256:215,1,13.125000500679,8|0,1:3|0:0,0:0:0:0:
256,361,177402,6,2,B|256:339|256:339|262:324|262:324|256:309|256:309|248:295|248:295|256:280|256:280|262:265|262:265|256:250|256:250|248:235|248:235|256:221|256:221|262:207|262:207|256:192|256:192|248:177|248:177|256:162|256:162|262:147|262:147|256:133|256:133|248:118|248:118|256:103|256:103|262:88|262:88|256:74|256:74|248:60|248:60|256:45|256:45|256:7,2,380.800002324219,12|0|2,0:1|0:0|2:2,1:2:0:0:
