osu file format v14

[General]
AudioFilename: audio.mp3
AudioLeadIn: 0
PreviewTime: 43760
Countdown: 0
SampleSet: Soft
StackLeniency: 0.7
Mode: 0
LetterboxInBreaks: 0
WidescreenStoryboard: 1

[Editor]
DistanceSpacing: 1.4
BeatDivisor: 4
GridSize: 32
TimelineZoom: 0.8999989

[Metadata]
Title:ELECT
TitleUnicode:ELECT
Artist:96neko
ArtistUnicode:96猫
Creator:Lasse
Version:Normal
Source:
Tags:niki utaite cover O2O
BeatmapID:1515735
BeatmapSetID:716122

[Difficulty]
HPDrainRate:4
CircleSize:3.5
OverallDifficulty:4
ApproachRate:5
SliderMultiplier:1.1
SliderTickRate:1

[Events]
//Background and Video events
0,0,"e.jpg",0,0
//Break Periods
2,70525,76279
//Storyboard Layer 0 (Background)
//Storyboard Layer 1 (Fail)
//Storyboard Layer 2 (Pass)
//Storyboard Layer 3 (Foreground)
//Storyboard Sound Samples

[TimingPoints]
172,461.538461538462,4,2,1,50,1,0
172,-111.111111111111,4,2,1,50,0,0
6922,-111.111111111111,4,2,99,5,0,0
7095,-111.111111111111,4,2,1,50,0,0
7383,-111.111111111111,4,2,99,5,0,0
7556,-111.111111111111,4,2,1,50,0,0
10614,-111.111111111111,4,2,99,5,0,0
10787,-111.111111111111,4,2,1,50,0,0
11075,-111.111111111111,4,2,99,5,0,0
11248,-111.111111111111,4,2,1,50,0,0
12864,-111.111111111111,4,2,1,44,0,0
13325,-111.111111111111,4,2,1,40,0,0
14710,-111.111111111111,4,2,1,20,0,0
14941,-100,4,2,1,60,0,0
22325,-100,4,2,1,50,0,0
22787,-100,4,2,1,60,0,0
28325,-100,4,2,1,55,0,0
29018,-100,4,2,34,50,0,0
29133,-100,4,2,34,49,0,0
29248,-100,4,2,34,48,0,0
29364,-100,4,2,34,47,0,0
29479,-100,4,2,34,46,0,0
29595,-100,4,2,34,45,0,0
29710,-125,4,2,34,44,0,0
36864,-125,4,2,34,46,0,0
37095,-117.647058823529,4,2,34,48,0,0
44479,-133.333333333333,4,2,1,42,0,0
45633,-133.333333333333,4,2,34,46,0,0
45864,-133.333333333333,4,2,1,46,0,0
46095,-133.333333333333,4,2,34,46,0,0
46325,-133.333333333333,4,2,34,34,0,0
46556,-133.333333333333,4,2,34,50,0,0
46787,-133.333333333333,4,2,1,50,0,0
47018,-133.333333333333,4,2,34,52,0,0
47248,-133.333333333333,4,2,1,52,0,0
47479,-133.333333333333,4,2,1,40,0,0
48172,-90.9090909090909,4,2,1,70,0,1
54922,-90.9090909090909,4,2,99,5,0,1
55095,-90.9090909090909,4,2,1,70,0,1
55152,-90.9090909090909,4,2,99,5,0,1
55325,-90.9090909090909,4,2,1,70,0,1
55383,-90.9090909090909,4,2,99,5,0,1
55556,-90.9090909090909,4,2,1,70,0,1
55614,-90.9090909090909,4,2,99,5,0,1
55787,-90.9090909090909,4,2,1,60,0,0
55902,-90.9090909090909,4,2,1,30,0,0
56018,-90.9090909090909,4,2,1,70,0,1
61152,-90.9090909090909,4,2,1,60,0,1
61556,-90.9090909090909,4,2,34,60,0,1
62018,-90.9090909090909,4,2,34,55,0,1
62248,-90.9090909090909,4,2,34,50,0,1
62479,-90.9090909090909,4,2,34,60,0,1
62633,-90.9090909090909,4,2,34,58,0,1
62787,-90.9090909090909,4,2,34,56,0,1
62941,-100,4,2,1,50,0,0
63402,-100,4,2,1,60,0,0
68941,-100,4,2,1,55,0,0
69633,-100,4,2,34,50,0,0
69748,-100,4,2,34,49,0,0
69864,-100,4,2,34,48,0,0
69979,-100,4,2,34,47,0,0
70095,-100,4,2,34,46,0,0
70210,-100,4,2,34,45,0,0
70325,-125,4,2,34,44,0,0
77479,-125,4,2,34,46,0,0
77710,-117.647058823529,4,2,34,48,0,0
85095,-133.333333333333,4,2,1,42,0,0
86248,-133.333333333333,4,2,34,46,0,0
86479,-133.333333333333,4,2,1,46,0,0
86710,-133.333333333333,4,2,34,34,0,0
86941,-133.333333333333,4,2,34,46,0,0
87172,-133.333333333333,4,2,34,50,0,0
87402,-133.333333333333,4,2,1,50,0,0
87634,-133.333333333333,4,2,34,52,0,0
87864,-133.333333333333,4,2,1,52,0,0
88095,-133.333333333333,4,2,1,40,0,0
88787,-90.9090909090909,4,2,1,70,0,1
95537,-90.9090909090909,4,2,99,5,0,1
95710,-90.9090909090909,4,2,1,70,0,1
95768,-90.9090909090909,4,2,99,5,0,1
95941,-90.9090909090909,4,2,1,70,0,1
95998,-90.9090909090909,4,2,99,5,0,1
96172,-90.9090909090909,4,2,1,70,0,1
96229,-90.9090909090909,4,2,99,5,0,1
96402,-90.9090909090909,4,2,1,60,0,0
96518,-90.9090909090909,4,2,1,30,0,0
96633,-90.9090909090909,4,2,1,70,0,1
101768,-90.9090909090909,4,2,1,60,0,1
102172,-90.9090909090909,4,2,34,60,0,1
102633,-90.9090909090909,4,2,34,55,0,1
102864,-90.9090909090909,4,2,34,50,0,1
103095,-90.9090909090909,4,2,34,60,0,1
103248,-90.9090909090909,4,2,34,58,0,1
103402,-90.9090909090909,4,2,34,56,0,1
103556,-100,4,2,34,54,0,0
109325,-100,4,2,34,48,0,0
109672,-100,4,2,34,44,0,0
110018,-100,4,2,34,54,0,0
110941,-100,4,2,1,54,0,0
111287,-100,4,2,99,5,0,0
111402,-100,4,2,1,60,0,0
118095,-100,4,2,34,60,0,0
118325,-111.111111111111,4,2,1,52,0,0
131248,-111.111111111111,4,2,1,56,0,0
131306,-111.111111111111,4,2,1,36,0,0
132172,-111.111111111111,4,2,99,5,0,0
132402,-111.111111111111,4,2,1,40,0,0
133095,-90.9090909090909,4,2,1,70,0,1
139845,-90.9090909090909,4,2,99,5,0,1
140018,-90.9090909090909,4,2,1,70,0,1
140075,-90.9090909090909,4,2,99,5,0,1
140248,-90.9090909090909,4,2,1,70,0,1
140306,-90.9090909090909,4,2,99,5,0,1
140479,-90.9090909090909,4,2,1,70,0,1
140537,-90.9090909090909,4,2,99,5,0,1
140710,-90.9090909090909,4,2,1,60,0,0
140825,-90.9090909090909,4,2,1,50,0,0
140941,-90.9090909090909,4,2,1,70,0,1
146018,-90.9090909090909,4,2,34,60,0,1
146075,-90.9090909090909,4,2,34,40,0,1
146248,-90.9090909090909,4,2,34,60,0,1
146306,-90.9090909090909,4,2,34,40,0,1
146479,-90.9090909090909,4,2,1,72,0,1
146825,-90.9090909090909,4,2,1,74,0,1
147402,-90.9090909090909,4,2,34,60,0,1
147460,-90.9090909090909,4,2,34,40,0,1
147633,-90.9090909090909,4,2,34,60,0,1
147691,-90.9090909090909,4,2,34,40,0,1
147864,-90.9090909090909,4,2,1,60,0,0
148210,-90.9090909090909,4,2,99,5,0,0
148325,-90.9090909090909,4,2,1,72,0,1
154614,-90.9090909090909,4,2,99,5,0,1
154787,-90.9090909090909,4,2,1,72,0,1
154845,-90.9090909090909,4,2,99,5,0,1
155018,-90.9090909090909,4,2,1,72,0,1
155075,-90.9090909090909,4,2,99,5,0,1
155248,-90.9090909090909,4,2,1,72,0,1
155306,-90.9090909090909,4,2,99,5,0,1
155479,-90.9090909090909,4,2,1,60,0,0
155595,-90.9090909090909,4,2,1,50,0,0
155710,-90.9090909090909,4,2,1,72,0,1
160845,-90.9090909090909,4,2,1,60,0,1
161248,-90.9090909090909,4,2,34,60,0,1
161710,-90.9090909090909,4,2,34,55,0,1
161941,-90.9090909090909,4,2,34,50,0,1
162172,-90.9090909090909,4,2,1,60,0,1
162326,-90.9090909090909,4,2,1,58,0,1
162479,-90.9090909090909,4,2,1,56,0,1
162633,-100,4,2,1,52,0,0
163095,-100,4,2,1,62,0,0
169383,-100,4,2,99,5,0,0
169556,-100,4,2,1,62,0,0
169614,-100,4,2,99,5,0,0
169787,-100,4,2,1,62,0,0
169845,-100,4,2,99,5,0,0
170018,-100,4,2,1,62,0,0
170364,-100,4,2,99,5,0,0
170479,-100,4,2,1,62,0,0
173075,-100,4,2,99,5,0,0
173248,-100,4,2,1,62,0,0
173306,-100,4,2,99,5,0,0
173479,-100,4,2,1,62,0,0
173537,-100,4,2,99,5,0,0
173710,-100,4,2,1,62,0,0
176710,-100,4,2,1,58,0,0
176768,-100,4,2,99,5,0,0
176941,-100,4,2,1,54,0,0
176998,-100,4,2,99,5,0,0
177172,-100,4,2,1,50,0,0
177229,-100,4,2,99,5,0,0
177402,-100,4,2,1,46,0,0
177431,-100,4,2,2,26,0,0
177864,-100,4,2,3,24,0,0
178325,-100,4,2,2,22,0,0
178787,-100,4,2,3,20,0,0
179248,-100,4,2,2,18,0,0
179710,-100,4,2,3,16,0,0
180172,-100,4,2,2,14,0,0
180633,-100,4,2,3,12,0,0
181095,-100,4,2,2,10,0,0
181556,-100,4,2,3,9,0,0
182018,-100,4,2,2,8,0,0
182479,-100,4,2,3,7,0,0
182941,-100,4,2,2,6,0,0
183402,-100,4,2,3,5,0,0
184787,-100,4,2,99,5,0,0

[Colours]
Combo1 : 250,180,225
Combo2 : 180,180,240
Combo3 : 250,170,190
Combo4 : 170,200,250

[HitObjects]
84,68,172,6,0,P|132:54|180:62,1,98.9999969787599,12|8,0:1|0:0,0:0:0:0:
243,139,1095,2,0,L|246:244,1,98.9999969787599,8|8,0:3|0:0,0:0:0:0:
270,287,1787,1,0,0:0:0:0:
270,287,2018,2,0,P|333:309|376:291,1,98.9999969787599,8|8,0:3|0:0,0:0:0:0:
429,228,2941,1,8,0:3:0:0:
429,228,3172,2,0,L|435:121,1,98.9999969787599,2|2,0:1|0:1,0:0:0:0:
408,86,3864,6,0,P|355:95|308:78,1,98.9999969787599,8|8,0:3|0:2,0:0:0:0:
224,35,4787,2,0,P|177:20|128:30,1,98.9999969787599,8|8,0:3|0:0,0:0:0:0:
95,66,5479,1,2,0:0:0:0:
95,66,5710,2,0,L|81:175,1,98.9999969787599,8|8,0:3|0:0,0:0:0:0:
168,225,6633,1,8,0:3:0:0:
168,225,6864,2,0,L|274:218,1,98.9999969787599,10|10,0:1|0:1,0:0:0:0:
315,227,7556,6,0,P|337:271|326:335,1,98.9999969787599,12|8,0:1|0:0,0:0:0:0:
246,366,8479,2,0,L|141:361,1,98.9999969787599,8|8,0:3|0:0,0:0:0:0:
103,356,9172,1,0,0:0:0:0:
103,356,9402,2,0,P|87:309|97:261,1,98.9999969787599,8|8,0:3|0:0,0:0:0:0:
185,213,10325,1,8,0:3:0:0:
185,213,10556,2,0,L|293:217,1,98.9999969787599,2|2,0:1|0:1,0:0:0:0:
327,193,11248,6,0,P|340:156|318:84,1,98.9999969787599,8|8,0:3|0:0,0:0:0:0:
247,40,12172,2,0,L|145:30,1,98.9999969787599,10|8,0:3|0:0,0:0:0:0:
99,24,12864,1,2,2:0:0:0:
77,68,13095,1,12,2:1:0:0:
358,161,14479,2,0,L|416:161,1,49.4999984893799,2|8,3:2|0:3,0:0:0:0:
459,180,14941,6,0,B|477:209|477:209|463:302,1,110,12|10,0:1|0:0,0:0:0:0:
430,326,15633,1,2,0:0:0:0:
430,326,15864,2,0,L|307:314,1,110,8|8,0:3|0:0,0:0:0:0:
267,330,16556,1,0,3:0:0:0:
217,354,16787,1,10,0:3:0:0:
112,321,17248,1,10,0:2:0:0:
155,219,17710,2,0,L|162:89,1,110,10|8,0:3|0:0,0:0:0:0:
162,54,18402,1,0,3:0:0:0:
111,32,18633,5,12,0:1:0:0:
31,108,19095,2,0,L|22:176,1,55,10|2,0:0|0:0,0:0:0:0:
18,217,19556,1,8,2:3:0:0:
82,306,20018,2,0,L|143:297,1,55,10|2,0:0|0:0,0:0:0:0:
188,315,20479,1,12,0:1:0:0:
261,232,20941,2,0,L|265:154,1,55,10|2,0:0|0:0,0:0:0:0:
281,125,21402,2,0,P|331:103|384:125,1,110,10|8,0:3|0:0,0:0:0:0:
409,168,22095,1,8,3:3:0:0:
462,158,22325,5,10,0:3:0:0:
501,260,22787,1,12,0:0:0:0:
418,332,23248,2,0,L|295:320,1,110,8|8,0:3|0:0,0:0:0:0:
253,318,23941,1,0,3:0:0:0:
213,355,24172,1,10,0:3:0:0:
114,305,24633,1,10,0:2:0:0:
174,212,25095,2,0,B|185:180|185:180|173:140|181:82,1,110,10|8,0:3|0:0,0:0:0:0:
211,60,25787,1,0,3:3:0:0:
265,70,26018,5,12,0:1:0:0:
368,33,26479,2,0,L|437:30,1,55,10|2,0:0|0:0,0:0:0:0:
476,19,26941,1,12,0:1:0:0:
488,128,27402,1,8,0:0:0:0:
500,237,27864,1,8,0:3:0:0:
400,284,28325,2,0,B|358:288|323:279|323:279|316:251|336:204|336:204|311:160,1,192.5,2|8,0:0|0:0,0:0:0:0:
236,71,29710,6,0,P|189:49|83:75,1,154,10|10,0:3|0:3,0:0:0:0:
24,155,31095,1,10,0:0:0:0:
104,192,31556,2,0,L|261:183,1,154,10|10,0:3|0:3,0:0:0:0:
451,225,33402,6,0,P|466:151|434:83,1,154,10|10,0:3|0:3,0:0:0:0:
342,22,34787,1,10,0:3:0:0:
280,84,35248,1,10,0:3:0:0:
235,231,36056,2,0,P|193:244|142:213,1,88,10|10,0:0|0:2,0:0:0:0:
123,157,36864,1,14,0:0:0:0:
123,157,37095,6,0,L|120:58,1,93.500001783371,14|8,0:3|0:0,0:0:0:0:
204,22,38018,2,0,B|232:30|232:30|307:19,1,93.500001783371,10|8,0:3|0:2,0:0:0:0:
346,29,38710,1,10,0:3:0:0:
346,29,38941,2,0,P|372:73|363:131,1,93.500001783371,10|8,0:3|0:0,0:0:0:0:
320,193,39864,1,10,0:3:0:0:
249,134,40325,1,10,0:0:0:0:
168,181,40787,6,0,L|70:170,1,93.500001783371,14|8,0:3|0:0,0:0:0:0:
7,235,41710,2,0,P|-3:297|15:338,1,93.500001783371,10|8,0:3|0:0,0:0:0:0:
52,351,42402,1,10,0:3:0:0:
52,351,42633,2,0,L|160:342,1,93.500001783371,10|8,0:3|0:0,0:0:0:0:
259,230,43787,2,0,L|262:180,2,46.7500008916855,2|10|10,0:0|0:0|0:0,0:0:0:0:
294,270,44479,6,0,L|361:268,2,61.875002360344,12|8|8,0:1|0:3|0:3,0:0:0:0:
269,317,45402,2,0,L|178:318,1,82.5000031471254,8|8,0:0|0:3,0:0:0:0:
124,240,46325,2,0,L|121:151,2,82.5000031471254,2|8|8,0:0|0:3|0:3,0:0:0:0:
92,283,47479,1,2,1:2:0:0:
44,104,48172,6,0,P|91:69|151:71,1,121.000003692627,12|8,0:1|0:0,0:0:0:0:
241,151,49095,2,0,L|256:278,1,121.000003692627,10|10,0:3|0:0,0:0:0:0:
281,325,49787,1,2,1:2:0:0:
339,342,50018,2,0,B|371:329|371:329|419:339|419:339|459:328,1,121.000003692627,12|10,0:1|0:0,0:0:0:0:
491,280,50710,2,0,L|494:204,1,60.5000018463135,2|8,3:2|0:3,0:0:0:0:
488,158,51172,1,2,0:0:0:0:
434,120,51402,1,10,0:0:0:0:
343,199,51864,6,0,P|284:215|224:189,1,121.000003692627,12|8,0:1|0:0,0:0:0:0:
161,93,52787,2,0,P|105:72|47:88,1,121.000003692627,10|10,0:3|0:2,0:0:0:0:
18,140,53479,1,2,1:2:0:0:
26,199,53710,2,0,B|23:336,1,121.000003692627,12|10,0:1|0:0,0:0:0:0:
72,355,54402,1,2,0:0:0:0:
127,331,54633,1,10,0:3:0:0:
236,382,55095,1,8,1:2:0:0:
320,295,55556,6,0,L|322:224,1,60.5000018463135,8|10,1:3|3:1,0:0:0:0:
323,173,56018,1,12,0:0:0:0:
356,56,56479,2,0,P|396:40|481:66,1,121.000003692627,10|10,0:3|0:2,0:0:0:0:
501,108,57172,1,2,0:3:0:0:
508,168,57402,2,0,L|502:304,1,121.000003692627,12|10,0:1|0:2,0:0:0:0:
472,341,58095,2,0,P|443:347|408:335,1,60.5000018463135,0|8,3:3|2:3,0:0:0:0:
356,320,58556,1,2,0:0:0:0:
308,282,58787,1,8,1:2:0:0:
375,181,59248,6,0,B|383:100|383:100|360:50,1,121.000003692627,12|8,0:1|0:0,0:0:0:0:
315,30,59941,1,2,0:1:0:0:
259,54,60172,2,0,L|137:45,1,121.000003692627,12|8,0:1|0:0,0:0:0:0:
80,62,60864,1,0,1:0:0:0:
38,106,61095,2,0,B|41:241,1,121.000003692627,12|10,1:1|0:0,0:0:0:0:
155,266,62018,2,0,P|209:247|290:270,1,121.000003692627,10|8,0:0|0:0,0:0:0:0:
351,332,62941,5,10,0:3:0:0:
425,251,63402,2,0,L|433:122,2,110,12|8|8,0:0|0:3|0:0,0:0:0:0:
388,292,64556,1,0,3:3:0:0:
351,332,64787,1,10,0:3:0:0:
244,306,65248,1,10,0:0:0:0:
270,199,65710,2,0,L|272:70,1,110,8|8,0:3|0:2,0:0:0:0:
243,41,66402,1,0,3:0:0:0:
190,23,66633,5,12,0:1:0:0:
91,72,67095,2,0,L|84:138,1,55,10|2,0:0|0:0,0:0:0:0:
46,165,67556,1,8,0:3:0:0:
103,258,68018,1,8,0:0:0:0:
161,351,68479,1,12,0:1:0:0:
260,303,68941,2,0,B|297:286|337:298|337:298|319:261|331:223|331:223|359:184,1,192.5,2|8,0:0|0:0,0:0:0:0:
470,134,70325,5,10,0:3:0:0:
115,323,77479,5,12,0:0:0:0:
115,323,77710,6,0,P|102:272|121:229,1,93.500001783371,14|8,0:3|0:0,0:0:0:0:
202,199,78633,2,0,B|305:196,1,93.500001783371,10|8,0:3|0:2,0:0:0:0:
345,187,79325,1,10,0:3:0:0:
345,187,79556,2,0,P|359:143|346:99,1,93.500001783371,10|8,0:3|0:0,0:0:0:0:
281,31,80479,1,10,0:3:0:0:
204,84,80941,1,10,0:0:0:0:
125,32,81402,6,0,P|78:21|30:39,1,93.500001783371,14|8,0:3|0:0,0:0:0:0:
1,121,82325,2,0,L|9:224,1,93.500001783371,10|8,0:3|0:0,0:0:0:0:
26,263,83018,1,10,0:3:0:0:
26,263,83248,2,0,P|62:248|128:267,1,93.500001783371,10|8,0:3|0:0,0:0:0:0:
232,351,84402,2,0,L|281:353,2,46.7500008916855,2|10|10,0:0|0:0|0:0,0:0:0:0:
189,317,85095,6,0,L|122:310,2,61.875002360344,12|8|8,0:1|0:3|0:3,0:0:0:0:
227,279,86018,2,0,P|239:245|233:187,1,82.5000031471254,8|8,0:0|0:3,0:0:0:0:
167,128,86941,2,0,L|73:120,2,82.5000031471254,2|8|8,0:0|0:3|0:3,0:0:0:0:
210,104,88095,1,2,1:2:0:0:
324,244,88787,6,0,B|372:281|372:281|424:247,1,121.000003692627,12|8,0:1|0:0,0:0:0:0:
486,145,89710,2,0,B|488:67|488:67|450:31,1,121.000003692627,10|10,0:3|0:0,0:0:0:0:
399,57,90402,1,2,1:2:0:0:
343,33,90633,2,0,B|222:25,1,121.000003692627,12|10,0:1|0:0,0:0:0:0:
166,48,91325,2,0,B|151:89|151:89|156:125,1,60.5000018463135,2|8,3:2|0:3,0:0:0:0:
178,161,91787,1,2,0:0:0:0:
219,206,92018,1,10,0:0:0:0:
336,175,92479,6,0,B|413:163|413:163|456:175,1,121.000003692627,12|8,0:1|0:0,0:0:0:0:
468,294,93402,2,0,B|391:306|391:306|349:294,1,121.000003692627,10|10,0:3|0:2,0:0:0:0:
293,271,94095,1,2,1:2:0:0:
240,241,94325,2,0,B|235:103,1,121.000003692627,12|10,0:1|0:0,0:0:0:0:
229,59,95018,1,2,0:0:0:0:
177,26,95248,1,10,0:3:0:0:
62,66,95710,1,8,1:2:0:0:
103,179,96172,6,0,L|105:250,1,60.5000018463135,8|10,1:3|3:1,0:0:0:0:
74,291,96633,1,12,0:0:0:0:
176,354,97095,2,0,L|302:345,1,121.000003692627,10|10,0:3|0:2,0:0:0:0:
353,367,97787,1,2,0:3:0:0:
402,332,98018,2,0,L|408:196,1,121.000003692627,12|10,0:1|0:2,0:0:0:0:
448,166,98710,2,0,L|439:103,1,60.5000018463135,0|8,3:3|2:3,0:0:0:0:
418,48,99172,1,2,0:0:0:0:
359,34,99402,1,8,1:2:0:0:
277,127,99864,6,0,B|270:249,1,121.000003692627,12|8,0:1|0:0,0:0:0:0:
252,306,100556,1,2,0:1:0:0:
199,336,100787,2,0,B|159:330|159:330|128:345|128:345|75:339,1,121.000003692627,12|8,0:1|0:0,0:0:0:0:
30,307,101479,1,0,1:0:0:0:
45,248,101710,2,0,B|41:112,1,121.000003692627,12|10,1:1|0:0,0:0:0:0:
121,36,102633,2,0,B|161:30|161:30|192:45|192:45|245:39,1,121.000003692627,10|8,0:0|0:0,0:0:0:0:
344,66,103556,5,14,0:3:0:0:
99,319,105402,1,10,0:3:0:0:
468,261,107248,5,10,0:3:0:0:
136,52,109095,1,14,0:3:0:0:
50,254,110018,1,10,0:0:0:0:
149,301,110479,2,0,L|213:300,1,55,10|2,0:0|0:0,0:0:0:0:
253,275,110941,6,0,P|305:261|374:284,2,110,10|12|8,0:3|0:0|0:3,0:0:0:0:
168,345,112325,1,10,0:0:0:0:
93,263,112787,2,0,L|83:146,1,110,10|8,0:3|0:2,0:0:0:0:
142,60,113710,2,0,P|191:38|244:51,1,110,8|8,0:3|1:2,0:0:0:0:
289,93,114402,1,2,1:2:0:0:
289,93,114633,6,0,L|288:208,1,110,8|8,0:3|3:2,0:0:0:0:
313,258,115325,1,0,3:0:0:0:
313,258,115556,2,0,P|369:270|418:245,1,110,8|8,3:3|3:2,0:0:0:0:
470,152,116479,1,12,3:3:0:0:
402,65,116941,2,0,B|389:64|389:64|375:71|375:71|353:56|353:56|326:65|326:65|303:52|303:52|277:59|277:59|253:44|253:44|225:53|225:53|210:42|210:42|183:38,1,220,10|10,1:2|1:2,0:0:0:0:
108,69,118325,6,0,P|80:111|90:167,1,98.9999969787599,14|8,0:3|0:0,0:0:0:0:
176,195,119248,2,0,B|277:197,1,98.9999969787599,10|8,0:3|0:0,0:0:0:0:
325,219,119941,1,2,0:0:0:0:
325,219,120172,2,0,B|426:221,1,98.9999969787599,10|8,0:3|0:2,0:0:0:0:
503,279,121095,1,10,0:3:0:0:
444,359,121556,1,10,0:0:0:0:
364,300,122018,6,0,L|256:290,1,98.9999969787599,10|8,0:3|0:0,0:0:0:0:
175,332,122941,2,0,L|64:329,1,98.9999969787599,10|8,0:3|0:0,0:0:0:0:
38,306,123633,1,2,0:0:0:0:
38,306,123864,2,0,P|24:265|48:193,1,98.9999969787599,10|8,0:3|0:0,0:0:0:0:
113,153,124787,1,10,0:3:0:0:
184,221,125248,1,10,0:0:0:0:
275,182,125710,6,0,L|380:175,1,98.9999969787599,12|8,0:3|0:0,0:0:0:0:
457,122,126633,2,0,B|476:80|476:80|442:35,1,98.9999969787599,10|8,0:3|0:0,0:0:0:0:
398,41,127325,1,2,0:0:0:0:
398,41,127556,2,0,B|297:34,1,98.9999969787599,10|8,0:3|0:0,0:0:0:0:
215,86,128479,1,10,0:3:0:0:
127,39,128941,1,10,0:0:0:0:
50,102,129402,6,0,L|39:219,1,98.9999969787599,10|8,0:3|0:0,0:0:0:0:
87,288,130325,2,0,P|125:300|198:285,1,98.9999969787599,10|8,0:3|0:0,0:0:0:0:
224,264,131018,1,10,0:3:0:0:
224,264,131248,2,0,B|275:248|331:286|331:286|389:293|424:251,1,197.99999395752,14|0,0:3|0:0,0:0:0:0:
502,69,133095,6,0,B|460:88|427:78|427:78|410:61|375:50,1,121.000003692627,12|8,0:1|0:0,0:0:0:0:
305,141,134018,2,0,L|293:270,1,121.000003692627,10|10,0:3|0:0,0:0:0:0:
281,320,134710,1,2,1:2:0:0:
225,344,134941,2,0,B|190:337|190:337|144:348|144:348|100:341,1,121.000003692627,12|10,0:1|0:0,0:0:0:0:
59,307,135633,2,0,L|53:231,1,60.5000018463135,2|8,3:2|0:3,0:0:0:0:
39,187,136095,1,2,0:0:0:0:
17,131,136325,1,10,0:0:0:0:
72,23,136787,6,0,B|107:18|107:18|152:35|152:35|196:28,1,121.000003692627,12|8,0:1|0:0,0:0:0:0:
264,123,137710,2,0,L|274:249,1,121.000003692627,10|10,0:3|0:2,0:0:0:0:
287,302,138402,1,2,1:2:0:0:
338,334,138633,2,0,B|373:329|373:329|418:346|418:346|462:339,1,121.000003692627,12|10,0:1|0:0,0:0:0:0:
498,297,139325,1,2,0:0:0:0:
477,240,139556,1,10,0:3:0:0:
494,120,140018,1,8,1:2:0:0:
407,35,140479,6,0,L|328:29,1,60.5000018463135,8|10,1:3|3:1,0:0:0:0:
297,66,140941,1,12,0:0:0:0:
176,54,141402,2,0,L|51:45,1,121.000003692627,10|10,0:3|0:2,0:0:0:0:
15,91,142095,1,2,0:3:0:0:
15,91,142325,2,0,L|27:230,1,121.000003692627,12|10,0:1|0:2,0:0:0:0:
60,261,143018,2,0,L|56:324,1,60.5000018463135,0|8,3:3|2:3,0:0:0:0:
108,351,143479,1,2,0:0:0:0:
162,377,143710,1,8,1:2:0:0:
259,308,144172,6,0,B|273:177,1,121.000003692627,12|8,0:1|0:0,0:0:0:0:
315,145,144864,1,2,0:1:0:0:
370,168,145095,2,0,B|408:180|408:180|492:159,1,121.000003692627,12|8,0:1|0:0,0:0:0:0:
512,104,145787,1,0,1:0:0:0:
488,48,146018,2,0,B|409:28|409:28|371:40,1,121.000003692627,14|10,0:0|0:3,0:0:0:0:
260,89,146941,2,0,L|181:79,1,60.5000018463135,10|10,0:3|0:0,0:0:0:0:
155,41,147402,1,10,0:0:0:0:
56,111,147864,6,0,B|50:247,1,121.000003692627,6|12,0:3|0:0,0:0:0:0:
148,308,148787,2,0,B|174:303|174:303|232:315|232:315|266:306,1,121.000003692627,10|10,0:3|0:0,0:0:0:0:
328,319,149479,1,2,1:2:0:0:
381,291,149710,2,0,B|390:165,1,121.000003692627,12|10,0:1|0:0,0:0:0:0:
419,117,150402,2,0,B|409:58,1,60.5000018463135,2|8,3:2|0:3,0:0:0:0:
358,22,150864,1,2,0:0:0:0:
297,20,151095,1,10,0:0:0:0:
219,115,151556,6,0,B|211:239,1,121.000003692627,12|8,0:1|0:0,0:0:0:0:
140,333,152479,2,0,B|66:346|66:346|24:319,1,121.000003692627,10|10,0:3|0:2,0:0:0:0:
6,264,153172,1,2,1:2:0:0:
36,211,153402,2,0,B|43:90,1,121.000003692627,12|10,0:1|0:0,0:0:0:0:
75,38,154095,1,2,0:0:0:0:
135,40,154325,1,10,0:3:0:0:
202,140,154787,1,8,1:2:0:0:
306,78,155248,6,0,L|382:75,1,60.5000018463135,8|10,1:3|3:1,0:0:0:0:
414,39,155710,1,12,0:0:0:0:
494,129,156172,2,0,L|479:266,1,121.000003692627,10|10,0:3|0:2,0:0:0:0:
467,308,156864,1,2,0:3:0:0:
417,342,157095,2,0,B|383:345|383:345|333:323|333:323|288:328,1,121.000003692627,12|10,0:1|0:2,0:0:0:0:
244,348,157787,2,0,L|178:341,1,60.5000018463135,0|8,3:3|2:3,0:0:0:0:
123,341,158248,1,2,0:0:0:0:
65,368,158479,1,8,1:2:0:0:
1,265,158941,6,0,B|8:145,1,121.000003692627,12|8,0:1|0:0,0:0:0:0:
46,97,159633,1,2,0:1:0:0:
106,102,159864,2,0,B|138:98|138:98|188:120|188:120|222:117,1,121.000003692627,12|8,0:1|0:0,0:0:0:0:
286,131,160556,1,0,1:0:0:0:
315,183,160787,2,0,B|311:320,2,121.000003692627,12|2|2,1:1|0:0|0:0,0:0:0:0:
424,234,162172,1,2,1:2:0:0:
502,151,162633,5,10,0:3:0:0:
429,68,163095,2,0,L|313:54,2,110,12|8|8,0:0|0:3|0:0,0:0:0:0:
467,108,164248,1,0,3:3:0:0:
502,151,164479,1,10,0:3:0:0:
472,256,164941,1,10,0:0:0:0:
365,227,165402,2,0,L|250:219,1,110,8|8,0:3|0:0,0:0:0:0:
205,195,166095,1,0,3:0:0:0:
166,233,166325,5,12,0:1:0:0:
61,199,166787,2,0,L|52:131,1,55,10|2,0:0|0:0,0:0:0:0:
26,96,167248,1,8,0:3:0:0:
117,34,167710,2,0,L|183:28,1,55,8|0,0:0|0:0,0:0:0:0:
217,59,168172,1,12,0:1:0:0:
320,21,168633,2,0,L|395:26,1,55,10|0,0:2|3:0,0:0:0:0:
423,50,169095,2,0,P|449:98|429:166,1,110,10|10,0:3|1:2,0:0:0:0:
399,188,169787,1,10,1:3:0:0:
406,242,170018,5,8,3:3:0:0:
359,341,170479,1,12,0:0:0:0:
256,301,170941,2,0,L|133:289,1,110,8|8,0:3|0:0,0:0:0:0:
96,265,171633,1,0,3:0:0:0:
46,289,171864,1,10,0:3:0:0:
1,188,172325,1,10,0:0:0:0:
96,132,172787,2,0,B|210:121,1,110,10|10,0:3|1:2,0:0:0:0:
254,145,173479,1,2,1:2:0:0:
289,102,173710,5,12,0:3:0:0:
354,190,174172,2,0,L|351:250,1,55,10|2,0:0|0:0,0:0:0:0:
361,299,174633,1,8,0:3:0:0:
254,325,175095,1,8,0:0:0:0:
147,351,175556,1,8,0:3:0:0:
62,280,176018,2,0,L|45:148,1,110,10|10,0:2|0:3,0:0:0:0:
85,68,176941,1,8,1:2:0:0:
189,102,177402,5,12,0:1:0:0:
256,192,177518,12,0,181095,0:0:0:0:
