osu file format v14

[General]
AudioFilename: audio.mp3
AudioLeadIn: 0
PreviewTime: 43760
Countdown: 0
SampleSet: Soft
StackLeniency: 0.7
Mode: 0
LetterboxInBreaks: 0
WidescreenStoryboard: 1

[Editor]
DistanceSpacing: 1.4
BeatDivisor: 4
GridSize: 32
TimelineZoom: 1.099999

[Metadata]
Title:ELECT
TitleUnicode:ELECT
Artist:96neko
ArtistUnicode:96猫
Creator:Lasse
Version:Hard
Source:
Tags:niki utaite cover O2O
BeatmapID:1516536
BeatmapSetID:716122

[Difficulty]
HPDrainRate:5
CircleSize:4
OverallDifficulty:6
ApproachRate:7
SliderMultiplier:1.3
SliderTickRate:1

[Events]
//Background and Video events
0,0,"e.jpg",0,0
//Break Periods
2,70525,76579
//Storyboard Layer 0 (Background)
//Storyboard Layer 1 (Fail)
//Storyboard Layer 2 (Pass)
//Storyboard Layer 3 (Foreground)
//Storyboard Sound Samples

[TimingPoints]
172,461.538461538462,4,2,1,50,1,0
172,-111.111111111111,4,2,1,50,0,0
6922,-111.111111111111,4,2,99,5,0,0
7095,-111.111111111111,4,2,1,50,0,0
7383,-111.111111111111,4,2,99,5,0,0
7556,-111.111111111111,4,2,1,50,0,0
10614,-111.111111111111,4,2,99,5,0,0
10787,-111.111111111111,4,2,1,50,0,0
11075,-111.111111111111,4,2,99,5,0,0
11248,-111.111111111111,4,2,1,50,0,0
12864,-111.111111111111,4,2,1,44,0,0
13325,-125,4,2,1,40,0,0
14710,-125,4,2,1,20,0,0
14941,-100,4,2,1,60,0,0
22325,-100,4,2,1,50,0,0
22787,-100,4,2,1,60,0,0
28325,-100,4,2,1,55,0,0
29018,-100,4,2,34,50,0,0
29133,-100,4,2,34,49,0,0
29248,-100,4,2,34,48,0,0
29364,-100,4,2,34,47,0,0
29479,-100,4,2,34,46,0,0
29595,-100,4,2,34,45,0,0
29710,-125,4,2,34,44,0,0
36864,-125,4,2,34,46,0,0
37095,-117.647058823529,4,2,34,48,0,0
44479,-133.333333333333,4,2,1,42,0,0
45633,-133.333333333333,4,2,34,46,0,0
45864,-133.333333333333,4,2,1,46,0,0
46095,-133.333333333333,4,2,34,46,0,0
46325,-133.333333333333,4,2,34,34,0,0
46556,-133.333333333333,4,2,34,50,0,0
46787,-133.333333333333,4,2,1,50,0,0
47018,-133.333333333333,4,2,34,52,0,0
47248,-133.333333333333,4,2,1,52,0,0
47479,-153.846153846153,4,2,1,40,0,0
48172,-90.9090909090909,4,2,1,70,0,1
54922,-90.9090909090909,4,2,99,5,0,1
55095,-90.9090909090909,4,2,1,70,0,1
55152,-90.9090909090909,4,2,99,5,0,1
55325,-90.9090909090909,4,2,1,70,0,1
55383,-90.9090909090909,4,2,99,5,0,1
55556,-90.9090909090909,4,2,1,70,0,1
55614,-90.9090909090909,4,2,99,5,0,1
55787,-90.9090909090909,4,2,1,60,0,0
55902,-90.9090909090909,4,2,1,30,0,0
56018,-90.9090909090909,4,2,1,70,0,1
61152,-90.9090909090909,4,2,1,60,0,1
61556,-90.9090909090909,4,2,34,60,0,1
62018,-90.9090909090909,4,2,34,55,0,1
62248,-90.9090909090909,4,2,34,50,0,1
62479,-90.9090909090909,4,2,34,60,0,1
62633,-90.9090909090909,4,2,34,58,0,1
62787,-90.9090909090909,4,2,34,56,0,1
62941,-142.857142857143,4,2,1,50,0,0
63402,-100,4,2,1,60,0,0
68941,-100,4,2,1,55,0,0
69633,-100,4,2,34,50,0,0
69748,-100,4,2,34,49,0,0
69864,-100,4,2,34,48,0,0
69979,-100,4,2,34,47,0,0
70095,-100,4,2,34,46,0,0
70210,-100,4,2,34,45,0,0
70325,-125,4,2,34,44,0,0
77479,-125,4,2,34,46,0,0
77710,-117.647058823529,4,2,34,48,0,0
85095,-133.333333333333,4,2,1,42,0,0
86248,-133.333333333333,4,2,34,46,0,0
86479,-133.333333333333,4,2,1,46,0,0
86710,-133.333333333333,4,2,34,34,0,0
86941,-133.333333333333,4,2,34,46,0,0
87172,-133.333333333333,4,2,34,50,0,0
87402,-133.333333333333,4,2,1,50,0,0
87634,-133.333333333333,4,2,34,52,0,0
87864,-133.333333333333,4,2,1,52,0,0
88095,-153.846153846153,4,2,1,40,0,0
88787,-90.9090909090909,4,2,1,70,0,1
95537,-90.9090909090909,4,2,99,5,0,1
95710,-90.9090909090909,4,2,1,70,0,1
95768,-90.9090909090909,4,2,99,5,0,1
95941,-90.9090909090909,4,2,1,70,0,1
95998,-90.9090909090909,4,2,99,5,0,1
96172,-90.9090909090909,4,2,1,70,0,1
96229,-90.9090909090909,4,2,99,5,0,1
96402,-90.9090909090909,4,2,1,60,0,0
96518,-90.9090909090909,4,2,1,30,0,0
96633,-90.9090909090909,4,2,1,70,0,1
101768,-90.9090909090909,4,2,1,60,0,1
102172,-90.9090909090909,4,2,34,60,0,1
102633,-90.9090909090909,4,2,34,55,0,1
102864,-90.9090909090909,4,2,34,50,0,1
103095,-90.9090909090909,4,2,34,60,0,1
103248,-90.9090909090909,4,2,34,58,0,1
103402,-90.9090909090909,4,2,34,56,0,1
103556,-100,4,2,34,54,0,0
109325,-100,4,2,34,48,0,0
109672,-100,4,2,34,44,0,0
110018,-100,4,2,34,54,0,0
110941,-100,4,2,1,54,0,0
111287,-100,4,2,99,5,0,0
111402,-100,4,2,1,60,0,0
118095,-100,4,2,34,60,0,0
118325,-111.111111111111,4,2,1,52,0,0
131248,-111.111111111111,4,2,1,56,0,0
131306,-111.111111111111,4,2,1,36,0,0
132172,-111.111111111111,4,2,99,5,0,0
132402,-153.846153846154,4,2,1,40,0,0
133095,-90.9090909090909,4,2,1,70,0,1
139845,-90.9090909090909,4,2,99,5,0,1
140018,-90.9090909090909,4,2,1,70,0,1
140075,-90.9090909090909,4,2,99,5,0,1
140248,-90.9090909090909,4,2,1,70,0,1
140306,-90.9090909090909,4,2,99,5,0,1
140479,-90.9090909090909,4,2,1,70,0,1
140537,-90.9090909090909,4,2,99,5,0,1
140710,-90.9090909090909,4,2,1,60,0,0
140825,-90.9090909090909,4,2,1,50,0,0
140941,-90.9090909090909,4,2,1,70,0,1
146018,-90.9090909090909,4,2,34,60,0,1
146075,-90.9090909090909,4,2,34,40,0,1
146248,-90.9090909090909,4,2,34,60,0,1
146306,-90.9090909090909,4,2,34,40,0,1
146479,-90.9090909090909,4,2,1,72,0,1
146825,-90.9090909090909,4,2,1,74,0,1
147402,-90.9090909090909,4,2,34,60,0,1
147460,-90.9090909090909,4,2,34,40,0,1
147633,-90.9090909090909,4,2,34,60,0,1
147691,-90.9090909090909,4,2,34,40,0,1
147864,-90.9090909090909,4,2,1,60,0,0
148210,-90.9090909090909,4,2,99,5,0,0
148325,-90.9090909090909,4,2,1,72,0,1
154614,-90.9090909090909,4,2,99,5,0,1
154787,-90.9090909090909,4,2,1,72,0,1
154845,-90.9090909090909,4,2,99,5,0,1
155018,-90.9090909090909,4,2,1,72,0,1
155075,-90.9090909090909,4,2,99,5,0,1
155248,-90.9090909090909,4,2,1,72,0,1
155306,-90.9090909090909,4,2,99,5,0,1
155479,-90.9090909090909,4,2,1,60,0,0
155595,-90.9090909090909,4,2,1,50,0,0
155710,-90.9090909090909,4,2,1,72,0,1
160845,-90.9090909090909,4,2,1,60,0,1
161248,-90.9090909090909,4,2,34,60,0,1
161710,-90.9090909090909,4,2,34,55,0,1
161941,-90.9090909090909,4,2,34,50,0,1
162172,-90.9090909090909,4,2,1,60,0,1
162326,-90.9090909090909,4,2,1,58,0,1
162479,-90.9090909090909,4,2,1,56,0,1
162633,-142.857142857143,4,2,1,52,0,0
163095,-100,4,2,1,62,0,0
169383,-100,4,2,99,5,0,0
169556,-100,4,2,1,62,0,0
169614,-100,4,2,99,5,0,0
169787,-100,4,2,1,62,0,0
169845,-100,4,2,99,5,0,0
170018,-142.857142857143,4,2,1,62,0,0
170364,-142.857142857143,4,2,99,5,0,0
170479,-100,4,2,1,62,0,0
173075,-100,4,2,99,5,0,0
173248,-100,4,2,1,62,0,0
173306,-100,4,2,99,5,0,0
173479,-100,4,2,1,62,0,0
173537,-100,4,2,99,5,0,0
173710,-100,4,2,1,62,0,0
176710,-100,4,2,1,58,0,0
176768,-100,4,2,99,5,0,0
176941,-100,4,2,1,54,0,0
176998,-100,4,2,99,5,0,0
177172,-100,4,2,1,50,0,0
177229,-100,4,2,99,5,0,0
177402,-200,4,2,1,46,0,0
177431,-200,4,2,2,26,0,0
177864,-200,4,2,3,24,0,0
178325,-200,4,2,2,22,0,0
178787,-200,4,2,3,20,0,0
179248,-200,4,2,2,18,0,0
179710,-200,4,2,3,16,0,0
180172,-200,4,2,2,14,0,0
180633,-200,4,2,3,12,0,0
181095,-200,4,2,2,10,0,0
181556,-200,4,2,3,9,0,0
182018,-200,4,2,2,8,0,0
182479,-200,4,2,3,7,0,0
182941,-200,4,2,2,6,0,0
183402,-200,4,2,3,5,0,0
184787,-200,4,2,99,5,0,0

[Colours]
Combo1 : 250,180,225
Combo2 : 180,180,240
Combo3 : 250,170,190
Combo4 : 170,200,250

[HitObjects]
36,291,172,6,0,L|29:161,1,116.999996429443,12|8,0:1|0:0,0:0:0:0:
70,103,864,1,0,0:0:0:0:
144,136,1095,2,0,P|205:145|268:105,1,116.999996429443,8|8,0:3|0:0,0:0:0:0:
316,69,1787,2,0,L|392:50,2,58.4999982147217,0|8|0,0:0|0:3|0:0,0:0:0:0:
238,40,2479,1,8,0:0:0:0:
253,121,2710,2,0,L|243:195,1,58.4999982147217,2|8,0:0|0:3,0:0:0:0:
160,198,3172,6,0,P|181:230|189:260,1,58.4999982147217,2|8,0:1|0:2,0:0:0:0:
271,270,3633,2,0,P|290:248|314:232,1,58.4999982147217,2|8,0:1|0:3,0:0:0:0:
412,220,4095,6,0,L|476:228,2,58.4999982147217,2|8|0,0:0|0:2|0:0,0:0:0:0:
354,162,4787,1,8,0:3:0:0:
296,104,5018,2,0,L|232:96,1,58.4999982147217,2|8,0:0|0:0,0:0:0:0:
179,38,5479,2,0,L|115:30,1,58.4999982147217,2|8,0:0|0:3,0:0:0:0:
56,81,5941,5,2,0:0:0:0:
55,92,6056,1,2,0:0:0:0:
54,103,6172,1,8,0:0:0:0:
102,168,6402,2,0,L|132:169,2,29.2499991073609,2|2|8,0:0|0:0|0:3,0:0:0:0:
33,214,6864,2,0,P|25:238|26:284,1,58.4999982147217,10|8,0:1|0:0,0:0:0:0:
76,333,7325,1,10,0:1:0:0:
169,272,7556,6,0,P|212:258|292:269,1,116.999996429443,12|8,0:1|0:0,0:0:0:0:
343,318,8248,1,0,0:0:0:0:
401,260,8479,2,0,L|408:126,1,116.999996429443,8|8,0:3|0:0,0:0:0:0:
450,73,9172,2,0,L|528:62,2,58.4999982147217,0|8|0,0:0|0:3|0:0,0:0:0:0:
375,37,9864,1,8,0:0:0:0:
302,75,10095,2,0,L|240:67,1,58.4999982147217,2|8,0:0|0:3,0:0:0:0:
156,49,10556,6,0,P|168:85|167:116,1,58.4999982147217,2|8,0:1|0:0,0:0:0:0:
238,149,11018,2,0,P|227:176|225:205,1,58.4999982147217,2|8,0:1|0:3,0:0:0:0:
278,284,11479,6,0,L|342:292,2,58.4999982147217,2|8|0,0:0|0:0|0:0,0:0:0:0:
196,288,12172,1,10,0:3:0:0:
127,333,12402,2,0,L|63:325,1,58.4999982147217,0|8,0:0|0:0,0:0:0:0:
21,251,12864,5,2,2:0:0:0:
20,240,12979,1,2,2:0:0:0:
19,229,13095,1,12,2:1:0:0:
58,157,13325,6,0,P|95:141|133:215,1,130,0|0,1:2|1:0,0:0:0:0:
183,291,14133,1,0,1:2:0:0:
183,291,14248,1,0,1:0:0:0:
183,291,14364,1,0,1:0:0:0:
183,291,14479,2,0,P|209:297|248:284,1,52,2|8,3:2|0:3,0:0:0:0:
323,238,14941,6,0,B|325:173,1,65,12|0,0:1|0:0,0:0:0:0:
283,92,15402,1,10,0:0:0:0:
203,132,15633,1,2,0:0:0:0:
203,132,15748,2,0,B|139:138|139:138|98:108,1,97.5,2|2,0:0|0:0,0:0:0:0:
56,46,16325,1,8,0:0:0:0:
7,142,16556,5,0,3:0:0:0:
6,155,16672,1,0,3:0:0:0:
5,167,16787,2,0,B|9:203|9:203|27:222|27:222|23:267,1,97.5,10|0,0:3|0:0,0:0:0:0:
28,302,17248,2,0,L|104:296,1,65,10|2,0:2|0:0,0:0:0:0:
175,347,17710,1,10,0:3:0:0:
175,347,17825,1,2,0:0:0:0:
237,280,18056,2,0,L|240:227,1,32.5,2|8,0:0|0:0,0:0:0:0:
326,188,18402,5,0,3:0:0:0:
339,187,18518,1,0,3:0:0:0:
351,186,18633,2,0,B|378:168|378:168|383:95,1,97.5,12|0,0:1|0:0,0:0:0:0:
428,102,19095,2,0,B|418:71|418:71|390:54,1,65,10|2,0:0|0:0,0:0:0:0:
275,45,19556,6,0,B|171:33,1,97.5,8|0,2:3|0:0,0:0:0:0:
179,79,20018,2,0,B|148:69|148:69|131:41,1,65,10|2,0:0|0:0,0:0:0:0:
24,83,20479,6,0,B|51:101|51:101|56:174,1,97.5,12|0,0:1|0:0,0:0:0:0:
101,167,20941,2,0,B|91:198|91:198|63:215,1,65,10|2,0:0|0:0,0:0:0:0:
4,307,21402,5,10,0:3:0:0:
4,307,21518,1,2,0:0:0:0:
80,356,21748,2,0,L|115:349,1,32.5,2|8,0:0|0:0,0:0:0:0:
190,274,22095,5,8,3:3:0:0:
189,261,22210,1,0,3:0:0:0:
188,249,22325,2,0,B|186:226|186:226|194:214|194:214|193:184,1,65,10|0,0:3|0:0,0:0:0:0:
251,98,22787,1,12,0:0:0:0:
327,159,23018,1,0,0:0:0:0:
327,159,23133,2,0,B|359:152|359:152|390:163|390:163|434:154,1,97.5,2|2,0:0|0:0,0:0:0:0:
499,203,23710,1,8,0:0:0:0:
430,287,23941,5,0,3:0:0:0:
417,286,24056,1,0,3:0:0:0:
405,285,24172,2,0,B|372:283|372:283|343:298|343:298|298:296,1,97.5,10|0,0:3|0:0,0:0:0:0:
277,326,24633,2,0,L|199:314,1,65,10|2,0:2|0:0,0:0:0:0:
134,360,25095,1,10,0:3:0:0:
134,360,25210,1,2,0:0:0:0:
62,302,25441,2,0,L|60:251,1,32.5,2|8,0:0|0:0,0:0:0:0:
124,182,25787,5,0,3:3:0:0:
137,181,25902,1,0,3:3:0:0:
149,180,26018,2,0,B|159:151|159:151|154:124|154:124|168:73,1,97.5,12|0,0:1|0:0,0:0:0:0:
120,73,26479,2,0,B|137:46|137:46|168:37,1,65,10|2,0:0|0:0,0:0:0:0:
278,56,26941,6,0,B|382:44,1,97.5,12|0,0:1|0:0,0:0:0:0:
375,90,27402,2,0,B|406:80|406:80|423:52,1,65,8|0,0:0|0:0,0:0:0:0:
498,135,27864,6,0,B|488:164|488:164|493:191|493:191|479:242,1,97.5,8|0,0:3|0:0,0:0:0:0:
466,271,28325,1,2,0:0:0:0:
391,321,28556,1,2,0:0:0:0:
391,321,28672,2,0,L|323:313,1,65,2|2,0:0|0:0,0:0:0:0:
243,350,29133,1,8,0:0:0:0:
171,293,29364,1,8,0:1:0:0:
167,289,29479,1,8,0:1:0:0:
163,285,29595,1,8,0:1:0:0:
159,281,29710,6,0,B|121:255|145:186|145:186|188:193|188:193|223:174,1,182,10|10,0:3|0:3,0:0:0:0:
292,138,30748,2,0,P|336:131|385:126,1,78,8|10,0:0|0:0,0:0:0:0:
452,121,31325,1,8,0:3:0:0:
480,42,31556,2,0,B|458:96|485:143|485:143|502:182|477:219,1,182,10|10,0:3|0:3,0:0:0:0:
266,348,33056,1,8,0:3:0:0:
262,344,33172,1,8,0:3:0:0:
258,340,33287,1,8,0:3:0:0:
254,336,33402,6,0,B|205:319|154:343|154:343|110:324|119:272,1,182,10|10,0:3|0:3,0:0:0:0:
188,234,34441,2,0,P|217:193|173:135,1,130,8|8,0:0|0:0,0:0:0:0:
92,141,35248,2,0,B|57:143|57:143|22:129|21:83,1,104,10|10,0:3|0:2,0:0:0:0:
130,27,36056,2,0,B|146:22|146:22|157:27|157:27|173:18|173:18|194:25|194:25|212:15|212:15|228:20|228:20|244:17,1,104,10|10,0:0|0:2,0:0:0:0:
345,54,36864,1,14,0:0:0:0:
269,88,37095,6,0,P|251:129|272:182,2,82.8750015807152,14|10|10,0:3|0:3|0:3,0:0:0:0:
345,54,38018,2,0,P|376:58|413:48,1,55.2500010538101,10|0,0:3|0:0,0:0:0:0:
437,37,38364,2,0,L|486:41,1,27.6250005269051,10|8,0:3|0:2,0:0:0:0:
506,110,38710,1,10,0:3:0:0:
449,170,38941,2,0,P|433:220|445:257,2,82.8750015807152,10|10|10,0:3|0:3|0:3,0:0:0:0:
506,110,39864,1,10,0:3:0:0:
367,19,40325,1,10,0:0:0:0:
211,78,40787,6,0,L|121:71,2,82.8750015807152,14|10|10,0:3|0:3|0:3,0:0:0:0:
278,126,41710,2,0,P|285:153|278:199,1,55.2500010538101,10|0,0:3|0:0,0:0:0:0:
265,217,42056,2,0,L|262:255,1,27.6250005269051,10|8,0:3|0:0,0:0:0:0:
214,311,42402,1,10,0:3:0:0:
139,274,42633,2,0,L|49:267,2,82.8750015807152,10|10|10,0:3|0:3|0:3,0:0:0:0:
284,354,43787,2,0,L|345:359,2,55.2500010538101,2|10|10,0:0|0:0|0:0,0:0:0:0:
214,311,44479,6,0,B|220:284|220:284|216:266|216:266|224:228,2,73.1250027894975,12|8|8,0:1|0:3|0:3,0:0:0:0:
150,356,45402,1,8,0:0:0:0:
84,313,45633,2,0,L|26:306,2,48.750001859665,2|8|2,0:0|0:3|0:0,0:0:0:0:
150,356,46325,1,2,0:0:0:0:
214,311,46556,2,0,L|218:275,2,24.3750009298325,8|8|8,0:0|0:0|0:3,0:0:0:0:
292,311,47018,2,0,L|308:278,2,24.3750009298325,8|8|8,0:0|0:0|0:3,0:0:0:0:
358,352,47479,6,0,B|384:357|384:357|413:351,2,42.2499980659486,2|8|8,1:2|1:2|1:3,0:0:0:0:
305,274,48172,6,0,L|298:175,1,71.5000021820069,12|0,0:1|0:0,0:0:0:0:
333,170,48518,2,0,L|381:159,1,35.7500010910034,2|8,0:0|0:0,0:0:0:0:
483,84,48979,1,2,0:0:0:0:
483,84,49095,2,0,B|445:100|445:100|403:74,1,71.5000021820069,10|2,0:3|0:0,0:0:0:0:
344,29,49556,1,10,0:0:0:0:
244,18,49787,1,2,1:2:0:0:
185,116,50018,6,0,L|180:194,1,71.5000021820069,12|0,0:1|0:0,0:0:0:0:
149,222,50364,2,0,P|135:224|102:217,1,35.7500010910034,2|10,0:0|0:0,0:0:0:0:
56,147,50710,1,2,3:2:0:0:
54,132,50825,1,0,3:2:0:0:
53,118,50941,1,8,0:3:0:0:
105,40,51172,2,0,B|129:35|129:35|151:41|151:41|185:35,2,71.5000021820069,2|10|2,0:0|0:0|1:2,0:0:0:0:
25,122,51864,6,0,L|18:221,1,71.5000021820069,12|2,0:1|0:0,0:0:0:0:
6,237,52210,2,0,L|12:278,1,35.7500010910034,2|8,0:0|0:0,0:0:0:0:
137,340,52672,1,2,0:0:0:0:
137,340,52787,2,0,B|226:332,1,71.5000021820069,10|2,0:3|0:0,0:0:0:0:
296,305,53248,1,10,0:2:0:0:
367,364,53479,1,2,1:2:0:0:
470,314,53710,6,0,L|475:236,1,71.5000021820069,12|0,0:1|0:0,0:0:0:0:
493,202,54056,2,0,L|482:161,1,35.7500010910034,2|10,0:0|0:0,0:0:0:0:
420,98,54402,1,2,0:0:0:0:
335,136,54633,1,10,0:3:0:0:
260,79,54864,2,0,B|236:74|236:74|214:80|214:80|182:76,2,71.5000021820069,8|8|8,1:3|1:2|1:3,0:0:0:0:
344,158,55556,6,0,L|337:257,1,71.5000021820069,8|10,1:3|3:1,0:0:0:0:
355,273,55902,2,0,L|336:320,1,35.7500010910034,0|12,3:0|0:0,0:0:0:0:
213,355,56364,1,2,0:0:0:0:
213,355,56479,2,0,B|133:345,1,71.5000021820069,10|2,0:3|0:0,0:0:0:0:
51,365,56941,1,10,0:2:0:0:
12,280,57172,1,2,0:3:0:0:
100,206,57402,6,0,B|111:183|111:183|105:128,1,71.5000021820069,12|0,0:1|0:0,0:0:0:0:
128,94,57748,2,0,L|176:84,1,35.7500010910034,2|10,0:0|0:2,0:0:0:0:
250,117,58095,1,0,3:3:0:0:
265,119,58210,1,2,3:0:0:0:
279,120,58325,1,8,2:3:0:0:
360,73,58556,2,0,B|365:49|365:49|360:26|360:26|366:0,2,71.5000021820069,2|8|0,0:0|1:2|1:1,0:0:0:0:
412,175,59248,6,0,B|417:199|417:199|412:222|412:222|418:248,1,71.5000021820069,12|0,0:1|0:1,0:0:0:0:
444,282,59595,2,0,L|436:329,1,35.7500010910034,2|8,0:0|0:0,0:0:0:0:
371,381,59941,1,2,0:1:0:0:
296,324,60172,1,12,0:1:0:0:
207,349,60402,2,0,L|130:341,2,71.5000021820069,2|8|0,1:2|0:0|1:0,0:0:0:0:
309,296,61095,6,0,L|318:220,1,71.5000021820069,12|0,1:1|1:0,0:0:0:0:
295,134,61556,2,0,P|263:121|227:120,1,71.5000021820069,10|10,0:0|0:0,0:0:0:0:
195,155,61902,1,10,0:0:0:0:
195,155,62018,2,0,P|161:168|126:168,1,71.5000021820069,10|10,0:0|0:0,0:0:0:0:
65,97,62479,2,0,L|59:43,2,47.6666681213379,8|8|8,0:0|0:0|0:0,0:0:0:0:
32,136,62941,6,0,B|32:147|32:147|35:158|35:158|31:172|31:172|39:184|39:184|37:198|37:198|41:215|41:215|40:244,1,90.9999972229005,10|12,0:3|0:0,0:0:0:0:
10,312,63633,1,0,0:0:0:0:
10,312,63748,2,0,B|42:305|42:305|73:316|73:316|114:311,1,97.5,2|2,0:0|0:0,0:0:0:0:
186,351,64325,1,8,0:0:0:0:
239,256,64556,5,0,3:3:0:0:
240,243,64672,1,0,3:3:0:0:
241,231,64787,2,0,B|243:198|243:198|228:169|228:169|230:124,1,97.5,10|0,0:3|0:0,0:0:0:0:
250,96,65248,2,0,L|328:84,1,65,10|2,0:0|0:0,0:0:0:0:
398,46,65710,1,10,0:3:0:0:
398,46,65825,1,2,0:0:0:0:
469,102,66056,2,0,L|474:155,1,32.5,2|8,0:0|0:2,0:0:0:0:
421,213,66402,5,0,3:0:0:0:
408,214,66518,1,0,3:0:0:0:
396,215,66633,2,0,B|386:242|386:242|391:289|391:289|383:323,1,97.5,12|0,0:1|0:0,0:0:0:0:
408,349,67095,2,0,B|375:351|375:351|349:331,1,65,10|2,0:0|0:0,0:0:0:0:
262,269,67556,6,0,B|201:252|201:252|167:261,1,97.5,8|0,0:3|0:0,0:0:0:0:
137,296,68018,2,0,B|127:268|127:268|134:233,1,65,8|0,0:0|0:0,0:0:0:0:
196,145,68479,6,0,B|206:118|206:118|198:76|198:76|209:37,1,97.5,12|0,0:1|0:0,0:0:0:0:
229,12,68941,1,2,0:0:0:0:
316,52,69172,1,2,0:0:0:0:
316,52,69287,2,0,L|384:44,1,65,2|2,0:0|0:0,0:0:0:0:
458,92,69748,1,8,0:0:0:0:
406,166,69979,1,8,0:1:0:0:
405,171,70095,1,8,0:1:0:0:
404,176,70210,1,8,0:1:0:0:
403,181,70325,5,10,0:3:0:0:
75,146,77479,5,12,0:0:0:0:
141,96,77710,6,0,P|159:55|138:2,2,82.8750015807152,14|10|10,0:3|0:3|0:3,0:0:0:0:
75,146,78633,2,0,L|67:212,1,55.2500010538101,10|0,0:3|0:0,0:0:0:0:
49,238,78979,2,0,L|56:280,1,27.6250005269051,10|8,0:3|0:2,0:0:0:0:
96,336,79325,1,10,0:3:0:0:
169,298,79556,6,0,P|209:290|245:308,2,82.8750015807152,10|10|10,0:3|0:3|0:3,0:0:0:0:
96,336,80479,1,10,0:3:0:0:
3,198,80941,1,10,0:0:0:0:
136,99,81402,6,0,B|140:70|140:70|133:48|133:48|136:11,2,82.8750015807152,14|10|10,0:3|0:3|0:3,0:0:0:0:
190,161,82325,2,0,L|246:157,1,55.2500010538101,10|0,0:3|0:0,0:0:0:0:
279,180,82672,2,0,L|331:168,1,27.6250005269051,10|8,0:3|0:0,0:0:0:0:
370,121,83018,1,10,0:3:0:0:
424,183,83248,2,0,B|428:212|428:212|421:234|421:234|424:271,2,82.8750015807152,10|10|10,0:3|0:3|0:3,0:0:0:0:
298,74,84402,2,0,L|294:13,2,55.2500010538101,2|10|10,0:0|0:0|0:0,0:0:0:0:
229,111,85095,6,0,B|202:104|202:104|184:108|184:108|146:100,2,73.1250027894975,12|8|8,0:1|0:3|0:3,0:0:0:0:
297,148,86018,1,8,0:0:0:0:
366,112,86248,2,0,L|372:51,2,48.750001859665,2|8|2,0:0|0:3|0:0,0:0:0:0:
397,183,86941,1,2,0:0:0:0:
465,145,87172,2,0,L|473:108,2,24.3750009298325,8|8|8,0:0|0:0|0:3,0:0:0:0:
493,218,87633,2,0,L|498:256,2,24.3750009298325,8|8|8,0:0|0:0|0:3,0:0:0:0:
465,145,88095,6,0,B|456:89,2,42.2499980659486,2|8|8,1:2|1:2|1:3,0:0:0:0:
477,237,88787,6,0,L|472:328,1,71.5000021820069,12|0,0:1|0:0,0:0:0:0:
450,349,89133,2,0,L|397:352,1,35.7500010910034,2|8,0:0|0:0,0:0:0:0:
296,286,89595,1,2,0:0:0:0:
296,286,89710,2,0,L|197:278,1,71.5000021820069,10|2,0:3|0:0,0:0:0:0:
135,254,90172,1,10,0:0:0:0:
75,325,90402,1,2,1:2:0:0:
11,228,90633,6,0,L|7:148,1,71.5000021820069,12|0,0:1|0:0,0:0:0:0:
1,110,90979,2,0,L|15:67,1,35.7500010910034,2|10,0:0|0:0,0:0:0:0:
91,27,91325,1,2,3:2:0:0:
106,25,91441,1,0,3:2:0:0:
120,24,91556,1,8,0:3:0:0:
206,58,91787,2,0,B|251:67|251:67|284:57,2,71.5000021820069,2|10|2,0:0|0:0|1:2,0:0:0:0:
109,120,92479,6,0,B|100:146|100:146|102:219,1,71.5000021820069,12|2,0:1|0:0,0:0:0:0:
82,232,92825,2,0,L|95:271,1,35.7500010910034,2|8,0:0|0:0,0:0:0:0:
217,340,93287,1,2,0:0:0:0:
217,340,93402,2,0,B|306:332,1,71.5000021820069,10|2,0:3|0:0,0:0:0:0:
376,305,93864,1,10,0:2:0:0:
452,357,94095,1,2,1:2:0:0:
496,250,94325,6,0,B|500:224|500:224|497:204|497:204|501:172,1,71.5000021820069,12|0,0:1|0:0,0:0:0:0:
509,133,94672,2,0,L|498:90,1,35.7500010910034,2|10,0:0|0:0,0:0:0:0:
428,38,95018,1,2,0:0:0:0:
359,100,95248,1,10,0:3:0:0:
280,49,95479,2,0,B|258:43|258:43|238:50|238:50|201:39,2,71.5000021820069,8|8|8,1:3|1:2|1:3,0:0:0:0:
370,124,96172,6,0,L|371:221,1,71.5000021820069,8|10,1:3|3:1,0:0:0:0:
385,239,96518,2,0,L|377:289,1,35.7500010910034,0|12,3:0|0:0,0:0:0:0:
258,344,96979,1,2,0:0:0:0:
258,344,97095,2,0,B|249:252,1,71.5000021820069,10|2,0:3|0:0,0:0:0:0:
206,191,97556,1,10,0:2:0:0:
271,125,97787,1,2,0:3:0:0:
205,31,98018,6,0,B|115:27,1,71.5000021820069,12|0,0:1|0:0,0:0:0:0:
89,42,98364,2,0,L|51:37,1,35.7500010910034,2|10,0:0|0:2,0:0:0:0:
5,117,98710,1,0,3:3:0:0:
5,132,98825,1,2,3:0:0:0:
5,146,98941,1,8,2:3:0:0:
56,224,99172,2,0,B|61:248|61:248|56:271|56:271|62:297,2,71.5000021820069,2|8|0,0:0|1:2|1:1,0:0:0:0:
123,130,99864,6,0,B|147:125|147:125|170:130|170:130|196:124,1,71.5000021820069,12|0,0:1|0:1,0:0:0:0:
235,106,100210,2,0,L|280:112,1,35.7500010910034,2|8,0:0|0:0,0:0:0:0:
343,168,100556,1,2,0:1:0:0:
428,129,100787,1,12,0:1:0:0:
485,201,101018,2,0,L|489:284,2,71.5000021820069,2|8|0,1:2|0:0|1:0,0:0:0:0:
424,102,101710,6,0,B|399:94|399:94|381:102|381:102|343:92,1,71.5000021820069,12|0,1:1|1:0,0:0:0:0:
271,132,102172,2,0,B|262:212,1,71.5000021820069,10|10,0:0|0:0,0:0:0:0:
287,249,102518,1,10,0:0:0:0:
287,249,102633,2,0,B|312:257|312:257|330:249|330:249|368:259,1,71.5000021820069,10|10,0:0|0:0,0:0:0:0:
441,291,103095,2,0,L|495:285,2,47.6666681213379,8|8|8,0:0|0:0|0:0,0:0:0:0:
408,336,103556,6,0,B|373:335|373:335|349:351|349:351|305:352,1,97.5,14|2,0:3|0:0,0:0:0:0:
256,291,104133,1,2,0:0:0:0:
256,291,104248,2,0,L|246:205,2,65,2|8|2,0:0|0:3|0:0,0:0:0:0:
28,162,105402,6,0,B|63:161|63:161|87:177|87:177|131:178,1,97.5,10|2,0:3|0:0,0:0:0:0:
180,117,105979,1,2,0:0:0:0:
180,117,106095,2,0,L|190:31,2,65,2|10|2,0:0|0:3|0:0,0:0:0:0:
439,148,107248,6,0,B|404:147|404:147|380:163|380:163|336:164,1,97.5,10|2,0:3|0:0,0:0:0:0:
287,103,107825,1,2,0:0:0:0:
287,103,107941,2,0,L|277:17,2,65,2|8|2,0:0|0:3|0:0,0:0:0:0:
83,254,109095,6,0,B|118:255|118:255|142:239|142:239|186:238,1,97.5,14|2,0:3|0:0,0:0:0:0:
235,299,109672,1,2,0:0:0:0:
235,299,109787,2,0,L|245:385,2,65,2|10|10,0:0|0:0|0:0,0:0:0:0:
276,225,110479,2,0,L|283:151,1,65,10|2,0:0|0:0,0:0:0:0:
234,82,110941,6,0,B|221:78|213:71|213:71|192:84|192:84|175:65|132:60,1,97.5,10|0,0:3|0:0,0:0:0:0:
103,61,111402,1,12,0:0:0:0:
46,132,111633,2,0,L|43:200,2,65,2|8|0,2:2|0:3|0:0,0:0:0:0:
103,61,112325,2,0,L|179:55,1,65,10|2,0:0|0:0,0:0:0:0:
278,95,112787,6,0,B|312:103|312:103|368:80|368:80|419:91,1,130,10|8,0:3|0:2,0:0:0:0:
469,148,113479,2,0,L|476:219,1,65,2|8,0:0|0:3,0:0:0:0:
451,251,113825,2,0,P|447:270|445:292,1,32.5,2|0,1:2|1:0,0:0:0:0:
411,313,114056,2,0,L|361:306,1,32.5,2|8,1:2|1:2,0:0:0:0:
298,350,114402,1,2,1:2:0:0:
234,268,114633,5,8,0:3:0:0:
148,299,114864,2,0,L|106:292,2,32.5,0|0|8,3:0|3:0|3:2,0:0:0:0:
133,209,115325,2,0,L|100:181,2,32.5,0|0|8,3:0|3:0|3:3,0:0:0:0:
165,123,115787,2,0,L|150:83,2,32.5,0|0|8,3:0|3:0|3:2,0:0:0:0:
235,64,116248,1,0,3:0:0:0:
237,47,116364,1,0,3:0:0:0:
240,31,116479,5,12,3:3:0:0:
337,185,116941,2,0,L|418:173,1,65,10|0,1:2|1:2,0:0:0:0:
413,265,117402,2,0,L|494:277,2,65,10|10|10,1:3|1:3|1:2,0:0:0:0:
335,313,118095,1,8,0:0:0:0:
325,316,118210,1,8,0:0:0:0:
316,318,118325,6,0,L|222:309,2,87.7499973220826,14|2|2,0:3|0:0|0:0,0:0:0:0:
386,265,119248,2,0,P|394:233|384:186,1,58.4999982147217,10|0,0:3|0:0,0:0:0:0:
411,167,119595,2,0,P|403:149|391:129,1,29.2499991073609,2|8,0:0|0:0,0:0:0:0:
331,84,119941,1,2,0:0:0:0:
246,108,120172,6,0,B|212:113|212:113|187:102|187:102|145:106,2,87.7499973220826,10|2|2,0:3|0:0|0:0,0:0:0:0:
331,84,121095,1,10,0:3:0:0:
440,220,121556,1,10,0:0:0:0:
274,160,122018,6,0,B|240:155|240:155|215:166|215:166|173:162,2,87.7499973220826,10|2|2,0:3|0:0|0:0,0:0:0:0:
331,226,122941,2,0,L|324:306,1,58.4999982147217,10|0,0:3|0:0,0:0:0:0:
305,323,123287,2,0,P|293:328|270:330,1,29.2499991073609,2|8,0:0|0:0,0:0:0:0:
198,289,123633,1,2,0:0:0:0:
118,325,123864,6,0,B|21:317,2,87.7499973220826,10|2|2,0:3|0:0|0:0,0:0:0:0:
198,289,124787,2,0,P|205:262|207:223,1,58.4999982147217,10|8,0:3|0:3,0:0:0:0:
157,158,125248,2,0,P|150:131|148:92,1,58.4999982147217,10|8,0:0|0:3,0:0:0:0:
227,29,125710,6,0,B|252:22|252:22|289:29|289:29|312:26,2,87.7499973220826,12|2|2,0:3|0:0|0:0,0:0:0:0:
158,84,126633,2,0,L|149:163,1,58.4999982147217,10|0,0:3|0:0,0:0:0:0:
118,171,126979,2,0,L|120:217,1,29.2499991073609,2|8,0:0|0:0,0:0:0:0:
146,283,127325,1,2,0:0:0:0:
229,256,127556,6,0,B|254:249|254:249|291:256|291:256|314:253,2,87.7499973220826,10|2|2,0:3|0:0|0:0,0:0:0:0:
146,283,128479,1,10,0:3:0:0:
38,144,128941,1,10,0:0:0:0:
178,39,129402,6,0,B|203:32|203:32|240:39|240:39|263:36,2,87.7499973220826,10|2|2,0:3|0:0|0:0,0:0:0:0:
132,114,130325,2,0,L|128:193,1,58.4999982147217,10|0,0:3|0:0,0:0:0:0:
120,216,130672,2,0,L|131:253,1,29.2499991073609,2|8,0:0|0:0,0:0:0:0:
169,321,131018,1,10,0:3:0:0:
246,246,131248,6,0,B|299:223|358:242|352:277|408:296|470:261,1,233.999992858887,14|0,0:3|0:0,0:0:0:0:
505,192,132402,6,0,L|507:143,2,42.2499980659486,2|8|8,1:2|1:2|1:3,0:0:0:0:
453,269,133095,6,0,P|412:279|370:264,1,71.5000021820069,12|0,0:1|0:0,0:0:0:0:
343,249,133441,2,0,L|297:242,1,35.7500010910034,2|8,0:0|0:0,0:0:0:0:
191,321,133902,1,2,0:0:0:0:
191,321,134018,2,0,B|185:243,1,71.5000021820069,10|2,0:3|0:0,0:0:0:0:
119,184,134479,1,10,0:0:0:0:
45,241,134710,1,2,1:2:0:0:
0,133,134941,6,0,L|-2:52,1,71.5000021820069,12|0,0:1|0:0,0:0:0:0:
29,27,135287,2,0,P|46:24|64:26,1,35.7500010910034,2|10,0:0|0:0,0:0:0:0:
145,72,135633,1,2,3:2:0:0:
147,87,135748,1,0,3:2:0:0:
148,101,135864,1,8,0:3:0:0:
221,158,136095,2,0,B|301:153,2,71.5000021820069,2|10|2,0:0|0:0|1:2,0:0:0:0:
140,239,136787,6,0,P|129:272|136:307,1,71.5000021820069,12|2,0:1|0:0,0:0:0:0:
170,339,137133,2,0,L|205:336,1,35.7500010910034,2|8,0:0|0:0,0:0:0:0:
345,374,137595,1,2,0:0:0:0:
345,374,137710,2,0,B|434:366,1,71.5000021820069,10|2,0:3|0:0,0:0:0:0:
499,326,138172,1,10,0:2:0:0:
447,249,138402,1,2,1:2:0:0:
506,150,138633,6,0,L|511:72,1,71.5000021820069,12|0,0:1|0:0,0:0:0:0:
488,37,138979,2,0,P|467:29|447:29,1,35.7500010910034,2|10,0:0|0:0,0:0:0:0:
382,87,139325,1,2,0:0:0:0:
300,42,139556,1,10,0:3:0:0:
216,83,139787,2,0,B|117:76,2,71.5000021820069,8|8|8,1:3|1:2|1:3,0:0:0:0:
295,167,140479,6,0,P|301:200|278:261,1,71.5000021820069,8|10,1:3|3:1,0:0:0:0:
264,273,140825,2,0,P|256:294|253:316,1,35.7500010910034,0|12,3:0|0:0,0:0:0:0:
128,370,141287,1,2,0:0:0:0:
128,370,141402,2,0,B|48:360,1,71.5000021820069,10|2,0:3|0:0,0:0:0:0:
2,285,141864,1,10,0:2:0:0:
77,230,142095,1,2,0:3:0:0:
17,135,142325,6,0,B|11:113|11:113|19:64,1,71.5000021820069,12|0,0:1|0:0,0:0:0:0:
49,28,142672,2,0,P|74:25|101:22,1,35.7500010910034,2|10,0:0|0:2,0:0:0:0:
162,74,143018,1,0,3:3:0:0:
177,76,143133,1,2,3:0:0:0:
191,77,143248,1,8,2:3:0:0:
255,144,143479,2,0,B|260:168|260:168|255:191|255:191|261:217,2,71.5000021820069,2|8|0,0:0|1:2|1:1,0:0:0:0:
335,57,144172,6,0,B|361:52|361:52|383:58|383:58|414:54,1,71.5000021820069,12|0,0:1|0:1,0:0:0:0:
444,79,144518,2,0,L|449:131,1,35.7500010910034,2|8,0:0|0:0,0:0:0:0:
494,195,144864,1,2,0:1:0:0:
413,242,145095,1,12,0:1:0:0:
366,161,145325,2,0,P|331:147|286:151,2,71.5000021820069,2|8|0,1:2|0:0|1:0,0:0:0:0:
416,264,146018,6,0,L|410:339,1,71.5000021820069,14|8,0:0|0:0,0:0:0:0:
306,361,146479,1,10,0:3:0:0:
306,361,146595,1,10,0:0:0:0:
213,308,146825,2,0,P|186:301|150:299,1,35.7500010910034,2|10,0:1|0:3,0:0:0:0:
89,329,147172,2,0,L|18:322,2,71.5000021820069,10|10|10,0:0|0:0|0:0,0:0:0:0:
194,277,147864,6,0,B|194:266|194:266|191:255|191:255|195:241|195:241|187:229|187:229|189:215|189:215|178:195|178:195|193:170|190:132,1,143.000004364014,6|12,0:3|0:0,0:0:0:0:
120,29,148672,1,2,0:0:0:0:
120,29,148787,2,0,L|21:21,1,71.5000021820069,10|2,0:3|0:0,0:0:0:0:
0,103,149248,1,10,0:0:0:0:
52,179,149479,1,2,1:2:0:0:
154,126,149710,6,0,L|242:118,1,71.5000021820069,12|0,0:1|0:0,0:0:0:0:
269,133,150056,2,0,P|281:153|290:183,1,35.7500010910034,2|10,0:0|0:0,0:0:0:0:
245,248,150402,1,2,3:2:0:0:
243,263,150518,1,0,3:2:0:0:
242,277,150633,1,8,0:3:0:0:
308,341,150864,2,0,B|386:332,2,71.5000021820069,2|10|2,0:0|0:0|1:2,0:0:0:0:
195,362,151556,6,0,B|173:360|173:360|146:351|146:351|110:353,1,71.5000021820069,12|2,0:1|0:0,0:0:0:0:
78,354,151902,2,0,L|65:315,1,35.7500010910034,2|8,0:0|0:0,0:0:0:0:
4,201,152364,1,2,0:0:0:0:
4,201,152479,2,0,B|20:111,1,71.5000021820069,10|2,0:3|0:0,0:0:0:0:
25,37,152941,1,10,0:2:0:0:
116,19,153172,1,2,1:2:0:0:
195,101,153402,6,0,B|221:105|221:105|241:102|241:102|273:106,1,71.5000021820069,12|0,0:1|0:0,0:0:0:0:
307,126,153748,2,0,L|349:115,1,35.7500010910034,2|10,0:0|0:0,0:0:0:0:
415,60,154095,1,2,0:0:0:0:
471,134,154325,1,10,0:3:0:0:
397,190,154556,2,0,B|391:212|391:212|398:232|398:232|387:269,2,71.5000021820069,8|8|8,1:3|1:2|1:3,0:0:0:0:
328,99,155248,6,0,L|239:89,1,71.5000021820069,8|10,1:3|3:1,0:0:0:0:
218,63,155595,2,0,L|168:71,1,35.7500010910034,0|12,3:0|0:0,0:0:0:0:
87,169,156056,1,2,0:0:0:0:
87,169,156172,2,0,B|89:260,1,71.5000021820069,10|2,0:3|0:0,0:0:0:0:
75,332,156633,1,10,0:2:0:0:
162,364,156864,1,2,0:3:0:0:
258,301,157095,6,0,B|348:297,1,71.5000021820069,12|0,0:1|0:0,0:0:0:0:
366,325,157441,2,0,L|402:314,1,35.7500010910034,2|10,0:0|0:2,0:0:0:0:
443,232,157787,1,0,3:3:0:0:
443,217,157902,1,2,3:0:0:0:
443,203,158018,1,8,2:3:0:0:
490,122,158248,2,0,B|495:98|495:98|490:75|490:75|496:49,2,71.5000021820069,2|8|0,0:0|1:2|1:1,0:0:0:0:
409,203,158941,6,0,B|385:198|385:198|362:203|362:203|336:197,1,71.5000021820069,12|0,0:1|0:1,0:0:0:0:
297,218,159287,2,0,L|250:206,1,35.7500010910034,2|8,0:0|0:0,0:0:0:0:
189,151,159633,1,2,0:1:0:0:
114,207,159864,1,12,0:1:0:0:
49,139,160095,2,0,L|45:56,2,71.5000021820069,2|8|0,1:2|0:0|1:0,0:0:0:0:
114,230,160787,6,0,B|107:308,1,71.5000021820069,12|0,1:1|1:0,0:0:0:0:
187,349,161248,2,0,P|214:342|275:339,1,71.5000021820069,2|0,0:0|0:0,0:0:0:0:
346,363,161710,2,0,P|380:371|416:373,1,71.5000021820069,2|2,0:0|0:0,0:0:0:0:
482,307,162172,2,0,L|488:253,2,47.6666681213379,2|2|2,1:2|1:2|1:2,0:0:0:0:
450,338,162633,6,0,B|439:338|439:338|428:335|428:335|414:339|414:339|402:331|402:331|388:333|388:333|371:329|371:329|342:330,1,90.9999972229005,10|12,0:3|0:0,0:0:0:0:
273,346,163325,1,0,0:0:0:0:
273,346,163441,2,0,B|241:339|241:339|210:350|210:350|169:345,1,97.5,2|2,0:0|0:0,0:0:0:0:
91,318,164018,1,8,0:0:0:0:
160,233,164248,5,0,3:3:0:0:
161,220,164364,1,0,3:3:0:0:
162,208,164479,2,0,B|164:175|164:175|146:140|151:101,1,97.5,10|0,0:3|0:0,0:0:0:0:
183,82,164941,2,0,B|215:86|215:86|244:72,1,65,10|2,0:0|0:0,0:0:0:0:
320,20,165402,1,10,0:3:0:0:
320,20,165518,1,2,0:0:0:0:
391,77,165748,2,0,L|443:85,1,32.5,2|8,0:0|0:0,0:0:0:0:
475,177,166095,5,0,3:0:0:0:
476,190,166210,1,0,3:0:0:0:
477,202,166325,2,0,B|476:236|476:236|464:272|464:272|466:318,1,97.5,12|0,0:1|0:0,0:0:0:0:
487,337,166787,2,0,B|454:339|454:339|428:319,1,65,10|2,0:0|0:0,0:0:0:0:
322,287,167248,6,0,B|287:289|287:289|263:303|263:303|229:294,1,97.5,8|0,0:3|0:0,0:0:0:0:
196,323,167710,2,0,B|189:288|189:288|199:260,1,65,8|0,0:0|0:0,0:0:0:0:
234,176,168172,6,0,B|233:142|233:142|221:106|221:106|222:80,1,97.5,12|0,0:1|0:0,0:0:0:0:
224,35,168633,1,10,0:2:0:0:
135,15,168864,1,0,3:0:0:0:
122,13,168979,1,0,3:0:0:0:
108,13,169095,1,10,0:3:0:0:
39,72,169325,2,0,L|29:136,2,65,10|10|10,1:3|1:2|1:3,0:0:0:0:
135,15,170018,6,0,B|143:14|143:14|160:18|160:18|174:16|174:16|186:24|186:24|200:20|200:20|211:23|211:23|222:23,1,90.9999972229005,8|12,3:3|0:0,0:0:0:0:
303,75,170710,1,0,0:0:0:0:
303,75,170825,2,0,B|299:106|299:106|310:137|310:137|303:169,1,97.5,2|2,0:0|0:0,0:0:0:0:
264,252,171402,1,8,0:0:0:0:
335,308,171633,5,0,3:0:0:0:
348,309,171748,1,0,3:0:0:0:
360,310,171864,2,0,B|395:302|395:302|424:314|467:299,1,97.5,10|0,0:3|0:0,0:0:0:0:
488,271,172325,2,0,B|493:192,1,65,10|2,0:0|0:0,0:0:0:0:
427,141,172787,1,10,0:3:0:0:
362,76,173018,2,0,L|358:6,2,65,2|10|2,1:2|1:2|1:2,0:0:0:0:
286,127,173710,6,0,B|252:126|252:126|216:114|216:114|170:116,1,97.5,12|0,0:3|0:0,0:0:0:0:
169,78,174172,2,0,B|149:104|149:104|151:137,1,65,10|2,0:0|0:0,0:0:0:0:
192,241,174633,6,0,B|226:242|226:242|262:254|262:254|308:252,1,97.5,8|0,0:3|0:0,0:0:0:0:
309,290,175095,2,0,B|329:264|329:264|327:231,1,65,8|0,0:0|0:0,0:0:0:0:
296,124,175556,6,0,B|298:98|298:98|287:58|287:58|293:27,1,97.5,8|0,0:3|0:0,0:0:0:0:
334,9,176018,1,10,0:2:0:0:
415,50,176248,1,0,3:0:0:0:
428,48,176364,1,0,3:0:0:0:
442,47,176479,1,10,0:3:0:0:
501,115,176710,2,0,L|508:182,2,65,8|8|8,1:3|1:2|1:3,0:0:0:0:
415,50,177402,5,12,0:1:0:0:
256,192,177518,12,0,181095,0:0:0:0:
