osu file format v14

[General]
AudioFilename: Ib.mp3
AudioLeadIn: 0
PreviewTime: 33815
Countdown: 0
SampleSet: Normal
StackLeniency: 0.7
Mode: 0
LetterboxInBreaks: 1
WidescreenStoryboard: 1

[Editor]
Bookmarks: 70534
DistanceSpacing: 1
BeatDivisor: 4
GridSize: 4
TimelineZoom: 1

[Metadata]
Title:E?Aa,Sou
TitleUnicode:絵?あぁ、そう
Artist:96neko
ArtistUnicode:96猫
Creator:SuperContact
Version:Insane
Source:Ib
Tags:96neko kuroneko Garry Mary E? Aa Sou Eh? Ah Sou Paintings? Oh Yeah Miku
BeatmapID:224448
BeatmapSetID:64336

[Difficulty]
HPDrainRate:7
CircleSize:4
OverallDifficulty:7
ApproachRate:9
SliderMultiplier:2
SliderTickRate:1

[Events]
//Background and Video events
Video,0,"Ib.avi"
0,0,"ib2.jpg",0,0
//Break Periods
2,54328,61028
2,114327,123528
2,169484,171028
2,174328,183528
//Storyboard Layer 0 (Background)
//Storyboard Layer 1 (Fail)
//Storyboard Layer 2 (Pass)
//Storyboard Layer 3 (Foreground)
//Storyboard Layer 4 (Overlay)
//Storyboard Sound Samples

[TimingPoints]
4128,312.5,4,1,1,80,1,0
23659,-100,4,1,1,100,0,0
23815,-100,4,1,1,80,0,0
24128,-83.3333333333333,4,1,1,100,0,0
33815,-133.333333333333,4,1,1,80,0,0
34440,-83.3333333333333,4,1,1,80,0,0
37096,-200,4,1,1,80,0,0
37253,-83.3333333333333,4,1,1,80,0,0
44128,-83.3333333333333,4,1,1,80,0,1
48815,-83.3333333333333,4,1,1,100,0,1
54128,-83.3333333333333,4,1,1,80,0,0
62878,-83.3333333333333,4,1,1,100,0,0
63346,-133.333333333333,4,1,1,100,0,0
63659,-83.3333333333333,4,1,1,100,0,0
73659,-100,4,1,1,75,0,0
83503,-133.333333333333,4,1,1,80,0,0
86003,-83.3333333333333,4,1,1,80,0,0
87253,-200,4,1,1,80,0,0
87409,-83.3333333333333,4,1,1,80,0,0
93815,-133.333333333333,4,1,1,80,0,0
94128,-83.3333333333333,4,1,1,80,0,1
99128,-156.25,4,1,1,80,0,1
100065,-83.3333333333333,4,1,1,80,0,1
104440,-83.3333333333333,4,1,1,100,0,1
114128,-83.3333333333333,4,1,1,100,0,0
124128,-100,4,2,1,50,0,0
133503,-100,4,1,1,70,0,0
134362,-100,4,2,1,50,0,0
139128,-100,4,1,1,80,0,0
142878,-100,4,1,0,80,0,0
144128,-83.3333333333333,4,1,1,100,0,1
148815,-83.3333333333333,4,1,1,80,0,1
153815,-133.333333333333,4,1,1,80,0,1
154128,-83.3333333333333,4,1,1,80,0,1
157409,-66.6666666666667,4,1,1,80,0,1
157565,-83.3333333333333,4,1,1,80,0,1
168497,-100,4,1,1,100,0,1
174128,-83.3333333333333,4,1,1,80,0,0
184128,-100,4,1,1,70,0,0

[Colours]
Combo1 : 150,119,162
Combo2 : 125,255,47
Combo3 : 51,51,251
Combo4 : 240,15,5
Combo5 : 255,150,10
Combo6 : 157,79,227
Combo7 : 251,241,49
Combo8 : 24,145,254

[HitObjects]
296,140,13659,21,0,0:0:0:0:
448,208,13815,1,0,0:0:0:0:
500,148,13971,1,0,0:0:0:0:
368,228,14128,2,0,L|284:324,1,100,2|0,0:0|0:0,0:0:0:0:
200,320,14440,1,8,0:0:0:0:
216,152,14596,1,0,0:0:0:0:
208,236,14753,2,0,B|96:268,1,100,2|0,0:0|0:0,0:0:0:0:
48,156,15065,69,8,0:0:0:0:
88,32,15221,1,0,0:0:0:0:
120,164,15378,2,0,B|136:232|136:232|104:296,1,100,2|0,0:0|0:0,0:0:0:0:
220,120,15690,1,8,0:0:0:0:
360,132,15846,1,0,0:0:0:0:
372,44,16003,2,0,B|332:168,1,100,2|2,0:0|0:0,0:0:0:0:
364,276,16315,2,0,B|384:260|384:260|484:260,1,100,8|0,0:0|0:0,0:0:0:0:
300,332,16628,37,2,0:0:0:0:
276,216,16784,1,0,0:0:0:0:
188,276,16940,2,0,B|160:156,1,100,8|0,0:0|0:0,0:0:0:0:
68,124,17253,1,2,0:0:0:0:
96,244,17409,1,0,0:0:0:0:
196,180,17565,2,0,B|224:300,1,100,8|0,0:0|0:0,0:0:0:0:
360,204,17878,69,2,0:0:0:0:
372,108,18034,1,0,0:0:0:0:
268,140,18190,1,8,0:0:0:0:
348,208,18346,1,0,0:0:0:0:
268,156,18503,1,2,0:0:0:0:
356,96,18659,1,2,0:0:0:0:
236,60,18815,2,0,B|212:48|212:48|100:76,1,100,8|0,0:0|0:0,0:0:0:0:
52,220,19128,37,2,0:0:0:0:
176,252,19284,2,0,B|208:324|208:324|200:372,2,100,0|8|0,0:0|0:0|0:0,0:0:0:0:
244,188,19753,1,2,0:0:0:0:
312,124,19909,2,0,B|280:52|280:52|288:4,2,100,0|8|0,0:0|0:0|0:0,0:0:0:0:
372,260,20378,69,2,0:0:0:0:
488,164,20534,2,0,B|432:188|432:188|364:172,1,100,0|8,0:0|0:0,0:0:0:0:
388,300,20846,2,0,L|412:356,2,50,0|0|2,0:0|0:0|0:0,0:0:0:0:
312,124,21159,1,0,0:0:0:0:
261,9,21315,2,0,B|245:77|245:77|181:109,1,100,8|0,0:0|0:0,0:0:0:0:
64,240,21628,37,2,0:0:0:0:
152,316,21784,1,0,0:0:0:0:
176,192,21940,2,0,B|80:244,1,100,8|0,0:0|0:0,0:0:0:0:
180,316,22253,1,2,0:0:0:0:
200,192,22409,1,0,0:0:0:0:
296,264,22565,2,0,B|208:320,1,100,8|0,0:0|0:0,0:0:0:0:
224,192,22878,1,2,0:0:0:0:
320,264,23034,1,0,0:0:0:0:
352,132,23190,2,0,B|336:120|336:120|212:128,2,100,8|0|10,0:0|0:0|0:0,0:0:0:0:
452,200,23659,54,0,P|472:248|464:312,2,100,2|2|2,0:0|0:0|0:0,0:0:0:0:
352,132,24128,1,0,0:0:0:0:
336,106,24206,1,0,0:0:0:0:
330,72,24284,1,0,0:0:0:0:
220,204,24440,1,8,0:0:0:0:
327,286,24596,2,0,B|290:319|258:316|258:316|173:273|173:273|134:272|106:304,1,239.999992675781
45,143,25065,1,10,0:0:0:0:
45,143,25221,1,0,0:0:0:0:
157,42,25378,86,0,P|201:55|233:131,1,119.999996337891
281,23,25690,1,10,0:0:0:0:
281,23,25846,1,0,0:0:0:0:
161,119,26003,2,0,P|125:111|81:39,1,119.999996337891
221,71,26315,1,10,0:0:0:0:
325,149,26471,1,0,0:0:0:0:
336,186,26549,1,0,0:0:0:0:
348,224,26628,22,0,P|379:266|465:265,1,119.999996337891
292,320,26940,1,10,0:0:0:0:
251,171,27096,1,0,0:0:0:0:
272,245,27253,2,0,P|229:276|230:362,1,119.999996337891,0|0,0:0|0:0,0:0:0:0:
176,191,27565,1,10,0:0:0:0:
325,149,27721,1,0,0:0:0:0:
251,171,27878,86,0,P|219:128|133:129,1,119.999996337891,0|0,0:0|0:0,0:0:0:0:
303,74,28190,1,10,0:0:0:0:
348,224,28346,1,0,0:0:0:0:
325,149,28503,2,0,P|367:117|366:31,1,119.999996337891,0|8,0:0|0:0,0:0:0:0:
448,160,28815,1,8,0:0:0:0:
436,184,28893,1,0,0:0:0:0:
432,212,28971,1,0,0:0:0:0:
436,240,29049,1,0,0:0:0:0:
444,268,29128,22,0,P|388:320|340:320,1,119.999996337891
192,256,29440,2,0,P|136:256|80:320,1,119.999996337891,10|0,0:0|0:0,0:0:0:0:
216,296,29753,1,0,0:0:0:0:
148,176,29909,2,0,B|116:160|80:144|80:144|60:124|60:80,2,119.999996337891,0|8|0,0:0|0:0|0:0,0:0:0:0:
264,84,30378,85,0,0:0:0:0:
376,76,30534,1,0,0:0:0:0:
304,160,30690,2,0,P|248:168|208:236,1,119.999996337891,10|0,0:0|0:0,0:0:0:0:
168,340,31003,1,0,0:0:0:0:
223,216,31159,2,0,B|133:221|133:221|115:234|126:266,1,119.999996337891,8|10,0:0|0:0,0:0:0:0:
58,119,31471,1,0,0:0:0:0:
40,88,31549,1,0,0:0:0:0:
28,52,31628,22,0,B|59:83|85:70|109:61|150:87,1,119.999996337891
264,84,31940,1,8,0:0:0:0:
176,260,32096,1,0,0:0:0:0:
212,196,32253,2,0,P|268:180|336:224,1,119.999996337891
258,281,32565,1,8,0:0:0:0:
39,226,32721,1,0,0:0:0:0:
84,324,32878,2,0,P|116:344|204:320,1,119.999996337891
350,241,33190,2,0,P|318:220|302:130,1,119.999996337891,8|0,0:0|0:0,0:0:0:0:
322,25,33503,85,10,0:0:0:0:
84,77,33815,102,0,B|108:57|108:57|112:169,1,131.25000500679
112,189,34128,1,2,0:0:0:0:
116,289,34284,1,2,0:0:0:0:
248,237,34596,2,0,B|232:221|232:221|304:197|332:285|320:285|368:205|432:261|448:273,1,239.999992675781
280,145,35065,1,2,0:0:0:0:
444,101,35221,1,2,0:0:0:0:
308,325,35534,1,0,0:0:0:0:
247,237,35690,1,0,0:0:0:0:
196,325,35846,1,0,0:0:0:0:
308,325,36003,2,0,B|316:309|316:309|360:309|360:309|404:333|404:333|428:293|468:273|516:285,1,239.999992675781
411,61,36628,21,6,0:0:0:0:
327,205,36784,1,2,0:0:0:0:
171,248,37096,2,0,B|192:236|192:236|184:224|184:224|228:152,1,100
84,206,37565,1,2,0:0:0:0:
64,242,37721,1,2,0:0:0:0:
40,100,38034,1,2,0:0:0:0:
116,40,38190,2,2,B|136:60|136:60|184:64|184:64|216:68|228:104,1,119.999996337891
288,144,38503,2,0,P|328:124|396:148,1,119.999996337891
444,224,38815,1,0,0:0:0:0:
292,280,39128,85,0,0:0:0:0:
232,340,39284,2,0,B|196:341|189:304|197:281|197:281|159:270|171:232|184:208|184:208|136:203|107:214|105:241,1,239.999992675781
57,276,39753,1,0,0:0:0:0:
136,52,40065,1,0,0:0:0:0:
270,112,40378,21,0,0:0:0:0:
405,170,40534,1,8,0:0:0:0:
342,79,40690,1,0,0:0:0:0:
299,183,40846,1,0,0:0:0:0:
406,170,41003,1,8,0:0:0:0:
192,248,41315,1,8,0:0:0:0:
332,308,41628,86,0,B|371:321|371:321|411:308|411:308|481:332,2,119.999996337891,2|0|0,0:0|0:0|0:0,0:0:0:0:
192,248,42096,2,0,B|160:260|160:260|91:228|91:228|72:176|96:120|144:104,1,239.999992675781
290,192,42565,2,0,B|322:206|322:206|368:192|368:192|418:212,2,119.999996337891,2|0|0,0:0|0:0|0:0,0:0:0:0:
243,66,43034,1,0,0:0:0:0:
224,144,43190,1,0,0:0:0:0:
262,279,43346,1,0,0:0:0:0:
238,356,43503,1,4,0:0:0:0:
366,324,43815,102,0,B|350:335|350:335|358:299|358:299|399:272|399:272|419:193,1,179.999994506836
436,116,44128,1,0,0:0:0:0:
267,38,44284,1,0,0:0:0:0:
363,77,44440,2,0,B|259:144,1,119.999996337891,8|0,0:0|0:0,0:0:0:0:
361,269,44753,1,0,0:0:0:0:
198,184,44909,1,0,0:0:0:0:
371,156,45065,2,0,B|271:222,1,119.999996337891,8|0,0:0|0:0,0:0:0:0:
160,256,45378,69,0,0:0:0:0:
232,112,45534,1,0,0:0:0:0:
80,264,45690,1,8,0:0:0:0:
152,124,45846,2,0,B|156:176|156:176|204:224|204:224|216:352,1,239.999992675781,8|0,0:0|0:0,0:0:0:0:
340,240,46315,1,8,0:0:0:0:
324,96,46471,1,0,0:0:0:0:
344,280,46628,38,0,B|264:292|264:292|216:264,1,119.999996337891
152,124,46940,2,0,B|232:112|232:112|280:140,1,119.999996337891,8|0,0:0|0:0,0:0:0:0:
300,156,47174,1,0,0:0:0:0:
340,180,47253,2,0,B|476:160,1,119.999996337891
216,204,47565,2,0,B|124:220,1,59.9999981689454,8|0,0:0|0:0,0:0:0:0:
116,224,47721,2,0,B|104:244|104:244|28:256|28:256|44:148|44:148|-4:88|-4:88,1,239.999992675781
228,112,48190,1,8,0:0:0:0:
92,76,48346,1,0,0:0:0:0:
292,72,48503,2,0,B|328:80|328:80|416:52|416:52|400:120,1,179.999994506836
392,140,48815,53,8,0:0:0:0:
336,328,48971,1,0,0:0:0:0:
360,256,49128,2,0,P|411:283|468:268,1,119.999996337891,4|0,0:0|0:0,0:0:0:0:
212,176,49440,1,10,0:0:0:0:
95,199,49596,1,0,0:0:0:0:
256,256,49753,2,0,P|296:200|276:116,1,119.999996337891,4|0,0:0|0:0,0:0:0:0:
200,76,50065,85,10,0:0:0:0:
400,176,50221,1,0,0:0:0:0:
376,88,50378,2,0,P|308:84|265:117,2,119.999996337891,4|0|10,0:0|0:0|0:0,0:0:0:0:
184,176,50846,2,0,B|129:184|116:157|104:129|47:143|47:143|115:54,1,239.999992675781
200,76,51315,1,10,0:0:0:0:
64,244,51471,1,0,0:0:0:0:
272,112,51628,22,0,P|320:92|420:136,1,119.999996337891,4|0,0:0|0:0,0:0:0:0:
240,236,51940,2,0,B|264:200|288:200|312:200|336:168,1,119.999996337891,12|0,0:0|0:0,0:0:0:0:
208,360,52253,2,0,P|328:340|372:224,1,239.999992675781,0|8,0:0|0:0,0:0:0:0:
156,28,52878,86,0,P|172:116|212:148,1,119.999996337891,4|0,0:0|0:0,0:0:0:0:
70,159,53190,2,0,B|93:198|136:205|182:212,1,119.999996337891,8|0,0:0|0:0,0:0:0:0:
76,305,53503,2,0,B|128:315|142:296|160:273|225:300,2,119.999996337891,0|0|8,0:0|0:0|0:0,0:0:0:0:
256,192,54128,101,12,0:0:0:0:
292,140,61628,117,8,0:0:0:0:
308,116,62096,1,8,0:0:0:0:
276,112,62565,1,8,0:0:0:0:
292,140,63034,1,8,0:0:0:0:
120,40,63346,6,0,L|160:60,2,37.5000014305115,8|0|8,0:0|0:0|0:0,0:0:0:0:
128,89,63659,1,0,0:0:0:0:
36,161,63815,1,0,0:0:0:0:
148,205,63971,1,0,0:0:0:0:
44,285,64128,21,0,0:0:0:0:
68,313,64206,1,0,0:0:0:0:
100,333,64284,2,0,P|165:338|221:303,1,119.999996337891,0|2,0:0|0:0,0:0:0:0:
380,305,64596,2,0,P|394:243|353:156,1,119.999996337891
310,246,64909,1,0,0:0:0:0:
444,138,65065,1,2,0:0:0:0:
316,56,65221,85,0,0:0:0:0:
276,64,65299,1,0,0:0:0:0:
240,76,65378,2,0,B|196:143|257:223,1,119.999996337891
12,120,65690,1,2,0:0:0:0:
112,196,65846,2,0,P|120:276|60:324,1,119.999996337891
44,244,66159,1,0,0:0:0:0:
196,308,66315,2,0,B|240:320|276:308|276:308|312:316|332:336|332:336,1,119.999996337891,2|0,0:0|0:0,0:0:0:0:
432,272,66628,21,0,0:0:0:0:
428,240,66706,1,0,0:0:0:0:
412,208,66784,1,0,0:0:0:0:
312,136,66940,2,0,P|256:156|192:124,1,119.999996337891,2|0,0:0|0:0,0:0:0:0:
256,80,67253,1,0,0:0:0:0:
256,228,67409,1,0,0:0:0:0:
140,228,67565,1,2,0:0:0:0:
256,152,67721,1,0,0:0:0:0:
372,228,67878,86,0,P|388:280|364:356,1,119.999996337891
256,304,68190,1,2,0:0:0:0:
256,304,68346,1,0,0:0:0:0:
140,228,68503,2,0,P|124:176|148:100,1,119.999996337891,0|2,0:0|0:0,0:0:0:0:
220,40,68815,1,2,0:0:0:0:
220,40,68971,1,0,0:0:0:0:
292,116,69127,21,0,0:0:0:0:
336,124,69205,1,0,0:0:0:0:
380,132,69284,1,0,0:0:0:0:
458,210,69440,2,0,P|462:275|413:341,1,119.999996337891,2|0,0:0|0:0,0:0:0:0:
304,260,69753,1,0,0:0:0:0:
136,204,69909,1,0,0:0:0:0:
256,192,70065,2,0,P|222:251|144:275,1,119.999996337891,2|0,0:0|0:0,0:0:0:0:
172,200,70378,85,0,0:0:0:0:
305,82,70534,1,0,0:0:0:0:
256,192,70690,2,0,P|221:132|239:52,1,119.999996337891,2|0,0:0|0:0,0:0:0:0:
290,116,71003,101,0,0:0:0:0:
326,289,71159,1,0,0:0:0:0:
256,192,71315,2,0,P|323:190|384:246,1,119.999996337891,2|0,0:0|0:0,0:0:0:0:
432,256,71628,38,0,P|404:284|328:288,1,119.999996337891
108,164,71940,2,0,P|136:136|212:132,1,119.999996337891,2|0,0:0|0:0,0:0:0:0:
384,104,72253,2,0,B|396:152|396:152|392:192|340:236,1,119.999996337891
200,318,72565,2,0,B|182:296|182:296|196:263|200:233|172:197,1,119.999996337891,2|0,0:0|0:0,0:0:0:0:
176,157,72799,1,0,0:0:0:0:
172,112,72878,86,0,P|212:80|321:98,1,119.999996337891
279,203,73190,2,0,B|286:234|289:267|289:267|320:297|346:336,1,119.999996337891
260,196,73503,1,10,0:0:0:0:
172,112,73659,38,0,B|144:72|144:72|164:12,2,100
104,152,74128,2,0,B|176:256,1,100,4|0,0:3|0:0,0:0:0:0:
283,111,74440,1,8,0:0:0:0:
300,252,74596,1,0,0:0:0:0:
336,168,74753,2,0,B|456:224,1,100,4|4,0:3|0:3,0:0:0:0:
377,51,75065,37,8,0:0:0:0:
377,51,75221,2,0,B|503:18,2,100,0|0|4,0:3|0:3|0:3,0:0:0:0:
281,33,75690,1,8,0:0:0:0:
225,230,75846,1,0,0:3:0:0:
192,143,76003,2,0,B|92:175,1,100,4|8,0:3|0:3,0:0:0:0:
60,304,76315,2,0,B|100:292|100:292|192:316,1,100,8|0,0:0|0:0,0:0:0:0:
328,312,76628,69,6,0:3:0:0:
328,168,76784,1,0,0:3:0:0:
392,272,76940,1,10,0:3:0:0:
392,132,77096,1,0,0:3:0:0:
328,96,77253,1,6,0:3:0:0:
264,132,77409,1,4,0:3:0:0:
392,204,77565,1,10,0:3:0:0:
264,272,77721,1,0,0:3:0:0:
135,268,77878,38,0,L|12:268,1,100,0|4,0:3|0:3,0:0:0:0:
194,186,78190,2,0,B|173:186|173:186|97:231,1,100,8|0,0:3|0:0,0:0:0:0:
196,75,78503,2,0,B|134:175,1,100,6|4,0:3|0:3,0:0:0:0:
360,48,78815,1,10,0:2:0:0:
384,68,78893,1,0,0:0:0:0:
408,88,78971,1,0,0:0:0:0:
432,108,79049,1,0,0:0:0:0:
456,128,79128,69,4,0:2:0:0:
408,264,79284,1,4,0:3:0:0:
284,204,79440,2,0,B|212:232|212:232|188:268,1,100,8|0,0:0|0:3,0:0:0:0:
174,324,79753,1,0,0:0:0:0:
137,142,79909,2,0,B|116:26,2,100,4|8|4,0:3|0:0|0:3,0:0:0:0:
200,252,80378,37,0,0:0:0:0:
348,216,80534,1,0,0:3:0:0:
328,62,80690,2,0,L|276:190,1,100,8|4,0:0|0:3,0:0:0:0:
219,173,81003,1,4,0:3:0:0:
437,39,81159,2,0,B|412:103|412:103|360:125,2,100,8|8|2,0:3|0:0|0:3,0:0:0:0:
461,210,81628,69,4,0:3:0:0:
377,306,81784,1,4,0:3:0:0:
328,192,81940,2,0,B|348:184|348:184|464:220,1,100,8|0,0:0|0:0,0:0:0:0:
277,306,82253,1,4,0:3:0:0:
228,192,82409,1,0,0:0:0:0:
144,288,82565,2,0,B|160:304|160:304|276:292,1,100,8|4,0:0|0:3,0:0:0:0:
152,144,82878,37,4,0:3:0:0:
68,240,83034,1,4,0:3:0:0:
120,80,83190,1,8,0:0:0:0:
36,176,83346,1,4,0:3:0:0:
208,84,83503,6,0,B|200:64|200:64|280:76|280:76|312:56|312:56|372:60|384:112,1,225.000008583069,10|4,0:3|0:0,0:0:0:0:
420,192,84128,5,0,0:0:0:0:
420,192,84284,2,0,B|376:292,1,75.0000028610231
259,294,84597,1,0,0:0:0:0:
259,174,84753,2,0,B|259:249,1,75.0000028610231
92,181,85065,1,0,0:0:0:0:
139,342,85222,2,0,B|115:256,1,75.0000028610231
56,58,85534,21,0,0:0:0:0:
156,102,85690,1,0,0:0:0:0:
254,143,85846,1,0,0:0:0:0:
29,159,86003,2,0,B|67:142|85:117|86:69|64:32|64:32|116:50|116:50|149:93,1,239.999992675781
436,80,86628,53,0,0:0:0:0:
420,160,86784,1,0,0:0:0:0:
420,160,86940,1,0,0:0:0:0:
301,148,87096,1,0,0:0:0:0:
279,227,87253,2,0,L|256:307,1,75,0|0,0:0|3:0,0:0:0:0:
242,245,87565,70,0,B|210:266|153:250|153:250|140:253|131:267,1,119.999996337891
211,174,87878,101,4,0:0:0:0:
250,21,88034,1,0,0:0:0:0:
392,90,88190,2,0,P|400:166|368:202,1,119.999996337891
324,134,88503,2,4,B|340:186|316:234|316:234|333:238|333:238|331:249|331:249|348:254|348:254|320:306|356:362|356:362,1,239.999992675781,4|12,0:0|0:0,0:0:0:0:
176,76,89128,85,2,0:0:0:0:
88,144,89284,1,0,0:0:0:0:
88,144,89440,1,0,0:0:0:0:
216,148,89596,1,2,0:0:0:0:
168,244,89753,1,0,0:0:0:0:
168,244,89909,1,0,0:0:0:0:
256,220,90065,1,8,0:0:0:0:
256,316,90221,1,8,0:0:0:0:
296,148,90378,21,2,0:0:0:0:
344,244,90534,1,0,0:0:0:0:
344,244,90690,1,0,0:0:0:0:
332,76,90846,1,2,0:0:0:0:
436,148,91003,1,0,0:0:0:0:
436,148,91159,1,0,0:0:0:0:
196,148,91315,1,8,0:0:0:0:
316,148,91471,1,0,0:0:0:0:
424,64,91628,86,0,P|444:128|396:200,2,119.999996337891
256,92,92096,2,0,B|256:136|232:176|232:176|256:192|280:208|280:208|256:256|256:316,1,239.999992675781
88,320,92565,2,0,P|68:256|116:184,2,119.999996337891
200,344,93034,101,12,0:0:0:0:
314,249,93190,1,12,0:0:0:0:
198,136,93346,1,12,0:0:0:0:
312,40,93502,1,12,0:0:0:0:
236,248,93815,2,0,B|242:241|242:241|234:239|234:239|236:248|236:248|265:156,1,112.500004291535
254,131,94128,38,0,P|314:103|374:111,1,119.999996337891
468,186,94440,1,8,0:0:0:0:
501,85,94596,1,0,0:0:0:0:
326,191,94753,1,0,0:0:0:0:
373,314,94909,1,0,0:0:0:0:
236,248,95065,2,0,P|168:252|124:220,1,119.999996337891,8|0,0:0|0:0,0:0:0:0:
69,52,95378,53,0,0:0:0:0:
89,72,95456,1,0,0:0:0:0:
109,92,95534,1,0,0:0:0:0:
112,268,95690,1,8,0:0:0:0:
192,160,95846,2,0,B|232:144|232:144|304:144|304:144|384:96|384:96|332:96,1,239.999992675781,8|0,0:0|0:0,0:0:0:0:
208,48,96315,2,0,L|140:76,1,59.9999981689454,8|0,0:0|0:0,0:0:0:0:
128,112,96471,2,0,L|56:144,1,59.9999981689454
36,232,96628,22,0,P|108:268|176:248,1,119.999996337891
256,176,96940,1,8,0:0:0:0:
172,332,97096,1,0,0:0:0:0:
280,248,97253,2,0,P|339:247|388:279,1,119.999996337891
400,316,97487,1,0,0:0:0:0:
408,348,97565,1,0,0:0:0:0:
464,160,97721,38,0,B|440:212|376:208|376:208|300:164|300:164|220:184,1,239.999992675781
108,224,98190,1,8,0:0:0:0:
212,116,98346,1,0,0:0:0:0:
28,116,98503,1,0,0:0:0:0:
328,192,98815,54,0,P|340:120|300:80,1,119.999996337891,8|0,0:0|0:0,0:0:0:0:
256,56,99128,2,0,B|252:60|252:60|256:56|256:56|260:60|260:60|256:56|256:56|256:104|256:104|260:104|260:104|252:104|252:104|256:104|256:104|256:148|256:148|260:148|260:148|252:148|252:148|256:148|256:148|256:192|256:192|260:192|260:192|252:192|252:192|256:192|256:192|256:236|256:236|260:236|260:236|252:236|252:236|256:236|256:236|256:300,1,320
176,222,100065,37,10,0:0:0:0:
338,177,100221,1,0,0:0:0:0:
160,230,100378,2,0,P|134:282|155:342,2,119.999996337891,4|0|10,0:0|0:0|0:0,0:0:0:0:
281,94,100846,2,0,B|298:59|298:59|337:164|337:164|345:218|299:275,1,239.999992675781
284,276,101237,1,0,0:0:0:0:
244,280,101315,1,10,0:0:0:0:
372,321,101471,1,0,0:0:0:0:
228,164,101628,54,0,B|188:146|188:146|92:165,1,119.999996337891,4|0,0:0|0:0,0:0:0:0:
177,252,101940,2,0,B|140:260|140:260|110:252|110:252|12:272,1,119.999996337891,8|0,0:0|0:0,0:0:0:0:
220,337,102253,2,0,B|253:347|253:347|384:320,1,119.999996337891,4|0,0:0|0:0,0:0:0:0:
386,109,102565,1,8,0:0:0:0:
416,244,102721,1,0,0:0:0:0:
260,104,102878,102,0,P|312:140|372:120,1,119.999996337891,4|0,0:0|0:0,0:0:0:0:
108,208,103190,2,0,P|160:160|228:172,1,119.999996337891,8|0,0:0|0:0,0:0:0:0:
152,288,103503,2,0,P|100:336|32:324,1,119.999996337891
224,336,103815,2,0,B|260:340|300:332|332:292|332:292|364:332|396:340|448:332,1,239.999992675781,8|8,0:0|0:0,0:0:0:0:
256,192,104206,12,8,105378,0:0:0:0:
184,312,106003,21,2,0:0:0:0:
62,282,106159,1,2,0:0:0:0:
144,232,106315,1,10,0:0:0:0:
26,202,106471,1,2,0:0:0:0:
101,121,106628,6,0,B|226:148,1,119.999996337891,4|0,0:0|0:0,0:0:0:0:
443,243,106940,2,0,B|280:208,1,119.999996337891,8|0,0:0|0:0,0:0:0:0:
144,232,107253,2,0,P|236:232|260:180,1,119.999996337891,0|0,0:0|0:0,0:0:0:0:
412,132,107565,2,0,P|320:132|296:184,1,119.999996337891,8|0,0:0|0:0,0:0:0:0:
268,136,107799,1,0,0:0:0:0:
236,128,107878,22,0,B|172:108|172:108|144:88|140:48,1,119.999996337891
272,224,108190,2,0,B|336:244|336:244|364:264|368:304,1,119.999996337891,8|0,0:0|0:0,0:0:0:0:
136,184,108503,2,0,B|72:164|72:164|44:144|40:104,1,119.999996337891,0|0,0:0|0:0,0:0:0:0:
176,284,108815,1,8,0:0:0:0:
200,292,108893,1,0,0:0:0:0:
224,300,108971,1,8,0:0:0:0:
244,312,109049,1,0,0:0:0:0:
260,328,109127,1,4,0:0:0:0:
440,144,109440,69,8,0:0:0:0:
256,68,109753,1,0,0:0:0:0:
68,140,110065,1,10,0:0:0:0:
116,224,110221,1,2,0:0:0:0:
68,308,110378,1,6,0:0:0:0:
256,68,110690,1,8,0:0:0:0:
440,312,111003,1,0,0:0:0:0:
444,136,111315,21,8,0:0:0:0:
352,124,111471,1,0,0:0:0:0:
272,68,111628,2,0,B|260:164|260:164|240:192,1,119.999996337891,2|0,0:0|0:0,0:0:0:0:
124,316,111940,2,0,B|132:228|132:228|164:192,1,119.999996337891,8|0,0:0|0:0,0:0:0:0:
256,68,112253,70,0,B|244:164|244:164|224:192,1,119.999996337891,2|0,0:0|0:0,0:0:0:0:
108,316,112565,2,0,B|116:228|116:228|148:192,1,119.999996337891,8|0,0:0|0:0,0:0:0:0:
124,168,112799,1,0,0:0:0:0:
112,136,112878,70,0,B|84:56|84:56|36:36,1,119.999996337891,0|0,0:0|0:0,0:0:0:0:
220,208,113190,2,0,L|272:352,1,119.999996337891,8|0,0:0|0:0,0:0:0:0:
137,136,113503,2,0,L|89:0,1,119.999996337891
242,209,113815,1,8,0:0:0:0:
253,236,113893,1,0,0:0:0:0:
264,264,113971,1,8,0:0:0:0:
276,292,114049,1,0,0:0:0:0:
301,304,114127,1,4,0:0:0:0:
148,120,124128,38,0,B|196:108|324:160,1,150,0|0,0:0|3:0,0:0:0:0:
324,164,124440,2,0,B|416:208|452:256|368:264,1,150,0|0,0:0|3:0,0:0:0:0:
364,264,124753,2,0,B|316:276|188:224,1,150,0|0,0:0|3:0,0:0:0:0:
188,220,125065,2,0,B|96:176|60:128|148:120,1,150,0|0,0:0|3:0,0:0:0:0:
120,56,125378,6,0,P|184:96|256:72,1,150,0|0,0:0|3:0,0:0:0:0:
284,44,125690,1,0,0:0:0:0:
236,176,125846,2,0,P|332:152|396:236,1,200
352,252,126315,2,0,B|312:284|276:264|240:240|196:280,1,150,0|0,0:0|3:0,0:0:0:0:
148,264,126628,38,0,P|124:192|152:120,1,150,0|0,0:0|3:0,0:0:0:0:
184,84,126940,2,0,P|256:60|328:88,1,150,0|0,0:0|3:0,0:0:0:0:
364,120,127253,2,0,P|388:192|360:264,1,150,0|0,0:0|3:0,0:0:0:0:
328,300,127565,2,0,P|256:324|184:296,1,150,0|0,0:0|3:0,0:0:0:0:
80,284,127878,70,0,P|128:232|116:132,1,150,0|0,0:0|3:0,0:0:0:0:
96,124,128190,1,0,0:0:0:0:
208,188,128346,2,0,P|242:83|336:76,1,200
364,136,128815,2,0,B|384:172|384:172|344:280,1,150,0|0,0:0|3:0,0:0:0:0:
328,320,129128,6,0,B|252:264|252:264|224:248|196:264,1,150,0|0,0:0|3:0,0:0:0:0:
120,264,129440,2,0,L|256:196,1,150,0|0,0:0|3:0,0:0:0:0:
336,184,129753,2,0,L|168:120,1,150,0|0,0:0|3:0,0:0:0:0:
136,80,130065,2,0,P|180:96|292:36,1,150,0|0,0:0|3:0,0:0:0:0:
371,45,130378,6,0,B|411:63|414:97|414:97|389:197,1,150,0|0,0:0|3:0,0:0:0:0:
381,226,130690,1,0,0:0:0:0:
320,136,130846,2,0,B|296:224|296:224|252:260|252:260|232:328,1,200
168,208,131315,2,0,P|164:260|232:304,1,100
64,328,131628,38,0,B|88:288|88:288|64:156,1,150,0|0,0:0|3:0,0:0:0:0:
60,136,131940,1,0,0:0:0:0:
168,208,132096,2,0,B|148:112|148:112|144:60|180:24|240:28,1,200
292,132,132565,2,0,P|296:84|265:44,1,100
256,160,132878,102,0,L|368:288,1,150,0|0,0:0|3:0,0:0:0:0:
388,304,133190,1,0,0:0:0:0:
264,308,133346,2,0,B|276:252|276:252|352:184|352:184|364:124,1,200,0|10,0:0|0:0,0:0:0:0:
380,24,133815,1,10,0:0:0:0:
236,132,133971,37,10,0:0:0:0:
207,151,134049,1,2,0:0:0:0:
184,176,134127,2,0,B|110:246|90:303|173:284,1,150,6|0,0:0|3:0,0:0:0:0:
176,283,134440,2,0,B|225:279|331:190,1,150,0|0,0:0|3:0,0:0:0:0:
324,192,134753,2,0,B|397:121|417:64|334:83,1,150,0|0,0:0|3:0,0:0:0:0:
337,79,135065,2,0,B|287:82|181:171,1,150,0|0,0:0|3:0,0:0:0:0:
220,248,135378,6,0,B|248:224|280:228|280:228|404:268,1,150,0|0,0:0|3:0,0:0:0:0:
404,268,135690,1,0,0:0:0:0:
336,132,135846,2,0,B|303:158|280:157|280:157|203:134|203:134|170:126|145:157,1,200,0|0,0:0|0:0,0:0:0:0:
64,128,136315,2,0,P|48:184|92:268,1,150,0|0,0:0|3:0,0:0:0:0:
132,288,136628,38,0,B|244:272|244:272|292:228,1,150,0|0,0:0|3:0,0:0:0:0:
336,188,136940,2,0,P|268:164|196:200,1,150,0|0,0:0|3:0,0:0:0:0:
203,307,137253,2,0,P|273:331|339:301,1,150,0|0,0:0|3:0,0:0:0:0:
408,208,137565,2,0,B|296:224|296:224|268:248,1,150,0|0,0:0|3:0,0:0:0:0:
172,312,137878,86,0,B|92:324|92:324|48:308|32:244,1,150,0|0,0:0|3:0,0:0:0:0:
32,232,138190,1,0,0:0:0:0:
144,216,138346,2,0,B|208:184|208:112|208:112|160:16|160:20,1,200
280,136,138815,2,0,L|332:228,1,100
248,248,139128,101,8,0:0:0:0:
151,270,139284,1,8,0:0:0:0:
128,173,139440,1,8,0:0:0:0:
226,150,139596,1,8,0:0:0:0:
284,232,139753,1,8,0:0:0:0:
148,212,139909,1,8,0:0:0:0:
166,76,140065,1,8,0:0:0:0:
304,96,140221,1,8,0:0:0:0:
304,96,140299,1,8,0:0:0:0:
304,96,140378,37,12,0:0:0:0:
332,212,140534,1,8,0:0:0:0:
448,184,140690,1,8,0:0:0:0:
388,100,140846,1,8,0:0:0:0:
284,232,141003,1,8,0:0:0:0:
460,256,141159,1,8,0:0:0:0:
332,212,141315,1,8,3:2:0:0:
304,216,141393,1,8,0:0:0:0:
276,220,141471,1,8,0:0:0:0:
248,224,141549,1,8,0:0:0:0:
218,228,141628,5,14,3:2:0:0:
208,64,141784,1,8,0:0:0:0:
112,120,141940,2,8,B|84:136|84:136|56:240,1,100,14|8,3:2|0:0,0:0:0:0:
87,342,142253,2,8,B|115:326|115:326|143:222,1,100,14|8,3:2|0:0,0:0:0:0:
212,40,142565,1,8,0:0:0:0:
116,96,142721,1,14,3:2:0:0:
332,212,142878,21,12,3:2:0:0:
252,152,143034,1,8,3:2:0:0:
232,160,143112,1,0,3:2:0:0:
212,168,143190,1,12,3:2:0:0:
216,17,143346,1,8,3:2:0:0:
92,96,143503,1,12,3:2:0:0:
80,112,143581,1,0,3:2:0:0:
72,132,143659,1,8,3:2:0:0:
68,152,143737,1,0,3:2:0:0:
72,172,143815,69,12,3:2:0:0:
88,200,143893,1,0,3:2:0:0:
108,228,143971,1,8,3:2:0:0:
128,260,144049,1,0,3:2:0:0:
148,288,144128,2,0,P|202:268|255:292,1,119.999996337891,14|0,3:2|0:0,0:0:0:0:
364,288,144440,1,10,0:0:0:0:
424,192,144596,1,0,0:0:0:0:
364,96,144753,2,0,P|300:116|256:92,1,119.999996337891
148,96,145065,1,10,0:0:0:0:
92,192,145221,1,0,0:0:0:0:
148,287,145378,86,0,P|202:267|255:291,1,119.999996337891
364,288,145690,1,10,0:0:0:0:
424,192,145846,1,0,0:0:0:0:
364,96,146003,2,0,P|300:116|256:92,1,119.999996337891
148,192,146315,1,10,0:0:0:0:
292,192,146471,101,10,0:0:0:0:
324,192,146549,1,10,0:0:0:0:
356,192,146628,2,0,B|413:237|413:237|426:259|424:284,1,119.999996337891,4|0,0:0|0:0,0:0:0:0:
324,288,146940,2,0,P|256:300|200:252,1,119.999996337891,8|0,0:0|0:0,0:0:0:0:
100,120,147253,2,0,P|168:108|224:156,1,119.999996337891
384,128,147565,1,8,0:0:0:0:
372,160,147643,1,0,0:0:0:0:
356,192,147721,2,0,B|332:244|268:252|253:234|236:216|180:224|148:280,1,239.999992675781
64,248,148190,1,8,0:0:0:0:
208,132,148346,1,0,0:0:0:0:
228,316,148503,1,0,0:0:0:0:
368,64,148815,53,8,0:0:0:0:
368,96,148893,1,0,0:0:0:0:
368,128,148971,1,8,0:0:0:0:
368,160,149049,1,0,0:0:0:0:
368,192,149128,2,0,B|368:228|368:228|400:280|400:280|400:328,1,119.999996337891,12|0,0:0|0:0,0:0:0:0:
256,268,149440,1,8,0:0:0:0:
112,304,149596,1,0,0:0:0:0:
144,192,149753,2,0,B|144:156|144:156|112:104|112:104|112:56,1,119.999996337891
256,116,150065,1,8,0:0:0:0:
400,80,150221,1,0,0:0:0:0:
368,192,150378,38,0,B|368:228|368:228|400:280|400:280|400:328,1,119.999996337891
256,268,150690,1,8,0:0:0:0:
112,304,150846,1,0,0:0:0:0:
144,192,151003,2,0,B|144:156|144:156|112:104|112:104|112:56,1,119.999996337891
256,116,151315,1,8,0:0:0:0:
388,184,151471,37,8,0:0:0:0:
412,208,151549,1,0,0:0:0:0:
436,232,151628,2,0,B|436:308|436:308|388:356,1,119.999996337891,14|0,0:0|0:0,0:0:0:0:
348,148,151940,2,0,B|348:100|348:100|412:36,1,119.999996337891,8|0,0:0|0:0,0:0:0:0:
256,116,152253,2,0,B|212:156|212:156|132:156,1,119.999996337891,2|0,0:0|0:0,0:0:0:0:
96,20,152565,1,8,0:0:0:0:
92,220,152721,1,0,0:0:0:0:
68,244,152799,1,0,0:0:0:0:
48,268,152878,85,10,0:0:0:0:
256,56,153190,1,8,0:0:0:0:
464,268,153503,1,10,0:0:0:0:
256,336,153815,2,0,B|232:312|256:284|280:256|256:232,1,112.500004291535
256,192,154128,5,0,0:0:0:0:
152,272,154284,1,0,0:0:0:0:
232,92,154440,2,0,P|220:164|168:192,1,119.999996337891,8|0,0:0|0:0,0:0:0:0:
104,64,154753,1,0,0:0:0:0:
300,196,154909,1,0,0:0:0:0:
424,136,155065,2,0,B|428:164|428:164|384:256,1,119.999996337891,8|0,0:0|0:0,0:0:0:0:
348,328,155378,1,0,0:0:0:0:
468,284,155534,1,0,0:0:0:0:
164,320,155690,1,8,0:0:0:0:
284,276,155846,1,8,0:0:0:0:
100,256,156003,2,0,P|36:280|0:372,1,119.999996337891
256,192,156315,5,8,0:0:0:0:
404,184,156471,1,0,0:0:0:0:
390,212,156549,1,0,0:0:0:0:
377,240,156627,1,2,0:0:0:0:
264,96,156783,2,0,B|256:92|256:92|256:100|256:100|264:96|264:96|152:96,1,119.999996337891,0|8,0:0|0:0,0:0:0:0:
256,192,157096,1,0,0:0:0:0:
292,180,157174,1,0,0:0:0:0:
328,168,157252,1,2,0:0:0:0:
228,72,157409,2,0,B|220:68|220:68|220:76|220:76|228:72|228:72|100:72,1,150.000005722046,0|8,0:0|0:0,0:0:0:0:
344,72,157721,5,0,0:0:0:0:
140,153,157878,1,2,0:0:0:0:
256,192,158035,1,2,0:0:0:0:
68,249,158191,1,8,0:0:0:0:
256,313,158347,1,0,0:0:0:0:
136,350,158503,1,2,0:0:0:0:
356,36,158815,6,0,L|396:96,1,59.9999981689454,8|0,0:0|0:0,0:0:0:0:
348,100,158971,2,0,L|392:168,1,59.9999981689454
340,160,159128,2,0,B|388:232|388:232|376:320,1,119.999996337891
308,336,159440,1,8,0:0:0:0:
256,200,159596,2,0,P|208:164|132:172,2,119.999996337891
244,272,160065,1,8,0:0:0:0:
96,104,160221,1,0,0:0:0:0:
272,128,160378,38,0,B|352:108|352:108|396:128,1,119.999996337891
244,272,160690,2,0,B|164:292|164:292|120:272,1,119.999996337891,8|0,0:0|0:0,0:0:0:0:
236,112,161003,2,0,L|356:168,1,119.999996337891
172,192,161315,1,8,0:0:0:0:
112,264,161471,1,0,0:0:0:0:
96,264,161549,1,0,0:0:0:0:
80,264,161628,1,6,0:0:0:0:
192,192,161784,53,0,0:0:0:0:
256,272,161940,1,8,0:0:0:0:
320,192,162096,1,0,0:0:0:0:
352,192,162174,1,0,0:0:0:0:
384,192,162253,1,6,0:0:0:0:
256,104,162409,85,0,0:0:0:0:
364,104,162565,1,8,0:0:0:0:
148,104,162721,1,0,0:0:0:0:
255,39,162878,101,6,0:0:0:0:
408,191,163190,1,8,0:0:0:0:
256,344,163503,1,6,0:0:0:0:
103,192,163815,1,8,0:0:0:0:
256,192,164128,1,14,0:0:0:0:
256,192,164284,12,8,167878,0:0:0:0:
52,184,168503,118,0,B|68:216|104:220|136:192|136:192|156:224|188:236|228:208,1,200
336,232,168971,1,0,0:0:0:0:
392,152,169128,1,0,0:0:0:0:
468,212,169284,1,0,0:0:0:0:
256,192,171628,12,4,174128,0:0:0:0:
84,128,184128,53,0,0:0:0:0:
180,100,184284,1,0,0:0:0:0:
272,144,184440,2,0,L|380:104,1,100,8|0,0:0|0:0,0:0:0:0:
360,216,184753,1,0,0:0:0:0:
268,248,184909,2,0,L|164:288,2,100,8|0|0,0:0|0:0|0:0,0:0:0:0:
272,144,185378,37,0,0:0:0:0:
176,176,185534,2,0,L|36:116,1,100,0|8,0:0|0:0,0:0:0:0:
272,144,185846,2,0,L|384:192,2,100,0|0|8,0:0|0:0|0:0,0:0:0:0:
284,48,186315,2,0,L|380:88,1,100,0|8,0:0|0:0,0:0:0:0:
444,192,186628,21,0,0:0:0:0:
432,296,186784,1,0,0:0:0:0:
340,256,186940,2,0,L|352:144,1,100,8|0,0:0|0:0,0:0:0:0:
340,256,187253,1,0,0:0:0:0:
248,220,187409,2,0,L|236:336,2,100,8|0|0,0:0|0:0|0:0,0:0:0:0:
160,152,187878,101,0,0:0:0:0:
148,248,188034,1,0,0:0:0:0:
128,144,188190,1,8,0:0:0:0:
40,100,188346,1,0,0:0:0:0:
152,120,188503,1,0,0:0:0:0:
232,68,188659,1,8,0:0:0:0:
312,124,188815,2,0,L|420:160,1,100,0|8,0:0|0:0,0:0:0:0:
448,256,189128,53,0,0:0:0:0:
348,284,189284,1,0,0:0:0:0:
240,256,189440,2,0,L|144:296,1,100,8|0,0:0|0:0,0:0:0:0:
184,176,189753,1,0,0:0:0:0:
272,140,189909,2,0,L|368:100,2,100,8|0|0,0:0|0:0|0:0,0:0:0:0:
188,76,190378,37,0,0:0:0:0:
184,176,190534,2,0,L|180:292,1,100,0|8,0:0|0:0,0:0:0:0:
272,140,190846,2,0,L|276:40,2,100,0|0|8,0:0|0:0|0:0,0:0:0:0:
372,124,191315,2,0,L|492:100,1,100,0|8,0:0|0:0,0:0:0:0:
380,240,191628,54,0,P|356:284|304:320,1,100
124,148,191940,2,0,P|148:104|200:68,1,100,8|0,0:0|0:0,0:0:0:0:
374,122,192253,2,0,P|344:84|300:60,1,100,0|8,0:0|0:0,0:0:0:0:
133,253,192565,2,0,P|164:292|208:316,1,100
305,250,192878,85,0,0:0:0:0:
208,132,193034,1,8,0:0:0:0:
312,92,193190,1,0,0:0:0:0:
200,288,193346,1,0,0:0:0:0:
256,192,193503,101,14,0:0:0:0:
