osu file format v14

[General]
AudioFilename: audio.mp3
AudioLeadIn: 0
PreviewTime: 164058
Countdown: 0
SampleSet: Soft
StackLeniency: 0.5
Mode: 0
LetterboxInBreaks: 0
WidescreenStoryboard: 0

[Editor]
DistanceSpacing: 1
BeatDivisor: 4
GridSize: 32
TimelineZoom: 1.5

[Metadata]
Title:Buriki no Dance
TitleUnicode:ブリキノダンス
Artist:96neko
ArtistUnicode:96猫
Creator:Lasse
Version:Insane
Source:
Tags:utaite cover 日向電工 Hinata Electric Works
BeatmapID:1248109
BeatmapSetID:588211

[Difficulty]
HPDrainRate:6.5
CircleSize:4
OverallDifficulty:8
ApproachRate:8.7
SliderMultiplier:1.59999990463257
SliderTickRate:1

[Events]
//Background and Video events
0,0,"bg.jpg",0,0
//Break Periods
2,86118,87889
2,88909,90506
//Storyboard Layer 0 (Background)
//Storyboard Layer 1 (Fail)
//Storyboard Layer 2 (Pass)
//Storyboard Layer 3 (Foreground)
//Storyboard Sound Samples

[TimingPoints]
1500,348.837209302326,4,2,3,50,1,0
5686,-100,4,2,3,55,0,0
6558,-100,4,2,3,60,0,0
7081,-100,4,2,3,30,0,0
7779,348.837209302326,4,2,1,65,1,0
7866,-100,4,2,40,65,0,0
13360,-90.9090909090909,4,2,1,67,0,0
13534,-90.9090909090909,4,2,12,67,0,0
18941,-133.333333333333,4,2,4,60,0,0
24174,-266.666666666667,4,2,4,60,0,0
24435,-266.666666666667,4,2,99,5,0,0
24523,-133.333333333333,4,2,4,60,0,0
30104,-100,4,2,4,65,0,0
30191,-100,4,2,40,65,0,0
34465,-80,4,2,40,65,0,0
34552,-80,4,2,99,30,0,0
34639,-80,4,2,40,65,0,0
34726,-80,4,2,99,30,0,0
34813,-80,4,2,40,65,0,0
34901,-80,4,2,99,30,0,0
34988,-80,4,2,40,65,0,0
35075,-80,4,2,99,30,0,0
35162,-100,4,2,40,65,0,0
35685,-100,4,2,1,65,0,0
35860,-100,4,2,40,65,0,0
40918,-100,4,2,1,55,0,0
41267,-133.333333333333,4,2,4,60,0,0
42052,-133.333333333333,4,2,4,20,0,0
42139,-133.333333333333,4,2,4,60,0,0
43622,-133.333333333333,4,2,4,20,0,0
43709,-133.333333333333,4,2,4,60,0,0
44494,-133.333333333333,4,2,4,20,0,0
44581,-133.333333333333,4,2,4,60,0,0
44668,-133.333333333333,4,2,4,20,0,0
44755,-133.333333333333,4,2,4,60,0,0
45191,-133.333333333333,4,2,4,20,0,0
45279,-133.333333333333,4,2,4,60,0,0
45366,-133.333333333333,4,2,4,20,0,0
45453,-133.333333333333,4,2,4,60,0,0
46499,-200,4,2,4,60,0,0
46761,-200,4,2,99,5,0,0
46848,-133.333333333333,4,2,4,60,0,0
47110,-133.333333333333,4,2,4,20,0,0
47197,-133.333333333333,4,2,4,60,0,0
47459,-133.333333333333,4,2,4,20,0,0
47546,-133.333333333333,4,2,4,60,0,0
48854,-133.333333333333,4,2,4,20,0,0
48941,-133.333333333333,4,2,4,60,0,0
49203,-133.333333333333,4,2,4,20,0,0
49290,-133.333333333333,4,2,4,60,0,0
49377,-133.333333333333,4,2,4,20,0,0
49465,-133.333333333333,4,2,4,40,0,0
49639,-133.333333333333,4,2,4,60,0,0
52430,-117.647058823529,4,2,3,55,0,0
62895,-100,4,2,3,60,0,0
63069,-100,4,2,3,65,0,0
63592,-86.9565217391304,4,2,1,72,0,1
74406,-86.9565217391304,4,2,1,70,0,0
74755,-86.9565217391304,4,2,1,75,0,1
74930,-86.9565217391304,4,2,2,75,0,1
80337,-86.9565217391304,4,2,1,75,0,1
80511,-86.9565217391304,4,2,2,75,0,1
85918,-100,4,2,1,70,0,0
88534,-100,4,2,2,30,0,0
88622,-100,4,2,2,37,0,0
88709,-100,4,2,44,55,0,0
91151,-100,4,2,2,65,0,0
91499,-90.9090909090909,4,2,1,67,0,0
91674,-90.9090909090909,4,2,12,67,0,0
97081,-133.333333333333,4,2,4,60,0,0
102313,-133.333333333333,4,2,4,60,0,0
102575,-133.333333333333,4,2,99,5,0,0
102662,-133.333333333333,4,2,4,60,0,0
107633,-133.333333333333,4,2,4,20,0,0
107720,-133.333333333333,4,2,4,60,0,0
107895,-200,4,2,4,50,0,0
108156,-200,4,2,99,5,0,0
108244,-133.333333333333,4,2,4,60,0,0
111732,-133.333333333333,4,2,99,5,0,0
111819,-133.333333333333,4,2,4,60,0,0
111906,-133.333333333333,4,2,4,30,0,0
111994,-133.333333333333,4,2,4,60,0,0
113476,-200,4,2,4,60,0,0
113738,-200,4,2,99,5,0,0
113825,-133.333333333333,4,2,4,60,0,0
119406,-166.666666666667,4,2,3,55,0,0
129697,-100,4,2,4,60,0,0
129872,-100,4,2,4,62,0,0
129959,-100,4,2,4,40,0,0
130046,-100,4,2,4,62,0,0
130133,-100,4,2,4,40,0,0
130220,-100,4,2,72,64,0,0
130308,-100,4,2,72,66,0,0
130395,-100,4,2,72,68,0,0
130482,-100,4,2,72,70,0,0
130569,-86.9565217391304,4,2,1,72,0,1
141383,-86.9565217391304,4,2,1,70,0,0
141732,-86.9565217391304,4,2,1,75,0,1
141906,-86.9565217391304,4,2,2,75,0,1
147313,-86.9565217391304,4,2,1,75,0,1
147488,-86.9565217391304,4,2,2,75,0,1
152895,-100,4,2,1,70,0,0
152982,-100,4,2,55,70,0,0
157081,-100,4,2,1,70,0,0
157168,-100,4,2,55,70,0,0
157430,-100,4,2,1,70,0,0
157517,-100,4,2,55,70,0,0
158127,-100,4,2,1,70,0,0
158476,-100,4,2,55,72,0,0
163709,-100,4,2,55,75,0,0
164058,-133.333333333333,4,2,18,60,0,0
172430,-133.333333333333,4,2,18,62,0,0
172604,-133.333333333333,4,2,4,62,0,0
172779,-133.333333333333,4,2,18,62,0,0
172953,-133.333333333333,4,2,4,64,0,0
173127,-133.333333333333,4,2,18,64,0,0
173302,-100,4,2,3,70,0,0
173389,-100,4,2,3,40,0,0
173476,-100,4,2,3,70,0,0
173563,-100,4,2,3,40,0,0
173651,-100,4,2,3,70,0,0
173738,-100,4,2,3,40,0,0
173825,-100,4,2,3,70,0,0
173912,-100,4,2,3,40,0,0
173999,-166.666666666667,4,2,18,70,0,0
174087,-166.666666666667,4,2,18,40,0,0
174174,-166.666666666667,4,2,18,70,0,0
174261,-166.666666666667,4,2,18,40,0,0
174348,-166.666666666667,4,2,3,65,0,0
174435,-166.666666666667,4,2,3,67,0,0
174523,-166.666666666667,4,2,3,70,0,0
174697,-166.666666666667,4,2,3,55,0,0
174872,-133.333333333333,4,2,98,70,0,0
174893,-133.333333333333,4,2,98,50,0,0
175220,-76.9230769230769,4,2,1,60,0,1
175308,-76.9230769230769,4,2,1,60,0,0
175569,-83.3333333333333,4,2,1,75,0,1
175744,-83.3333333333333,4,2,2,75,0,1
180627,-83.3333333333333,4,2,2,70,0,0
180802,-83.3333333333333,4,2,1,77,0,1
180976,-83.3333333333333,4,2,2,77,0,1
185162,-100,4,2,1,75,0,0
185860,-100,4,2,18,70,0,0
186383,-100,4,2,1,65,0,0
186558,-100,4,2,40,65,0,0
191965,-90.9090909090909,4,2,1,67,0,0
192139,-90.9090909090909,4,2,12,67,0,0
194755,-125,4,2,98,70,0,0
194930,-200,4,2,1,50,0,0
195627,-200,4,2,1,40,0,0
196325,-200,4,2,1,35,0,0
197023,-200,4,2,1,30,0,0
197197,-1000,4,2,1,25,0,0
197546,-200,4,2,99,5,0,0

[Colours]
Combo1 : 185,150,245
Combo2 : 250,85,85
Combo3 : 100,130,190
Combo4 : 250,170,200

[HitObjects]
25,111,1500,5,4,1:2:0:0:
120,95,1848,1,0,1:2:0:0:
134,192,2197,1,0,1:2:0:0:
39,206,2546,1,0,1:2:0:0:
134,192,2895,5,0,1:2:0:0:
230,177,3244,1,0,1:2:0:0:
244,273,3593,2,0,L|155:286,1,79.9999952316285,0|0,1:2|0:0,0:0:0:0:
157,286,3854,1,8,2:2:0:0:
149,287,3941,5,8,0:3:0:0:
230,177,4116,1,8,0:2:0:0:
340,258,4290,5,0,1:2:0:0:
244,273,4639,1,0,1:2:0:0:
259,368,4988,1,0,1:2:0:0:
354,354,5337,1,0,1:2:0:0:
259,368,5686,5,4,0:3:0:0:
252,321,5860,1,8,0:3:0:0:
244,273,6034,1,4,0:3:0:0:
292,265,6209,1,8,0:3:0:0:
340,258,6383,1,4,0:3:0:0:
410,273,6558,5,8,0:2:0:0:
410,273,6645,1,8,0:2:0:0:
410,273,6732,1,8,0:2:0:0:
410,273,6819,1,8,0:2:0:0:
410,273,6906,1,8,0:2:0:0:
410,273,6994,1,8,0:2:0:0:
410,273,7081,1,0,0:2:0:0:
410,273,7779,6,0,P|440:201|410:129,1,159.999990463257,6|8,1:1|0:2,0:0:0:0:
265,201,8302,2,0,L|345:201,1,79.9999952316285,6|0,0:1|1:2,0:0:0:0:
306,50,8651,5,6,0:2:0:0:
210,105,8825,1,10,0:2:0:0:
306,50,8999,2,0,L|386:50,1,79.9999952316285,6|0,0:1|1:2,0:0:0:0:
265,201,9348,5,6,0:2:0:0:
210,105,9523,1,10,0:2:0:0:
265,201,9697,2,0,L|265:281,1,79.9999952316285,6|0,0:1|1:2,0:0:0:0:
210,105,10046,5,6,0:1:0:0:
114,160,10220,2,0,L|33:160,1,79.9999952316285,10|4,0:1|0:2,0:0:0:0:
80,293,10569,5,2,1:2:0:0:
168,333,10744,2,0,P|175:294|168:255,1,79.9999952316285,4|8,0:2|0:2,0:0:0:0:
80,293,11092,2,0,L|0:293,1,79.9999952316285,6|0,0:1|1:2,0:0:0:0:
114,160,11441,5,6,0:2:0:0:
80,293,11616,1,10,0:2:0:0:
114,160,11790,2,0,L|114:64,1,79.9999952316285,6|0,0:1|1:2,0:0:0:0:
247,195,12139,5,6,0:2:0:0:
114,160,12313,1,10,0:2:0:0:
247,195,12488,2,0,L|343:195,1,79.9999952316285,6|0,0:1|1:0,0:0:0:0:
259,306,12837,5,6,0:1:0:0:
342,210,13011,1,10,0:2:0:0:
342,210,13098,1,8,0:2:0:0:
342,210,13185,1,8,0:2:0:0:
342,210,13273,1,8,0:2:0:0:
342,210,13360,5,4,1:1:0:0:
429,252,13534,2,0,P|438:209|429:166,1,87.9999974403381,4|8,0:2|0:2,0:0:0:0:
340,294,13883,2,0,P|331:251|340:209,1,87.9999974403381,6|0,0:1|1:2,0:0:0:0:
420,352,14232,5,6,0:2:0:0:
429,252,14406,1,10,0:2:0:0:
340,208,14581,2,0,P|298:200|255:208,1,87.9999974403381,6|0,2:1|1:2,0:0:0:0:
95,285,14930,5,6,0:2:0:0:
211,325,15104,1,10,0:2:0:0:
254,208,15279,2,0,P|262:165|254:122,1,87.9999974403381,6|0,0:1|1:2,0:0:0:0:
211,325,15627,5,6,0:2:0:0:
254,208,15802,2,0,P|296:199|339:207,1,87.9999974403381,10|4,0:1|0:2,0:0:0:0:
480,289,16151,5,2,1:2:0:0:
425,208,16325,2,0,P|382:199|339:207,1,87.9999974403381,4|8,0:2|0:2,0:0:0:0:
382,384,16674,2,0,L|382:296,1,87.9999974403381,6|0,0:1|1:2,0:0:0:0:
413,107,17023,5,6,0:2:0:0:
339,206,17197,1,10,0:2:0:0:
290,92,17372,2,0,L|290:4,1,87.9999974403381,6|0,0:1|1:2,0:0:0:0:
339,206,17720,5,6,0:2:0:0:
290,92,17895,1,10,0:2:0:0:
216,191,18069,2,0,L|216:279,1,87.9999974403381,6|8,0:1|0:2,0:0:0:0:
290,92,18418,5,6,0:2:0:0:
168,78,18592,1,8,0:2:0:0:
155,73,18680,1,8,0:2:0:0:
142,68,18767,1,8,0:2:0:0:
129,63,18854,1,8,0:2:0:0:
116,58,18941,6,0,L|10:58,1,89.9999980688095,4|2,1:2|0:2,0:0:0:0:
29,61,19290,2,0,P|32:91|29:121,1,59.9999987125397,10|0,0:2|0:2,0:0:0:0:
0,200,19639,1,0,1:2:0:0:
82,186,19813,2,0,P|111:181|140:187,1,59.9999987125397,2|8,0:2|0:2,0:0:0:0:
240,242,20162,6,0,P|218:187|239:132,1,119.999997425079,2|2,0:2|0:2,0:0:0:0:
300,187,20685,1,8,0:2:0:0:
378,161,20860,1,0,0:2:0:0:
395,81,21034,1,0,1:2:0:0:
334,26,21209,1,0,0:2:0:0:
317,106,21383,1,8,0:2:0:0:
473,56,21732,6,0,L|519:56,1,39.9999991416931,2|2,1:2|0:2,0:0:0:0:
505,91,21965,1,2,0:2:0:0:
498,126,22081,2,0,L|498:190,1,59.9999987125397,10|2,0:2|0:2,0:0:0:0:
498,270,22430,2,0,L|498:302,2,29.9999993562698,2|2|2,1:2|0:2|0:2,0:0:0:0:
425,227,22779,2,0,P|395:221|366:227,1,59.9999987125397,10|2,0:2|0:2,0:0:0:0:
316,334,23127,5,0,1:2:0:0:
287,255,23302,1,2,0:2:0:0:
211,347,23476,1,8,0:2:0:0:
203,263,23651,1,2,0:2:0:0:
105,332,23825,1,0,1:2:0:0:
119,248,23999,1,8,0:2:0:0:
120,236,24087,1,8,0:2:0:0:
121,224,24174,6,2,L|121:179,1,44.9999990344048,0|0,1:1|0:2,0:1:0:0:
111,135,24523,6,0,P|82:140|53:134,1,59.9999987125397,0|0,1:2|0:2,0:0:0:0:
86,55,24872,2,0,P|115:50|144:56,1,59.9999987125397,8|0,0:2|0:2,0:0:0:0:
195,123,25220,1,0,1:2:0:0:
245,189,25395,2,0,P|274:195|303:190,1,59.9999987125397,2|8,0:2|0:2,0:0:0:0:
386,111,25744,6,0,L|386:231,1,119.999997425079,2|2,0:2|0:2,0:0:0:0:
386,243,26180,1,2,0:2:0:0:
386,255,26267,2,0,L|386:315,1,59.9999987125397,10|0,0:2|0:2,0:0:0:0:
454,364,26616,1,0,1:2:0:0:
462,280,26790,1,0,0:2:0:0:
386,315,26965,1,8,0:2:0:0:
470,197,27313,6,0,L|470:149,1,29.9999993562698,2|2,1:2|0:2,0:0:0:0:
485,133,27488,2,0,L|485:85,1,29.9999993562698,2|2,0:2|0:2,0:0:0:0:
500,70,27662,2,0,L|500:-4,1,59.9999987125397,10|2,0:2|0:2,0:0:0:0:
416,64,28011,6,0,L|368:64,1,29.9999993562698,2|2,1:2|0:2,0:0:0:0:
352,48,28185,2,0,L|304:48,1,29.9999993562698,2|2,0:2|0:2,0:0:0:0:
289,32,28360,2,0,L|215:31,1,59.9999987125397,10|2,0:2|0:2,0:0:0:0:
118,75,28709,5,0,1:2:0:0:
195,109,28883,1,2,0:2:0:0:
51,125,29058,1,8,0:2:0:0:
118,75,29232,1,2,0:2:0:0:
60,208,29406,1,0,1:2:0:0:
51,125,29581,1,2,0:2:0:0:
137,241,29755,1,8,0:2:0:0:
60,208,29930,1,2,0:2:0:0:
205,192,30104,6,0,L|365:192,1,159.999990463257,6|8,1:1|0:2,0:0:0:0:
288,352,30627,2,0,P|280:312|287:273,1,79.9999952316285,6|0,0:1|1:2,0:0:0:0:
365,192,30976,5,6,0:2:0:0:
287,273,31151,1,10,0:2:0:0:
365,192,31325,2,0,P|371:152|364:113,1,79.9999952316285,6|0,0:1|1:2,0:0:0:0:
253,96,31674,5,6,0:2:0:0:
364,113,31848,1,10,0:2:0:0:
253,96,32023,2,0,L|157:96,1,79.9999952316285,6|0,0:1|1:2,0:0:0:0:
364,113,32372,5,6,1:1:0:0:
253,96,32546,2,0,P|246:56|253:17,1,79.9999952316285,10|4,2:1|0:2,0:0:0:0:
401,203,32895,5,2,1:2:0:0:
364,113,33069,2,0,P|403:106|442:114,1,79.9999952316285,4|8,0:2|0:2,0:0:0:0:
290,186,33418,2,0,P|250:192|211:184,1,79.9999952316285,6|0,0:1|1:2,0:0:0:0:
103,99,33767,5,6,0:2:0:0:
211,184,33941,1,10,0:2:0:0:
103,99,34116,2,0,L|103:3,1,79.9999952316285,6|0,2:1|1:2,0:0:0:0:
25,124,34465,6,0,P|21:99|23:74,1,49.9999970197678,4|0,2:1|0:2,0:0:0:0:
103,99,34639,2,0,P|106:122|103:147,1,49.9999970197678,10|0,0:1|0:2,0:0:0:0:
27,173,34813,2,0,P|23:148|25:124,1,49.9999970197678,6|0,0:1|0:2,0:0:0:0:
103,148,34988,2,0,P|106:171|103:196,1,49.9999970197678,2|0,1:1|0:2,0:0:0:0:
44,252,35162,5,6,0:2:0:0:
181,221,35337,1,8,0:2:0:0:
256,342,35511,1,8,0:2:0:0:
256,342,35598,1,8,0:2:0:0:
256,342,35685,5,6,1:2:0:0:
345,302,35860,2,0,L|441:302,1,79.9999952316285,4|8,0:2|0:2,0:0:0:0:
255,341,36209,2,0,P|249:302|256:263,1,79.9999952316285,6|0,0:1|1:2,0:0:0:0:
405,208,36558,5,6,0:2:0:0:
345,302,36732,1,10,0:2:0:0:
405,208,36906,2,0,P|412:168|406:129,1,79.9999952316285,6|0,0:1|1:2,0:0:0:0:
300,91,37255,5,6,0:2:0:0:
406,129,37430,1,10,0:2:0:0:
300,91,37604,2,0,L|220:91,1,79.9999952316285,6|0,0:1|1:2,0:0:0:0:
311,219,37953,5,6,0:1:0:0:
406,129,38127,2,0,P|412:89|407:50,1,79.9999952316285,10|4,0:1|0:2,0:0:0:0:
220,91,38476,5,2,1:2:0:0:
130,52,38651,2,0,L|50:52,1,79.9999952316285,4|8,0:2|0:2,0:0:0:0:
220,91,38999,2,0,P|225:51|218:12,1,79.9999952316285,6|0,0:1|1:2,0:0:0:0:
142,150,39348,5,6,0:2:0:0:
130,52,39523,1,10,0:2:0:0:
224,95,39697,5,6,0:1:0:0:
224,95,39872,1,4,0:2:0:0:
142,150,40046,6,0,P|123:152|103:149,1,39.9999976158142,10|8,0:2|0:2,0:0:0:0:
130,52,40220,2,0,P|137:33|150:18,1,39.9999976158142,10|8,0:2|0:2,0:0:0:0:
224,95,40395,2,0,P|236:110|242:129,2,39.9999976158142,10|8|8,0:1|0:2|0:2,0:0:0:0:
150,18,40744,5,2,1:2:0:0:
102,149,40918,1,14,0:2:0:0:
102,149,41267,6,0,L|102:231,1,59.9999987125397,4|2,1:1|0:2,0:0:0:0:
102,221,41529,1,2,0:2:0:0:
102,232,41616,2,0,L|102:314,1,59.9999987125397,10|0,0:2|0:2,0:0:0:0:
152,359,41965,2,0,L|184:359,1,29.9999993562698,0|0,1:2|0:2,0:0:0:0:
211,338,42139,2,0,P|240:333|269:339,1,59.9999987125397,2|8,0:2|0:2,0:0:0:0:
354,381,42488,6,0,L|354:253,1,119.999997425079,2|2,0:2|0:2,0:0:0:0:
354,248,42924,1,2,0:2:0:0:
354,236,43011,2,0,L|354:172,1,59.9999987125397,10|0,0:2|0:2,0:0:0:0:
413,116,43360,1,0,1:2:0:0:
472,56,43534,2,0,P|474:41|472:26,1,29.9999993562698,0|0,0:2|0:2,0:0:0:0:
440,9,43709,2,0,L|376:9,1,59.9999987125397,8|0,0:2|0:2,0:0:0:0:
308,53,44058,6,0,P|293:54|278:53,1,29.9999993562698,2|2,1:2|0:2,0:0:0:0:
243,43,44232,2,0,P|228:41|213:43,1,29.9999993562698,2|2,0:2|0:2,0:0:0:0:
184,64,44406,2,0,L|184:128,1,59.9999987125397,10|2,0:2|0:2,0:0:0:0:
142,199,44755,6,0,P|127:198|112:199,1,29.9999993562698,2|2,1:2|0:2,0:0:0:0:
77,209,44930,2,0,P|62:211|47:209,1,29.9999993562698,2|2,0:2|0:2,0:0:0:0:
18,188,45104,2,0,L|18:124,1,59.9999987125397,10|2,0:2|0:2,0:0:0:0:
47,13,45453,5,0,1:2:0:0:
90,85,45627,1,0,0:2:0:0:
191,25,45802,1,8,0:2:0:0:
171,105,45976,1,0,0:2:0:0:
284,133,46151,1,0,1:2:0:0:
214,176,46325,1,8,0:2:0:0:
206,192,46412,1,8,0:2:0:0:
198,208,46499,6,0,L|198:273,1,59.9999964237214,2|0,0:2|0:2,0:0:0:0:
227,296,46848,6,0,P|256:291|285:297,1,59.9999987125397,0|2,1:2|0:2,0:0:0:0:
355,343,47197,2,0,P|384:348|413:342,1,59.9999987125397,8|2,0:2|0:2,0:0:0:0:
467,277,47546,1,0,1:2:0:0:
433,198,47720,2,0,P|431:183|433:168,2,29.9999993562698,2|2|10,0:2|0:2|0:2,0:0:0:0:
493,126,48069,6,0,L|373:126,1,119.999997425079,2|2,0:2|0:2,0:0:0:0:
360,126,48505,1,2,0:2:0:0:
348,126,48592,2,0,L|288:126,1,59.9999987125397,10|2,0:2|0:2,0:0:0:0:
233,190,48941,1,0,1:2:0:0:
150,174,49116,1,2,0:2:0:0:
122,94,49290,2,0,L|122:56,2,29.9999993562698,8|0|0,0:2|0:2|0:2,0:0:0:0:
67,159,49639,6,0,L|37:159,1,29.9999993562698,2|2,1:2|0:2,0:0:0:0:
95,238,49901,1,2,0:2:0:0:
100,249,49988,2,0,L|100:323,1,59.9999987125397,10|2,0:2|0:2,0:0:0:0:
179,337,50337,6,0,L|179:367,1,29.9999993562698,2|2,1:2|0:2,0:0:0:0:
258,309,50598,1,2,0:2:0:0:
269,304,50685,2,0,L|343:304,1,59.9999987125397,10|2,0:2|0:2,0:0:0:0:
461,256,51034,5,0,1:2:0:0:
377,233,51209,1,2,0:2:0:0:
453,115,51383,1,8,0:2:0:0:
509,183,51558,1,2,0:2:0:0:
377,233,51732,1,0,1:2:0:0:
373,146,51906,1,2,0:2:0:0:
509,183,52081,1,8,0:2:0:0:
461,256,52255,1,2,0:2:0:0:
453,115,52430,5,0,1:2:0:0:
453,115,52779,1,0,1:2:0:0:
453,115,53127,1,0,1:2:0:0:
453,115,53476,5,2,1:2:0:0:
389,72,53651,1,2,0:2:0:0:
319,105,53825,1,2,1:2:0:0:
319,105,54174,5,2,1:2:0:0:
249,138,54348,1,2,0:2:0:0:
185,95,54523,2,0,L|109:95,1,67.9999972438812,2|6,1:2|0:3,0:0:0:0:
103,95,54784,1,4,0:3:0:0:
89,95,54872,1,8,0:3:0:0:
19,128,55046,1,8,0:2:0:0:
28,204,55220,5,0,1:2:0:0:
28,204,55569,1,0,1:2:0:0:
28,204,55918,1,0,1:2:0:0:
28,204,56267,5,2,1:2:0:0:
92,161,56441,1,2,0:2:0:0:
162,194,56616,1,2,1:2:0:0:
162,194,56965,5,2,1:2:0:0:
232,227,57139,1,2,0:2:0:0:
296,184,57313,2,0,L|372:184,1,67.9999972438812,2|6,1:2|0:3,0:0:0:0:
378,184,57575,1,4,0:3:0:0:
392,184,57662,1,8,0:3:0:0:
462,217,57837,1,8,0:2:0:0:
453,293,58011,5,4,1:2:0:0:
453,293,58360,1,0,1:2:0:0:
453,293,58709,1,0,1:2:0:0:
453,293,59058,5,2,1:2:0:0:
462,217,59232,1,2,0:2:0:0:
471,141,59406,1,2,1:2:0:0:
471,141,59755,5,2,1:2:0:0:
410,93,59930,1,2,0:2:0:0:
350,47,60104,2,0,L|254:47,1,67.9999972438812,2|6,1:2|0:3,0:0:0:0:
268,47,60366,1,4,0:3:0:0:
254,47,60453,1,8,0:3:0:0:
207,108,60627,1,8,0:2:0:0:
134,82,60802,5,2,1:2:0:0:
134,82,61151,5,2,1:2:0:0:
148,159,61325,1,2,0:2:0:0:
134,236,61499,1,2,1:2:0:0:
134,236,61848,5,6,2:2:0:0:
74,132,62023,1,2,2:2:0:0:
209,56,62197,1,6,2:3:0:0:
148,159,62372,1,10,2:3:0:0:
14,82,62546,1,6,2:3:0:0:
134,82,62720,1,10,2:3:0:0:
134,236,62895,6,0,L|134:346,1,79.9999952316285,4|8,1:2|0:2,0:0:0:0:
143,328,63156,1,8,0:2:0:0:
154,339,63244,2,0,P|173:341|193:339,1,39.9999976158142,8|8,0:2|0:2,0:0:0:0:
264,304,63418,2,0,P|283:301|303:303,1,39.9999976158142,8|8,0:2|0:2,0:0:0:0:
387,349,63592,6,0,P|430:356|474:340,1,91.9999962711334,4|2,1:1|0:2,0:0:0:0:
488,322,63854,1,2,0:2:0:0:
495,301,63941,2,0,L|488:205,1,91.9999962711334,10|0,0:2|0:2,0:0:0:0:
453,84,64290,1,2,1:2:0:0:
327,53,64465,1,0,0:2:0:0:
236,147,64639,2,0,P|191:160|147:151,1,91.9999962711334,10|0,0:2|0:2,0:0:0:0:
2,274,64988,6,0,P|44:258|89:266,1,91.9999962711334,0|0,1:2|0:2,0:0:0:0:
100,280,65249,1,2,0:2:0:0:
108,296,65337,1,10,0:2:0:0:
225,348,65511,1,0,0:2:0:0:
343,303,65685,1,0,1:2:0:0:
395,188,65860,1,0,0:2:0:0:
347,67,66034,2,0,B|324:34|340:-2|340:-2|349:7|356:19,1,91.9999962711334,10|0,0:2|0:2,0:0:0:0:
394,188,66383,6,0,P|352:202|307:195,1,91.9999962711334,0|0,1:2|0:2,0:0:0:0:
288,181,66645,1,2,0:2:0:0:
268,169,66732,2,0,P|223:161|180:176,1,91.9999962711334,10|0,0:2|0:2,0:0:0:0:
224,349,67081,5,0,1:2:0:0:
230,257,67255,1,0,0:2:0:0:
100,216,67430,5,10,0:2:0:0:
94,306,67604,1,0,0:2:0:0:
243,361,67779,5,2,1:2:0:0:
249,269,67953,1,0,0:2:0:0:
81,203,68127,5,10,0:2:0:0:
75,295,68302,1,0,0:2:0:0:
262,373,68476,6,0,B|319:369|319:369|376:335|376:335|435:331,1,183.999992542267,2|8,1:2|0:2,0:0:0:0:
397,71,69174,6,0,P|382:113|389:158,1,91.9999962711334,4|0,1:2|0:2,0:0:0:0:
436,330,69523,2,0,P|443:285|428:242,1,91.9999962711334,10|0,0:2|0:2,0:0:0:0:
307,198,69872,1,2,1:2:0:0:
192,253,70046,1,2,0:2:0:0:
71,210,70220,2,0,P|56:167|63:122,1,91.9999962711334,10|2,0:2|0:2,0:0:0:0:
217,88,70569,5,2,1:2:0:0:
152,160,70744,1,0,0:2:0:0:
72,25,70918,1,8,0:2:0:0:
63,121,71092,1,0,0:2:0:0:
169,4,71267,1,2,1:2:0:0:
217,88,71441,1,0,0:2:0:0:
72,25,71616,2,0,B|-26:18,1,91.9999962711334,10|0,0:2|0:2,0:0:0:0:
217,88,71965,5,0,1:2:0:0:
70,129,72139,1,2,0:2:0:0:
70,129,72226,1,2,0:2:0:0:
70,129,72313,2,0,P|54:172|62:217,1,91.9999962711334,10|0,0:2|0:2,0:0:0:0:
214,336,72662,5,2,1:2:0:0:
226,240,72837,1,0,0:2:0:0:
61,216,73011,5,10,0:2:0:0:
151,180,73185,1,0,0:2:0:0:
226,354,73360,5,2,1:2:0:0:
238,258,73534,1,0,0:2:0:0:
39,209,73709,5,10,0:2:0:0:
130,171,73883,1,0,0:2:0:0:
93,342,74058,5,10,0:2:0:0:
93,342,74232,1,8,0:2:0:0:
39,209,74406,5,8,0:2:0:0:
37,199,74494,1,8,0:2:0:0:
35,189,74581,1,8,0:2:0:0:
33,179,74668,1,8,0:2:0:0:
31,169,74755,6,0,L|24:73,1,91.9999962711334,4|4,1:1|0:2,0:0:0:0:
123,262,75104,2,0,L|130:166,1,91.9999962711334,8|4,0:2|0:2,0:0:0:0:
215,355,75453,5,0,1:2:0:0:
123,262,75627,1,4,0:2:0:0:
249,228,75802,2,0,L|345:221,1,91.9999962711334,10|4,0:2|0:2,0:0:0:0:
448,120,76151,5,0,1:2:0:0:
348,229,76325,1,6,0:2:0:0:
348,229,76412,1,2,0:2:0:0:
348,229,76499,1,10,0:2:0:0:
364,82,76674,1,4,0:2:0:0:
437,210,76848,5,0,1:2:0:0:
302,149,77023,1,4,0:2:0:0:
202,258,77197,2,0,P|157:266|114:251,1,91.9999962711334,10|4,0:2|0:2,0:0:0:0:
46,93,77546,5,0,1:2:0:0:
165,169,77720,1,6,0:2:0:0:
165,169,77808,1,2,0:2:0:0:
165,169,77895,2,0,L|171:77,1,91.9999962711334,10|4,0:2|0:2,0:0:0:0:
52,184,78244,5,2,1:2:0:0:
45,92,78418,1,4,0:2:0:0:
174,188,78592,5,10,0:2:0:0:
181,96,78767,1,4,0:2:0:0:
42,204,78941,5,2,1:2:0:0:
35,112,79116,1,4,0:2:0:0:
184,207,79290,5,8,0:2:0:0:
191,115,79465,1,4,0:2:0:0:
36,228,79639,5,2,1:2:0:0:
36,228,79813,1,4,0:2:0:0:
24,131,79988,2,0,L|16:27,1,91.9999962711334,8|4,0:2|0:2,0:0:0:0:
184,207,80337,6,0,P|226:191|271:198,1,91.9999962711334,4|4,1:2|0:2,0:0:0:0:
436,238,80685,2,0,P|393:254|349:247,1,91.9999962711334,10|4,0:2|0:2,0:0:0:0:
256,110,81034,5,0,1:2:0:0:
388,158,81209,1,4,0:2:0:0:
271,198,81383,5,10,0:2:0:0:
373,70,81558,1,4,0:2:0:0:
436,238,81732,2,0,L|429:333,1,91.9999962711334,2|4,1:2|0:2,0:0:0:0:
271,198,82081,5,10,0:2:0:0:
388,158,82255,1,4,0:2:0:0:
280,294,82430,5,2,1:2:0:0:
280,294,82604,1,4,0:2:0:0:
271,198,82779,2,0,L|264:102,1,91.9999962711334,8|4,0:2|0:2,0:0:0:0:
460,61,83127,6,0,P|417:77|373:70,1,91.9999962711334,2|4,1:2|0:2,0:0:0:0:
195,14,83476,5,10,0:2:0:0:
264,106,83651,1,4,0:2:0:0:
141,141,83825,5,2,1:2:0:0:
186,35,83999,1,4,0:2:0:0:
255,126,84174,5,10,0:2:0:0:
132,161,84348,1,4,0:2:0:0:
268,239,84523,5,2,1:1:0:0:
123,181,84697,1,4,0:2:0:0:
264,106,84872,5,10,0:1:0:0:
114,201,85046,1,4,0:2:0:0:
73,39,85220,5,10,0:2:0:0:
73,39,85395,1,8,0:2:0:0:
8,161,85569,5,8,0:2:0:0:
6,171,85656,1,8,0:2:0:0:
4,181,85744,1,8,0:2:0:0:
2,191,85831,1,8,0:2:0:0:
0,201,85918,1,4,0:2:0:0:
0,201,88534,5,4,0:2:0:0:
2,191,88622,1,4,0:2:0:0:
4,181,88709,1,4,0:2:0:0:
4,181,91151,5,8,0:2:0:0:
4,181,91499,5,4,1:1:0:0:
91,222,91674,2,0,P|99:180|91:137,1,87.9999974403381,4|8,0:2|0:2,0:0:0:0:
48,310,92023,2,0,P|91:319|134:310,1,87.9999974403381,6|0,0:1|1:2,0:0:0:0:
179,180,92372,5,6,0:2:0:0:
90,136,92546,1,10,0:2:0:0:
4,94,92720,2,0,P|-3:137|4:181,1,87.9999974403381,6|0,2:1|1:2,0:0:0:0:
179,180,93069,5,6,0:2:0:0:
91,222,93244,1,10,0:2:0:0:
3,267,93418,2,0,P|-4:224|4:181,1,87.9999974403381,6|0,0:1|1:2,0:0:0:0:
94,320,93767,5,6,0:2:0:0:
179,180,93941,2,0,P|186:223|179:266,1,87.9999974403381,10|4,0:1|0:2,0:0:0:0:
90,136,94290,5,2,1:2:0:0:
179,180,94465,2,0,P|222:189|265:181,1,87.9999974403381,4|8,0:2|0:2,0:0:0:0:
223,4,94813,2,0,L|223:92,1,87.9999974403381,6|0,0:1|1:2,0:0:0:0:
305,270,95162,5,6,0:2:0:0:
391,183,95337,1,10,0:2:0:0:
308,93,95511,2,0,P|265:84|222:91,1,87.9999974403381,6|0,0:1|1:2,0:0:0:0:
391,183,95860,5,6,0:2:0:0:
308,93,96034,1,10,0:2:0:0:
404,16,96209,2,0,P|446:7|489:14,1,87.9999974403381,6|8,0:1|0:2,0:0:0:0:
308,93,96558,5,6,0:2:0:0:
196,40,96732,1,8,0:2:0:0:
183,35,96819,1,8,0:2:0:0:
170,30,96906,1,8,0:2:0:0:
157,25,96994,1,8,0:2:0:0:
143,19,97081,6,0,P|101:8|58:19,1,89.9999980688095,4|2,1:2|0:2,0:0:0:0:
62,23,97430,2,0,L|62:83,1,59.9999987125397,10|0,0:2|0:2,0:0:0:0:
38,163,97779,1,0,1:2:0:0:
14,243,97953,2,0,L|14:303,1,59.9999987125397,2|8,0:2|0:2,0:0:0:0:
96,223,98302,6,0,P|150:201|205:223,1,119.999997425079,2|2,0:2|0:2,0:0:0:0:
211,232,98738,1,2,0:0:0:0:
216,242,98825,1,10,0:2:0:0:
255,316,98999,1,0,0:2:0:0:
334,340,99174,1,0,1:2:0:0:
406,301,99348,1,0,0:2:0:0:
429,222,99523,1,8,0:2:0:0:
319,94,99872,6,0,L|319:62,1,29.9999993562698,2|2,1:2|0:2,0:0:0:0:
402,18,100133,1,2,0:2:0:0:
402,18,100220,2,0,L|466:18,1,59.9999987125397,10|2,0:2|0:2,0:0:0:0:
485,116,100569,6,0,L|485:148,1,29.9999993562698,2|2,1:2|0:2,0:0:0:0:
457,169,100744,2,0,L|457:201,1,29.9999993562698,2|2,0:2|0:0,0:0:0:0:
429,222,100918,2,0,L|429:286,1,59.9999987125397,10|2,0:2|0:2,0:0:0:0:
336,358,101267,5,0,1:2:0:0:
328,274,101441,1,2,1:2:0:0:
242,193,101616,1,8,0:2:0:0:
233,277,101790,1,2,0:2:0:0:
152,353,101965,1,0,1:2:0:0:
143,269,102139,1,8,0:2:0:0:
134,253,102226,1,8,0:2:0:0:
124,236,102313,6,0,P|82:224|40:236,1,89.9999980688095,2|0,0:2|0:2,0:0:0:0:
17,256,102662,6,0,L|17:320,1,59.9999987125397,0|0,1:2|0:2,0:0:0:0:
76,375,103011,2,0,L|136:375,1,59.9999987125397,8|0,0:2|0:2,0:0:0:0:
195,315,103360,1,0,1:2:0:0:
254,255,103534,2,0,L|254:195,1,59.9999987125397,2|8,0:2|0:2,0:0:0:0:
313,97,103883,6,0,P|258:118|203:96,1,119.999997425079,2|2,0:2|0:2,0:0:0:0:
196,87,104319,1,2,0:2:0:0:
189,75,104406,2,0,P|160:70|131:75,1,59.9999987125397,10|0,0:2|0:2,0:0:0:0:
68,131,104755,1,0,1:2:0:0:
51,48,104930,1,8,0:2:0:0:
131,75,105104,1,8,1:2:0:0:
20,201,105453,5,8,2:2:0:0:
20,201,105540,1,8,2:2:0:0:
20,201,105627,1,8,2:2:0:0:
20,201,105715,1,8,2:2:0:0:
20,201,105802,2,0,L|20:275,1,59.9999987125397,8|8,2:2|2:2,0:0:0:0:
138,293,106151,5,8,2:2:0:0:
138,293,106238,1,8,2:2:0:0:
138,293,106325,1,8,2:2:0:0:
138,293,106412,1,8,2:2:0:0:
138,293,106499,2,0,L|138:367,1,59.9999987125397,8|8,2:2|2:2,0:0:0:0:
214,256,106848,5,4,1:2:0:0:
138,293,107023,1,2,0:2:0:0:
176,180,107197,1,8,0:2:0:0:
214,256,107372,1,2,0:2:0:0:
101,218,107546,2,0,L|101:186,1,29.9999993562698,2|0,1:2|0:2,0:0:0:0:
176,180,107720,1,2,0:2:0:0:
138,293,107895,6,0,L|138:353,1,59.9999987125397,2|0,0:2|0:2,0:0:0:0:
138,377,108244,5,4,1:2:0:0:
219,355,108418,1,2,0:2:0:0:
230,351,108505,1,2,0:2:0:0:
241,347,108592,2,0,L|301:347,1,59.9999987125397,10|0,0:2|0:2,0:0:0:0:
383,362,108941,1,0,1:2:0:0:
423,289,109116,2,0,L|423:229,1,59.9999987125397,2|8,0:2|0:2,0:0:0:0:
478,126,109465,6,0,P|423:148|369:126,1,119.999997425079,2|2,0:2|0:2,0:0:0:0:
360,117,109901,1,2,0:0:0:0:
351,108,109988,1,10,0:2:0:0:
312,32,110162,1,0,0:2:0:0:
226,27,110337,1,0,1:2:0:0:
178,98,110511,1,8,0:2:0:0:
215,175,110685,1,8,1:2:0:0:
90,277,111034,6,0,L|58:277,1,29.9999993562698,2|2,1:2|0:2,0:0:0:0:
33,252,111209,2,0,L|33:220,1,29.9999993562698,2|2,0:2|0:2,0:0:0:0:
19,188,111383,1,10,0:2:0:0:
67,119,111558,2,0,P|71:89|67:59,1,59.9999987125397,2|0,0:2|0:2,0:0:0:0:
96,39,111819,2,0,P|125:43|155:39,1,59.9999987125397,2|2,0:2|0:0,0:0:0:0:
186,20,112081,2,0,P|215:15|245:19,1,59.9999987125397,10|2,0:2|0:2,0:0:0:0:
356,58,112430,5,0,1:2:0:0:
281,94,112604,1,2,1:2:0:0:
385,160,112779,1,8,0:2:0:0:
303,175,112953,1,2,0:2:0:0:
386,265,113127,1,0,1:2:0:0:
303,258,113302,1,8,0:2:0:0:
286,265,113389,1,8,0:2:0:0:
269,272,113476,6,0,L|204:272,1,59.9999964237214,2|0,0:2|0:2,0:0:0:0:
186,257,113825,6,0,P|182:228|185:198,1,59.9999987125397,0|0,1:2|0:2,0:0:0:0:
203,115,114174,2,0,P|206:85|202:55,1,59.9999987125397,8|0,0:2|0:2,0:0:0:0:
126,18,114523,1,0,1:2:0:0:
202,55,114697,2,0,P|231:58|261:54,1,59.9999987125397,2|8,0:2|0:2,0:0:0:0:
356,9,115046,6,0,L|356:129,1,119.999997425079,2|2,0:2|0:2,0:0:0:0:
356,141,115482,1,2,0:2:0:0:
356,152,115569,2,0,L|356:216,1,59.9999987125397,10|0,0:2|0:2,0:0:0:0:
358,296,115918,1,0,1:2:0:0:
430,253,116092,1,8,0:2:0:0:
504,294,116267,1,8,1:2:0:0:
358,296,116616,6,0,L|294:296,1,59.9999987125397,2|2,1:2|0:2,0:0:0:0:
288,303,116877,1,2,0:2:0:0:
277,308,116965,2,0,L|203:308,1,59.9999987125397,10|2,0:2|0:2,0:0:0:0:
142,347,117313,2,0,L|112:347,1,29.9999993562698,2|2,1:2|0:2,0:0:0:0:
76,355,117488,2,0,L|46:355,1,29.9999993562698,2|2,0:2|0:2,0:0:0:0:
17,333,117662,2,0,P|13:303|17:273,1,59.9999987125397,10|2,0:2|0:2,0:0:0:0:
154,223,118011,5,0,1:2:0:0:
70,208,118185,1,2,0:2:0:0:
94,61,118360,1,8,0:2:0:0:
124,142,118534,1,2,0:2:0:0:
8,46,118709,1,0,1:2:0:0:
94,61,118883,6,0,L|124:61,1,29.9999993562698,4|4,0:3|0:3,0:0:0:0:
124,142,119058,2,0,L|153:141,1,29.9999993562698,8|8,0:3|0:3,0:0:0:0:
147,222,119232,2,0,L|176:221,1,29.9999993562698,8|8,0:3|0:3,0:0:0:0:
246,164,119406,6,0,P|248:140|246:116,2,47.9999956741335,6|2|2,1:2|0:2|1:2,0:0:0:0:
176,220,119930,1,2,0:2:0:0:
175,232,120017,1,2,0:2:0:0:
141,301,120191,1,2,0:2:0:0:
140,313,120279,1,2,0:2:0:0:
79,360,120453,1,2,1:2:0:0:
15,316,120627,1,2,0:2:0:0:
37,242,120802,6,0,P|38:218|36:194,1,47.9999956741335,2|2,1:2|0:2,0:0:0:0:
14,120,121151,1,2,1:2:0:0:
67,64,121325,1,2,0:2:0:0:
141,81,121499,2,0,L|205:81,1,47.9999956741335,2|4,1:2|0:3,0:0:0:0:
200,85,121761,1,4,0:3:0:0:
210,91,121848,2,0,L|274:91,1,47.9999956741335,8|8,0:3|0:2,0:0:0:0:
312,145,122197,6,0,L|312:209,2,47.9999956741335,2|2|2,1:2|0:2|1:2,0:0:0:0:
366,90,122720,1,2,0:2:0:0:
369,78,122808,1,2,0:2:0:0:
439,108,122982,1,2,0:2:0:0:
450,104,123069,1,2,0:2:0:0:
475,176,123244,1,2,1:2:0:0:
436,242,123418,1,2,0:2:0:0:
360,254,123592,6,0,L|296:254,1,47.9999956741335,2|2,1:2|0:2,0:0:0:0:
236,237,123941,1,2,1:2:0:0:
195,172,124116,1,2,0:2:0:0:
211,97,124290,2,0,L|211:33,1,47.9999956741335,2|4,1:2|0:3,0:0:0:0:
205,37,124552,1,4,0:3:0:0:
195,30,124639,2,0,L|164:30,1,23.9999978370667,8|8,0:3|0:3,0:0:0:0:
140,60,124813,2,0,L|109:60,1,23.9999978370667,8|8,0:3|0:3,0:0:0:0:
85,90,124988,6,0,L|21:90,2,47.9999956741335,6|2|2,1:2|0:2|1:2,0:0:0:0:
146,151,125511,1,2,0:2:0:0:
150,161,125598,1,2,0:2:0:0:
112,227,125773,1,2,0:2:0:0:
108,237,125860,1,2,0:2:0:0:
119,313,126034,1,2,1:2:0:0:
191,342,126209,1,2,0:2:0:0:
252,294,126383,6,0,P|275:292|299:293,1,47.9999956741335,2|2,1:2|0:2,0:0:0:0:
364,335,126732,1,2,1:2:0:0:
432,299,126906,1,2,0:2:0:0:
434,222,127081,2,0,L|434:158,1,47.9999956741335,2|4,1:2|0:3,0:0:0:0:
438,162,127342,1,4,0:3:0:0:
442,150,127430,2,0,L|442:86,1,47.9999956741335,8|8,0:3|0:2,0:0:0:0:
417,22,127779,6,0,P|440:24|464:22,2,47.9999956741335,2|2|2,1:2|0:2|1:2,0:0:0:0:
351,61,128302,1,2,0:2:0:0:
348,72,128389,1,2,0:2:0:0:
283,112,128563,1,2,0:2:0:0:
272,115,128651,1,2,0:2:0:0:
204,78,128825,1,2,1:2:0:0:
137,118,128999,1,2,0:2:0:0:
138,196,129174,6,0,L|138:304,1,95.9999913482669,6|0,1:2|0:2,0:0:0:0:
217,355,129697,5,2,0:2:0:0:
217,355,129784,1,2,0:2:0:0:
217,355,129872,2,0,P|236:350|255:349,1,39.9999976158142,2|0,0:2|0:2,0:0:0:0:
335,354,130046,2,0,P|354:353|373:347,1,39.9999976158142,2|0,2:2|2:2,0:0:0:0:
430,291,130220,5,2,0:2:0:0:
437,272,130308,1,2,0:2:0:0:
444,253,130395,1,2,0:2:0:0:
451,234,130482,1,2,0:2:0:0:
458,215,130569,6,0,L|463:123,1,91.9999962711334,4|2,1:1|0:2,0:0:0:0:
457,100,130831,1,2,0:2:0:0:
446,77,130918,2,0,P|403:65|358:72,1,91.9999962711334,10|0,0:2|0:2,0:0:0:0:
274,172,131267,1,2,1:2:0:0:
153,124,131441,1,0,0:2:0:0:
69,224,131616,2,0,P|24:236|-20:228,1,91.9999962711334,10|0,0:2|0:2,0:0:0:0:
101,43,131965,6,0,P|143:27|188:35,1,91.9999962711334,0|0,1:2|0:2,0:0:0:0:
202,46,132226,1,2,0:2:0:0:
214,60,132313,1,10,0:2:0:0:
274,172,132488,1,0,0:2:0:0:
400,194,132662,1,0,1:2:0:0:
494,108,132837,1,0,0:2:0:0:
400,194,133011,2,0,L|393:288,1,91.9999962711334,10|0,0:2|0:2,0:0:0:0:
173,346,133360,6,0,L|166:254,1,91.9999962711334,0|2,1:2|0:2,0:0:0:0:
163,235,133622,1,2,0:2:0:0:
156,217,133709,2,0,P|111:209|68:224,1,91.9999962711334,10|0,0:2|0:2,0:0:0:0:
287,82,134058,5,0,1:2:0:0:
195,76,134232,1,0,0:2:0:0:
156,217,134406,5,10,0:2:0:0:
246,223,134581,1,0,0:2:0:0:
299,63,134755,5,2,1:2:0:0:
207,57,134930,1,0,0:2:0:0:
143,236,135104,5,10,0:2:0:0:
235,242,135279,1,0,0:2:0:0:
311,44,135453,6,0,P|357:126|392:73,1,183.999992542267,2|8,1:2|0:2,0:0:0:0:
422,348,136151,6,0,P|437:305|429:260,1,91.9999962711334,4|0,1:2|0:2,0:0:0:0:
391,86,136499,2,0,P|407:129|399:174,1,91.9999962711334,10|0,0:2|0:2,0:0:0:0:
341,296,136848,1,2,1:2:0:0:
206,309,137023,1,2,0:2:0:0:
127,198,137197,2,0,P|111:155|119:110,1,91.9999962711334,10|2,0:2|0:2,0:0:0:0:
315,42,137546,5,2,1:2:0:0:
241,147,137720,1,2,0:2:0:0:
241,147,137808,1,2,0:2:0:0:
241,147,137895,1,10,0:2:0:0:
118,110,138069,1,0,0:2:0:0:
44,215,138244,1,2,1:2:0:0:
120,317,138418,1,0,0:2:0:0:
239,276,138592,2,0,P|284:268|327:284,1,91.9999962711334,10|0,0:2|0:2,0:0:0:0:
120,317,138941,5,0,1:2:0:0:
51,222,139116,1,2,0:2:0:0:
51,222,139203,1,2,0:2:0:0:
51,222,139290,2,0,L|44:126,1,91.9999962711334,10|0,0:2|0:2,0:0:0:0:
238,106,139639,5,2,1:2:0:0:
178,30,139813,1,0,0:2:0:0:
44,130,139988,5,10,0:2:0:0:
83,41,140162,1,0,0:2:0:0:
259,111,140337,5,2,1:2:0:0:
199,34,140511,1,0,0:2:0:0:
24,140,140685,5,10,0:2:0:0:
61,49,140860,1,0,0:2:0:0:
151,196,141034,5,10,0:2:0:0:
151,196,141209,1,8,0:2:0:0:
259,111,141383,5,8,0:2:0:0:
269,110,141470,1,8,0:2:0:0:
279,109,141558,1,8,0:2:0:0:
289,108,141645,1,8,0:2:0:0:
299,107,141732,6,0,L|396:100,1,91.9999962711334,4|4,1:1|0:2,0:0:0:0:
199,34,142081,2,0,L|101:40,1,91.9999962711334,8|4,0:2|0:2,0:0:0:0:
0,197,142430,5,0,1:2:0:0:
22,52,142604,1,4,0:2:0:0:
136,143,142779,2,0,L|227:148,1,91.9999962711334,10|4,0:2|0:2,0:0:0:0:
22,52,143127,5,0,1:2:0:0:
0,197,143302,1,4,0:2:0:0:
114,288,143476,1,8,0:2:0:0:
136,143,143651,1,4,0:2:0:0:
30,275,143825,5,0,1:2:0:0:
54,131,143999,1,4,0:2:0:0:
166,222,144174,2,0,B|193:252|195:283|195:283|208:254,1,91.9999962711334,10|4,0:2|0:2,0:0:0:0:
280,73,144523,5,0,1:2:0:0:
372,214,144697,1,6,0:2:0:0:
372,214,144784,1,2,0:2:0:0:
372,214,144872,1,10,0:2:0:0:
472,89,145046,5,6,0:2:0:0:
472,89,145133,1,2,0:0:0:0:
472,89,145220,1,2,1:2:0:0:
377,126,145395,1,4,0:2:0:0:
467,251,145569,5,10,0:2:0:0:
372,214,145744,1,4,0:2:0:0:
462,68,145918,5,2,1:2:0:0:
367,105,146092,1,4,0:2:0:0:
450,266,146267,5,8,0:2:0:0:
355,229,146441,1,4,0:2:0:0:
452,47,146616,5,2,1:2:0:0:
452,47,146790,1,4,0:2:0:0:
357,84,146965,2,0,L|253:76,1,91.9999962711334,8|4,0:2|0:2,0:0:0:0:
186,294,147313,6,0,P|203:252|197:207,1,91.9999962711334,4|4,1:2|0:2,0:0:0:0:
17,235,147662,2,0,L|109:242,1,91.9999962711334,10|4,0:2|0:2,0:0:0:0:
285,172,148011,5,0,1:2:0:0:
123,149,148185,1,4,0:2:0:0:
271,265,148360,5,10,0:2:0:0:
109,242,148534,1,4,0:2:0:0:
285,172,148709,2,0,L|292:77,1,91.9999962711334,2|4,1:2|0:2,0:0:0:0:
271,265,149058,5,10,0:2:0:0:
123,149,149232,1,4,0:2:0:0:
182,290,149406,5,2,1:2:0:0:
182,290,149581,1,4,0:2:0:0:
285,172,149755,2,0,L|381:179,1,91.9999962711334,8|4,0:2|0:2,0:0:0:0:
497,293,150104,5,2,1:2:0:0:
376,178,150279,1,4,0:2:0:0:
512,192,150453,5,10,0:2:0:0:
360,262,150627,1,4,0:2:0:0:
402,91,150802,5,2,1:2:0:0:
512,192,150976,1,4,0:2:0:0:
376,178,151151,5,10,0:2:0:0:
509,108,151325,1,4,0:2:0:0:
331,39,151499,5,2,1:1:0:0:
365,197,151674,1,4,0:2:0:0:
185,71,151848,5,10,0:1:0:0:
251,216,152023,1,4,0:2:0:0:
52,133,152197,5,10,0:2:0:0:
52,133,152372,1,8,0:2:0:0:
138,261,152546,5,8,0:2:0:0:
143,274,152633,1,8,0:2:0:0:
148,287,152720,1,8,0:2:0:0:
153,300,152808,1,8,0:2:0:0:
158,313,152895,6,0,L|150:371,3,39.9999976158142,6|2|6|2,1:2|0:2|0:2|0:2,0:0:0:0:
78,382,153244,2,0,P|52:382|38:377,3,39.9999976158142,10|2|6|2,0:2|0:2|0:2|0:2,0:0:0:0:
19,299,153592,5,2,1:2:0:0:
19,278,153680,1,2,0:2:0:0:
19,257,153767,1,6,0:2:0:0:
19,236,153854,1,2,0:2:0:0:
19,215,153941,2,0,L|26:151,3,39.9999976158142,10|2|6|2,0:2|0:2|0:2|0:2,0:0:0:0:
87,125,154290,6,0,P|106:123|126:129,3,39.9999976158142,2|2|6|2,1:2|0:2|0:2|0:2,0:0:0:0:
196,169,154639,2,0,P|215:174|235:173,3,39.9999976158142,10|2|6|2,0:2|0:2|0:2|0:2,0:0:0:0:
305,134,154988,5,2,1:2:0:0:
317,118,155075,1,2,0:2:0:0:
323,99,155162,1,6,0:2:0:0:
328,79,155249,1,2,0:2:0:0:
324,59,155337,2,0,L|316:-4,3,39.9999976158142,10|2|6|2,0:2|0:2|0:2|0:2,0:0:0:0:
239,20,155685,5,2,1:2:0:0:
219,24,155773,1,2,0:2:0:0:
199,28,155860,1,6,0:2:0:0:
179,32,155947,1,2,0:2:0:0:
159,36,156034,2,0,L|96:28,3,39.9999976158142,10|2|6|2,0:2|0:2|0:2|0:2,0:0:0:0:
54,80,156383,5,2,1:2:0:0:
50,100,156470,1,2,0:2:0:0:
46,120,156558,1,6,0:2:0:0:
42,140,156645,1,2,0:2:0:0:
38,160,156732,2,0,L|46:223,3,39.9999976158142,10|2|6|2,0:2|0:2|0:2|0:2,0:0:0:0:
97,260,157081,6,0,P|119:248|144:242,1,39.9999976158142,6|2,1:2|0:2,0:0:0:0:
216,278,157255,1,10,0:2:0:0:
216,278,157342,1,10,0:2:0:0:
216,278,157430,2,0,P|233:288|252:294,1,39.9999976158142,6|2,1:2|0:2,0:0:0:0:
327,266,157604,5,10,0:2:0:0:
331,253,157691,1,10,0:2:0:0:
333,240,157779,1,10,0:2:0:0:
332,226,157866,1,10,0:2:0:0:
331,213,157953,1,10,0:2:0:0:
333,200,158040,1,10,0:2:0:0:
335,187,158127,1,14,0:2:0:0:
469,349,158476,6,0,L|477:291,3,39.9999976158142,2|2|6|2,1:2|0:2|0:2|0:2,0:0:0:0:
465,229,158825,2,0,L|457:171,3,39.9999976158142,10|2|6|2,0:2|0:2|0:2|0:2,0:0:0:0:
466,109,159174,5,2,1:2:0:0:
453,93,159261,1,2,0:2:0:0:
439,78,159348,1,6,0:2:0:0:
425,63,159435,1,2,0:2:0:0:
407,52,159523,2,0,L|343:45,3,39.9999976158142,10|2|6|2,0:2|0:2|0:2|0:2,0:0:0:0:
294,84,159872,6,0,P|275:86|255:83,3,39.9999976158142,2|2|6|2,1:2|0:2|0:2|0:2,0:0:0:0:
185,44,160220,2,0,P|165:40|145:43,3,39.9999976158142,10|2|6|2,0:2|0:2|0:2|0:2,0:0:0:0:
167,120,160569,5,2,1:2:0:0:
175,137,160656,1,2,0:2:0:0:
183,155,160744,1,6,0:2:0:0:
189,173,160831,1,2,0:2:0:0:
193,192,160918,2,0,L|185:255,3,39.9999976158142,10|2|6|2,0:2|0:2|0:2|0:2,0:0:0:0:
130,286,161267,5,2,1:2:0:0:
110,282,161354,1,2,0:2:0:0:
90,278,161441,1,6,0:2:0:0:
70,274,161529,1,2,0:2:0:0:
50,270,161616,2,0,L|-13:278,3,39.9999976158142,10|2|6|2,0:2|0:2|0:2|0:2,0:0:0:0:
21,194,161965,5,2,1:2:0:0:
25,174,162052,1,2,0:2:0:0:
29,154,162139,1,6,0:2:0:0:
33,134,162226,1,2,0:2:0:0:
37,114,162313,2,0,L|29:51,3,39.9999976158142,10|2|6|2,0:2|0:2|0:2|0:2,0:0:0:0:
96,26,162662,6,0,P|115:21|143:20,1,39.9999976158142,2|2,1:2|0:2,0:0:0:0:
207,55,162837,2,0,P|226:61|245:62,1,39.9999976158142,6|2,0:2|0:2,0:0:0:0:
353,105,163011,6,0,L|314:103,1,39.9999976158142,10|2,0:2|0:2,0:0:0:0:
210,156,163185,2,0,P|229:149|248:146,1,39.9999976158142,6|2,0:2|0:2,0:0:0:0:
356,184,163360,6,0,L|317:182,1,39.9999976158142,2|2,1:2|0:2,0:0:0:0:
218,243,163534,2,0,P|233:230|251:222,1,39.9999976158142,10|2,0:2|0:2,0:0:0:0:
352,320,163709,5,10,0:2:0:0:
352,320,163796,1,10,0:2:0:0:
352,320,163883,1,10,0:2:0:0:
352,320,163970,1,10,0:2:0:0:
352,320,164058,5,4,1:2:0:0:
448,192,164406,1,8,0:2:0:0:
448,192,164581,1,8,0:2:0:0:
384,96,164930,5,0,1:2:0:0:
448,192,165104,1,8,0:2:0:0:
512,128,165279,1,2,0:3:0:0:
387,100,165453,5,0,1:2:0:0:
387,100,165627,1,0,1:2:0:0:
452,196,165802,1,8,0:2:0:0:
452,196,165976,1,8,0:2:0:0:
320,288,166325,5,0,1:2:0:0:
256,192,166499,1,8,0:2:0:0:
192,256,166674,1,2,0:3:0:0:
320,288,166848,5,0,1:2:0:0:
456,200,167197,1,8,0:2:0:0:
456,200,167372,1,8,0:2:0:0:
320,288,167720,5,0,1:2:0:0:
256,192,167895,1,8,0:2:0:0:
320,128,168069,1,2,0:3:0:0:
192,96,168244,5,0,1:2:0:0:
192,96,168418,1,0,1:2:0:0:
260,196,168592,1,8,0:2:0:0:
260,196,168767,1,8,0:2:0:0:
128,288,169116,5,0,1:2:0:0:
56,200,169290,1,8,0:2:0:0:
96,128,169465,1,2,0:3:0:0:
32,32,169639,5,4,1:2:0:0:
60,204,169988,1,8,0:2:0:0:
60,204,170162,1,8,0:2:0:0:
192,96,170511,5,0,1:2:0:0:
256,192,170685,1,8,0:2:0:0:
192,256,170860,1,2,0:3:0:0:
320,288,171034,5,0,1:2:0:0:
320,288,171209,1,0,1:2:0:0:
260,195,171383,1,8,0:2:0:0:
260,195,171558,1,8,0:2:0:0:
387,100,171906,5,0,1:2:0:0:
452,196,172081,1,8,0:2:0:0:
512,128,172255,1,2,0:3:0:0:
448,32,172430,5,4,1:2:0:0:
387,100,172604,1,2,0:2:0:0:
374,107,172691,1,2,0:2:0:0:
361,115,172779,1,8,0:2:0:0:
288,64,172953,1,2,0:2:0:0:
275,57,173040,1,2,0:2:0:0:
262,49,173127,1,8,0:2:0:0:
160,32,173302,6,0,P|137:32|105:42,1,39.9999976158142,10|8,0:2|0:2,0:0:0:0:
156,119,173476,2,0,P|175:119|195:115,1,39.9999976158142,10|8,0:2|0:2,0:0:0:0:
120,35,173651,6,0,P|100:46|77:71,1,39.9999976158142,10|8,0:2|0:2,0:0:0:0:
125,143,173825,2,0,P|141:133|156:120,1,39.9999976158142,10|8,0:2|0:2,0:0:0:0:
19,112,173999,6,0,L|7:91,1,23.9999978370667,10|8,0:2|0:2,0:0:0:0:
101,143,174174,2,0,L|125:143,1,23.9999978370667,10|8,0:2|0:2,0:0:0:0:
33,198,174348,2,0,L|21:218,2,23.9999978370667,8|8|8,0:2|0:2|0:2,0:0:0:0:
87,57,174697,5,2,0:2:0:0:
19,112,174872,2,0,L|4:112,6,14.9999996781349,4|0|0|0|0|0|0,0:2|0:2|0:2|0:2|0:2|0:2|0:2,0:0:0:0:
87,57,175220,6,0,B|109:48|109:48|136:54,1,51.9999945201877,2|0,0:2|0:2,0:0:0:0:
195,114,175395,2,0,B|222:120|222:120|244:111,1,51.9999945201877,2|0,0:2|0:2,0:0:0:0:
296,49,175569,5,12,0:2:0:0:
306,163,175744,1,4,0:2:0:0:
385,32,175918,5,0,1:2:0:0:
244,111,176092,1,4,0:2:0:0:
389,175,176267,2,0,L|485:186,1,95.9999913482669,10|4,0:2|0:2,0:0:0:0:
244,111,176616,6,0,L|147:99,1,95.9999913482669,0|4,1:2|0:2,0:0:0:0:
125,105,176877,1,2,0:2:0:0:
102,113,176965,1,10,0:2:0:0:
55,244,177139,1,4,0:2:0:0:
15,102,177313,5,0,1:2:0:0:
126,197,177488,1,4,0:2:0:0:
244,111,177662,2,0,L|250:15,1,95.9999913482669,10|4,0:2|0:2,0:0:0:0:
102,113,178011,5,0,1:2:0:0:
95,17,178185,1,4,0:2:0:0:
270,30,178360,5,8,0:2:0:0:
263,126,178534,1,4,0:2:0:0:
124,120,178709,5,2,1:2:0:0:
117,24,178883,1,4,0:2:0:0:
290,45,179058,5,10,0:2:0:0:
283,141,179232,1,4,0:2:0:0:
451,182,179406,5,2,1:2:0:0:
477,89,179581,1,4,0:2:0:0:
270,30,179755,5,8,0:2:0:0:
263,126,179930,1,4,0:2:0:0:
471,195,180104,5,2,1:2:0:0:
471,195,180279,1,4,0:2:0:0:
497,102,180453,2,0,L|505:-2,1,95.9999913482669,8|4,0:2|0:2,0:0:0:0:
270,30,180802,6,0,P|226:14|179:21,1,95.9999913482669,4|4,1:2|0:2,0:0:0:0:
213,217,181151,2,0,P|257:233|304:226,1,95.9999913482669,10|4,0:2|0:2,0:0:0:0:
270,30,181499,5,0,1:2:0:0:
151,127,181674,1,4,0:2:0:0:
304,225,181848,5,10,0:2:0:0:
422,127,182023,1,4,0:2:0:0:
447,278,182197,2,0,L|453:376,1,95.9999913482669,2|4,1:2|0:2,0:0:0:0:
304,225,182546,5,10,0:2:0:0:
422,127,182720,1,4,0:2:0:0:
270,30,182895,5,2,1:2:0:0:
270,30,183069,1,4,0:2:0:0:
151,127,183244,2,0,L|144:225,1,95.9999913482669,8|4,0:2|0:2,0:0:0:0:
42,29,183592,5,2,1:2:0:0:
151,127,183767,1,4,0:2:0:0:
0,118,183941,5,10,0:2:0:0:
156,29,184116,1,4,0:2:0:0:
69,185,184290,5,2,1:2:0:0:
42,29,184465,1,4,0:2:0:0:
164,147,184639,5,10,0:2:0:0:
0,118,184813,1,4,0:2:0:0:
169,9,184988,5,10,1:2:0:0:
177,167,185162,1,8,0:2:0:0:
364,36,185860,5,8,0:2:0:0:
292,181,186034,1,8,0:2:0:0:
292,181,186383,6,0,P|364:211|436:181,1,159.999990463257,6|8,1:1|0:2,0:0:0:0:
364,36,186906,2,0,L|364:116,1,79.9999952316285,6|0,0:1|1:2,0:0:0:0:
196,126,187255,5,6,0:2:0:0:
292,181,187430,1,10,0:2:0:0:
196,126,187604,2,0,L|116:126,1,79.9999952316285,6|0,0:1|1:2,0:0:0:0:
237,277,187953,5,6,0:2:0:0:
292,181,188127,1,10,0:2:0:0:
237,277,188302,2,0,L|237:357,1,79.9999952316285,6|0,0:1|1:2,0:0:0:0:
292,181,188651,5,6,0:1:0:0:
388,236,188825,2,0,L|469:236,1,79.9999952316285,10|4,0:1|0:2,0:0:0:0:
292,181,189174,5,2,1:2:0:0:
253,93,189348,2,0,P|292:86|331:93,1,79.9999952316285,4|8,0:2|0:2,0:0:0:0:
167,132,189697,2,0,P|160:93|167:54,1,79.9999952316285,6|0,0:1|1:2,0:0:0:0:
339,11,190046,5,6,0:2:0:0:
253,93,190220,1,10,0:2:0:0:
339,11,190395,2,0,L|435:11,1,79.9999952316285,6|0,0:1|1:2,0:0:0:0:
335,179,190744,5,6,0:2:0:0:
253,93,190918,1,10,0:2:0:0:
335,179,191092,2,0,L|335:275,1,79.9999952316285,6|0,0:1|1:0,0:0:0:0:
253,93,191441,5,6,0:1:0:0:
350,193,191616,1,10,0:2:0:0:
350,193,191703,1,8,0:2:0:0:
350,193,191790,1,8,0:2:0:0:
350,193,191877,1,8,0:2:0:0:
350,193,191965,5,4,1:1:0:0:
437,235,192139,2,0,P|446:192|437:149,1,87.9999974403381,4|8,0:2|0:2,0:0:0:0:
253,93,192488,2,0,L|157:93,1,87.9999974403381,6|0,0:1|1:2,0:0:0:0:
21,258,192837,5,6,0:2:0:0:
121,267,193011,1,10,0:2:0:0:
165,178,193185,2,0,P|173:136|165:93,1,87.9999974403381,6|0,2:1|1:2,0:0:0:0:
121,267,193534,5,6,0:2:0:0:
165,178,193709,1,10,0:2:0:0:
263,192,193883,2,0,L|368:192,1,87.9999974403381,6|0,0:1|1:2,0:0:0:0:
467,312,194232,5,6,0:2:0:0:
512,148,194406,1,10,0:1:0:0:
512,148,194494,1,8,0:0:0:0:
512,148,194581,1,8,0:0:0:0:
512,148,194668,1,8,0:0:0:0:
512,148,194755,1,6,1:2:0:0:
256,192,195279,5,2,0:2:0:0:
256,192,195627,5,2,0:2:0:0:
250,122,195802,1,2,0:2:0:0:
247,52,195976,1,2,0:2:0:0:
247,52,196325,5,2,0:2:0:0:
187,90,196499,1,2,0:2:0:0:
250,123,196674,1,2,0:2:0:0:
250,123,197023,5,2,0:2:0:0:
310,85,197197,2,2,L|327:85,1,15.9999990463257,2|0,0:2|0:2,0:1:0:0:
