osu file format v14

[General]
AudioFilename: audio.mp3
AudioLeadIn: 0
PreviewTime: 164058
Countdown: 0
SampleSet: Soft
StackLeniency: 0.2
Mode: 0
LetterboxInBreaks: 0
WidescreenStoryboard: 0

[Editor]
DistanceSpacing: 1.1
BeatDivisor: 4
GridSize: 32
TimelineZoom: 2.799999

[Metadata]
Title:Buriki no Dance
TitleUnicode:ブリキノダンス
Artist:96neko
ArtistUnicode:96猫
Creator:Lasse
Version:Expert
Source:
Tags:utaite cover 日向電工 Hinata Electric Works
BeatmapID:1253986
BeatmapSetID:588211

[Difficulty]
HPDrainRate:7
CircleSize:5.5
OverallDifficulty:8.5
ApproachRate:9
SliderMultiplier:1.44
SliderTickRate:1

[Events]
//Background and Video events
0,0,"bg.jpg",0,0
//Break Periods
2,86118,87934
2,88909,90551
//Storyboard Layer 0 (Background)
//Storyboard Layer 1 (Fail)
//Storyboard Layer 2 (Pass)
//Storyboard Layer 3 (Foreground)
//Storyboard Sound Samples

[TimingPoints]
1500,348.837209302326,4,2,3,50,1,0
5686,-100,4,2,3,55,0,0
6558,-100,4,2,3,60,0,0
7081,-100,4,2,3,30,0,0
7779,348.837209302326,4,2,1,65,1,0
7866,-100,4,2,40,65,0,0
13360,-90.9090909090909,4,2,1,67,0,0
13534,-90.9090909090909,4,2,12,67,0,0
18941,-133.333333333333,4,2,4,60,0,0
24174,-266.666666666667,4,2,4,60,0,0
24435,-266.666666666667,4,2,99,5,0,0
24523,-133.333333333333,4,2,4,60,0,0
30104,-100,4,2,4,65,0,0
30191,-100,4,2,40,65,0,0
34465,-80,4,2,40,65,0,0
34552,-80,4,2,99,30,0,0
34639,-80,4,2,40,65,0,0
34726,-80,4,2,99,30,0,0
34813,-80,4,2,40,65,0,0
34901,-80,4,2,99,30,0,0
34988,-80,4,2,40,65,0,0
35075,-80,4,2,99,30,0,0
35162,-100,4,2,40,65,0,0
35685,-100,4,2,1,65,0,0
35860,-100,4,2,40,65,0,0
40918,-100,4,2,1,55,0,0
41267,-133.333333333333,4,2,4,60,0,0
42052,-133.333333333333,4,2,4,20,0,0
42139,-133.333333333333,4,2,4,60,0,0
43622,-133.333333333333,4,2,4,20,0,0
43709,-133.333333333333,4,2,4,60,0,0
44494,-133.333333333333,4,2,4,20,0,0
44581,-133.333333333333,4,2,4,60,0,0
44668,-133.333333333333,4,2,4,20,0,0
44755,-133.333333333333,4,2,4,60,0,0
45191,-133.333333333333,4,2,4,20,0,0
45279,-133.333333333333,4,2,4,60,0,0
45366,-133.333333333333,4,2,4,20,0,0
45453,-133.333333333333,4,2,4,60,0,0
46499,-200,4,2,4,60,0,0
46761,-200,4,2,99,5,0,0
46848,-133.333333333333,4,2,4,60,0,0
47110,-133.333333333333,4,2,4,20,0,0
47197,-133.333333333333,4,2,4,60,0,0
47459,-133.333333333333,4,2,4,20,0,0
47546,-133.333333333333,4,2,4,60,0,0
48854,-133.333333333333,4,2,4,20,0,0
48941,-133.333333333333,4,2,4,60,0,0
49203,-133.333333333333,4,2,4,20,0,0
49290,-133.333333333333,4,2,4,60,0,0
49377,-133.333333333333,4,2,4,20,0,0
49639,-133.333333333333,4,2,4,60,0,0
52430,-100,4,2,3,55,0,0
62895,-100,4,2,3,60,0,0
63069,-100,4,2,3,65,0,0
63592,-86.9565217391304,4,2,1,72,0,1
68476,-76.9230769230769,4,2,1,72,0,1
69174,-86.9565217391304,4,2,1,72,0,1
74406,-86.9565217391304,4,2,1,70,0,0
74755,-86.9565217391304,4,2,1,75,0,1
74930,-86.9565217391304,4,2,2,75,0,1
77546,-86.9565217391304,4,2,2,75,0,1
79988,-133.333333333333,4,2,2,75,0,1
80337,-86.9565217391304,4,2,1,75,0,1
80511,-86.9565217391304,4,2,2,75,0,1
82779,-133.333333333333,4,2,2,75,0,1
83127,-76.9230769230769,4,2,2,75,0,1
85918,-100,4,2,1,70,0,0
88534,-100,4,2,2,30,0,0
88622,-100,4,2,2,37,0,0
88709,-100,4,2,44,55,0,0
91151,-100,4,2,2,65,0,0
91499,-90.9090909090909,4,2,1,67,0,0
91674,-90.9090909090909,4,2,12,67,0,0
97081,-133.333333333333,4,2,4,60,0,0
102313,-200,4,2,4,60,0,0
102575,-200,4,2,99,5,0,0
102662,-133.333333333333,4,2,4,60,0,0
107633,-133.333333333333,4,2,4,20,0,0
107720,-133.333333333333,4,2,4,60,0,0
107895,-200,4,2,4,50,0,0
108156,-200,4,2,99,5,0,0
108244,-117.647058823529,4,2,4,60,0,0
111732,-117.647058823529,4,2,99,5,0,0
111819,-117.647058823529,4,2,4,60,0,0
111906,-117.647058823529,4,2,4,30,0,0
111994,-117.647058823529,4,2,4,60,0,0
113476,-200,4,2,4,60,0,0
113738,-200,4,2,99,5,0,0
113825,-117.647058823529,4,2,4,60,0,0
119406,-166.666666666667,4,2,3,55,0,0
129697,-100,4,2,4,60,0,0
129872,-100,4,2,4,62,0,0
129959,-100,4,2,4,40,0,0
130046,-100,4,2,4,62,0,0
130133,-100,4,2,4,40,0,0
130220,-100,4,2,72,64,0,0
130308,-100,4,2,72,66,0,0
130395,-100,4,2,72,68,0,0
130482,-100,4,2,72,70,0,0
130569,-86.9565217391304,4,2,1,72,0,1
135453,-76.9230769230769,4,2,1,72,0,1
136151,-86.9565217391304,4,2,1,72,0,1
141383,-86.9565217391304,4,2,1,70,0,0
141732,-86.9565217391304,4,2,1,75,0,1
141906,-86.9565217391304,4,2,2,75,0,1
146965,-133.333333333333,4,2,2,75,0,1
147313,-86.9565217391304,4,2,1,75,0,1
147488,-86.9565217391304,4,2,2,75,0,1
149755,-133.333333333333,4,2,2,75,0,1
150106,-86.9565217391304,4,2,2,75,0,1
152895,-100,4,2,1,70,0,0
152982,-100,4,2,55,70,0,0
157081,-100,4,2,1,70,0,0
157168,-100,4,2,55,70,0,0
157430,-100,4,2,1,70,0,0
157517,-100,4,2,55,70,0,0
158127,-100,4,2,1,70,0,0
158476,-100,4,2,55,72,0,0
163709,-100,4,2,55,75,0,0
164058,-133.333333333333,4,2,18,60,0,0
172430,-133.333333333333,4,2,18,62,0,0
172604,-133.333333333333,4,2,4,62,0,0
172779,-133.333333333333,4,2,18,62,0,0
172953,-133.333333333333,4,2,4,64,0,0
173127,-133.333333333333,4,2,18,64,0,0
173302,-100,4,2,3,70,0,0
173389,-100,4,2,3,40,0,0
173476,-100,4,2,3,70,0,0
173563,-100,4,2,3,40,0,0
173651,-100,4,2,3,70,0,0
173738,-100,4,2,3,40,0,0
173825,-100,4,2,3,70,0,0
173912,-100,4,2,3,40,0,0
173999,-166.666666666667,4,2,18,70,0,0
174087,-166.666666666667,4,2,18,40,0,0
174174,-166.666666666667,4,2,18,70,0,0
174261,-166.666666666667,4,2,18,40,0,0
174348,-166.666666666667,4,2,3,65,0,0
174435,-166.666666666667,4,2,3,67,0,0
174523,-166.666666666667,4,2,3,70,0,0
174697,-166.666666666667,4,2,3,55,0,0
174872,-133.333333333333,4,2,98,70,0,0
174893,-133.333333333333,4,2,98,50,0,0
175220,-66.6666666666667,4,2,1,60,0,1
175308,-66.6666666666667,4,2,99,20,0,0
175395,-66.6666666666667,4,2,1,60,0,0
175482,-66.6666666666667,4,2,99,20,0,0
175569,-81.3008130081301,4,2,1,75,0,1
175744,-81.3008130081301,4,2,2,75,0,1
180453,-133.333333333333,4,2,2,75,0,1
180627,-81.3008130081301,4,2,2,70,0,0
180802,-81.3008130081301,4,2,1,77,0,1
180976,-81.3008130081301,4,2,2,77,0,1
183244,-133.333333333333,4,2,2,77,0,1
183592,-81.3008130081301,4,2,2,77,0,1
185162,-100,4,2,1,75,0,0
185860,-100,4,2,18,70,0,0
186383,-100,4,2,1,65,0,0
186558,-100,4,2,40,65,0,0
191965,-90.9090909090909,4,2,1,67,0,0
192139,-90.9090909090909,4,2,12,67,0,0
194755,-125,4,2,98,70,0,0
194930,-200,4,2,1,50,0,0
195627,-200,4,2,1,40,0,0
196325,-200,4,2,1,35,0,0
197023,-200,4,2,1,30,0,0
197197,-1000,4,2,1,25,0,0
197546,-200,4,2,99,5,0,0

[Colours]
Combo1 : 185,150,245
Combo2 : 250,85,85
Combo3 : 100,130,190
Combo4 : 250,170,200

[HitObjects]
208,240,1500,5,4,1:2:0:0:
160,288,1848,1,0,1:2:0:0:
208,144,2197,1,0,1:2:0:0:
160,96,2546,1,0,1:2:0:0:
304,144,2895,1,0,1:2:0:0:
352,96,3244,1,0,1:2:0:0:
304,240,3593,5,0,1:2:0:0:
352,288,3854,1,8,2:2:0:0:
352,288,3941,1,8,0:3:0:0:
256,192,4116,1,8,0:2:0:0:
160,288,4290,5,0,1:2:0:0:
160,96,4639,1,0,1:2:0:0:
352,96,4988,1,0,1:2:0:0:
352,288,5337,1,0,1:2:0:0:
256,192,5686,5,4,0:3:0:0:
304,240,5860,1,8,0:3:0:0:
304,144,6034,1,4,0:3:0:0:
208,144,6209,1,8,0:3:0:0:
208,240,6383,1,4,0:3:0:0:
256,328,6558,5,8,0:2:0:0:
256,332,6645,1,8,0:2:0:0:
256,336,6732,1,8,0:2:0:0:
256,340,6819,1,8,0:2:0:0:
256,344,6906,1,8,0:2:0:0:
256,348,6994,1,8,0:2:0:0:
256,352,7081,1,0,0:2:0:0:
256,352,7779,6,0,P|186:303|119:320,1,144,6|8,1:1|0:2,0:0:0:0:
24,226,8302,2,0,L|96:224,1,72,6|0,0:1|1:2,0:0:0:0:
256,192,8651,5,6,0:2:0:0:
179,128,8825,1,10,0:2:0:0:
96,224,8999,2,0,P|90:189|85:151,1,72,6|0,0:1|1:2,0:0:0:0:
256,192,9348,5,6,0:2:0:0:
336,128,9523,1,10,0:2:0:0:
416,224,9697,2,0,P|422:189|427:151,1,72,6|0,0:1|1:2,0:0:0:0:
256,192,10046,5,6,0:1:0:0:
256,16,10220,2,0,L|256:112,1,72,10|4,0:1|0:2,0:0:0:0:
416,224,10569,5,2,1:2:0:0:
426,152,10744,2,0,L|428:80,1,72,4|8,0:2|0:2,0:0:0:0:
416,224,11092,2,0,L|413:295,1,72,6|0,0:1|1:2,0:0:0:0:
256,192,11441,5,6,0:2:0:0:
307,297,11616,1,10,0:2:0:0:
416,224,11790,2,0,P|456:217|495:213,1,72,6|0,0:1|1:2,0:0:0:0:
256,192,12139,5,6,0:2:0:0:
205,297,12313,1,10,0:2:0:0:
96,224,12488,2,0,P|56:217|17:213,1,72,6|0,0:1|1:0,0:0:0:0:
256,192,12837,5,6,0:1:0:0:
256,343,13011,1,10,0:2:0:0:
256,347,13098,1,8,0:2:0:0:
256,351,13185,1,8,0:2:0:0:
256,355,13273,1,8,0:2:0:0:
256,359,13360,5,4,1:1:0:0:
307,297,13534,2,0,P|311:257|319:207,1,79.2000024169923,4|8,0:2|0:2,0:0:0:0:
205,297,13883,2,0,P|200:257|193:207,1,79.2000024169923,6|0,0:1|1:2,0:0:0:0:
79,114,14232,5,6,0:2:0:0:
79,114,14319,1,2,0:2:0:0:
79,114,14406,1,10,0:2:0:0:
24,213,14581,2,0,P|18:252|13:291,1,79.2000024169923,6|0,2:1|1:2,0:0:0:0:
177,96,14930,5,6,0:2:0:0:
194,218,15104,1,10,0:2:0:0:
177,96,15279,2,0,P|172:56|166:17,1,79.2000024169923,6|0,0:1|1:2,0:0:0:0:
103,10,15540,1,2,0:2:0:0:
88,16,15627,5,6,0:2:0:0:
177,96,15802,2,0,P|216:91|256:86,1,79.2000024169923,10|4,0:1|0:2,0:0:0:0:
135,163,16151,5,2,1:2:0:0:
177,96,16325,2,0,P|171:56|166:17,1,79.2000024169923,4|8,0:2|0:2,0:0:0:0:
335,96,16674,2,0,P|340:56|345:17,1,79.2000024169923,6|0,0:1|1:2,0:0:0:0:
384,240,17023,5,6,0:2:0:0:
384,240,17110,1,2,0:2:0:0:
384,240,17197,1,10,0:2:0:0:
448,144,17372,2,0,P|453:104|457:65,1,79.2000024169923,6|0,0:1|1:2,0:0:0:0:
512,236,17720,5,6,0:2:0:0:
448,144,17895,1,10,0:2:0:0:
384,240,18069,2,0,P|377:200|373:161,1,79.2000024169923,6|8,0:1|0:2,0:0:0:0:
385,100,18331,1,2,0:2:0:0:
391,85,18418,5,6,0:2:0:0:
336,16,18592,1,8,0:2:0:0:
316,18,18680,1,8,0:2:0:0:
296,20,18767,1,8,0:2:0:0:
277,23,18854,1,8,0:2:0:0:
257,25,18941,6,0,L|167:18,1,81.0000030899049,4|2,1:2|0:2,0:0:0:0:
179,21,19290,2,0,P|182:48|183:75,1,54.0000020599366,10|0,0:2|0:2,0:0:0:0:
147,143,19639,1,0,1:2:0:0:
70,145,19813,2,0,P|41:140|15:138,1,54.0000020599366,2|8,0:2|0:2,0:0:0:0:
60,251,20162,6,0,P|72:198|70:145,1,108.000004119873,2|2,0:2|0:2,0:0:0:0:
60,251,20685,1,8,0:2:0:0:
134,238,20860,1,0,0:2:0:0:
210,245,21034,1,0,1:2:0:0:
281,271,21209,1,0,0:2:0:0:
342,314,21383,1,8,0:2:0:0:
489,245,21732,5,2,1:2:0:0:
492,227,21848,5,2,0:2:0:0:
495,209,21965,5,2,0:2:0:0:
498,191,22081,5,10,0:2:0:0:
463,124,22255,1,2,0:2:0:0:
504,61,22430,2,0,L|508:30,2,27.0000010299683,2|2|2,1:2|0:2|0:2,0:0:0:0:
463,124,22779,1,10,0:2:0:0:
422,187,22953,1,2,0:2:0:0:
387,119,23127,5,0,1:2:0:0:
463,124,23302,1,2,0:2:0:0:
346,182,23476,5,8,0:2:0:0:
422,187,23651,1,2,0:2:0:0:
305,245,23825,5,0,1:2:0:0:
381,250,23999,2,0,P|393:250|412:255,1,27.0000010299683,8|8,0:2|0:2,0:0:0:0:
301,321,24174,6,2,P|281:317|263:308,1,40.5000015449524,0|0,1:1|0:2,0:1:0:0:
244,289,24523,5,0,1:2:0:0:
236,214,24697,1,0,0:2:0:0:
305,245,24872,1,8,0:2:0:0:
301,321,25046,1,0,0:2:0:0:
240,365,25220,1,0,1:2:0:0:
176,323,25395,2,0,P|149:314|104:317,1,54.0000020599366,2|8,0:2|0:2,0:0:0:0:
121,213,25744,6,0,P|140:262|123:313,1,108.000004119873,2|2,0:2|0:2,0:0:0:0:
117,325,26180,1,2,0:2:0:0:
109,336,26267,1,10,0:2:0:0:
33,332,26441,1,0,0:2:0:0:
65,263,26616,1,0,1:2:0:0:
121,213,26790,1,0,0:2:0:0:
193,190,26965,1,8,0:2:0:0:
65,129,27313,5,2,1:2:0:0:
77,131,27401,1,2,0:2:0:0:
90,133,27488,1,2,0:2:0:0:
103,134,27575,1,2,0:2:0:0:
116,136,27662,1,10,0:2:0:0:
179,95,27837,1,2,0:2:0:0:
116,136,28011,5,2,1:2:0:0:
104,134,28098,1,2,0:2:0:0:
91,132,28185,1,2,0:2:0:0:
78,131,28273,1,2,0:2:0:0:
65,129,28360,1,10,0:2:0:0:
2,170,28534,1,2,0:2:0:0:
65,129,28709,5,0,1:2:0:0:
2,170,28883,1,2,0:2:0:0:
137,106,29058,5,8,0:2:0:0:
65,129,29232,1,2,0:2:0:0:
213,103,29406,5,0,1:2:0:0:
137,106,29581,1,2,0:2:0:0:
288,120,29755,5,8,0:2:0:0:
213,103,29930,1,2,0:2:0:0:
357,156,30104,6,0,P|296:135|256:194,1,144,6|8,1:1|0:2,0:0:0:0:
380,305,30627,2,0,L|387:233,1,72,6|0,0:1|1:2,0:0:0:0:
256,192,30976,5,6,0:2:0:0:
202,277,31151,1,10,0:2:0:0:
126,151,31325,2,0,P|83:145|55:144,1,72,6|0,0:1|1:2,0:0:0:0:
256,192,31674,5,6,0:2:0:0:
310,107,31848,1,10,0:2:0:0:
386,233,32023,2,0,P|429:239|457:240,1,72,6|0,0:1|1:2,0:0:0:0:
256,192,32372,5,6,1:1:0:0:
256,368,32546,2,0,L|256:272,1,72,10|4,2:1|0:2,0:0:0:0:
386,233,32895,5,2,1:2:0:0:
427,297,33069,2,0,L|502:308,1,72,4|8,0:2|0:2,0:0:0:0:
386,233,33418,2,0,L|311:222,1,72,6|0,0:1|1:2,0:0:0:0:
256,368,33767,5,6,0:2:0:0:
356,356,33941,1,10,0:2:0:0:
386,233,34116,2,0,P|393:193|396:154,1,72,6|0,2:1|1:2,0:0:0:0:
208,64,34465,6,0,P|207:42|199:21,1,45,4|0,2:1|0:2,0:0:0:0:
304,64,34639,2,0,P|305:42|313:21,1,45,10|0,0:1|0:2,0:0:0:0:
220,140,34813,6,0,P|195:140|175:133,1,45,6|0,0:1|0:2,0:0:0:0:
292,140,34988,2,0,P|317:140|336:133,1,45,2|0,1:1|0:2,0:0:0:0:
304,64,35162,5,6,0:2:0:0:
220,140,35337,1,8,0:2:0:0:
256,272,35511,1,8,0:2:0:0:
256,276,35598,1,8,0:2:0:0:
256,280,35685,5,6,1:2:0:0:
201,332,35860,2,0,P|161:326|122:322,1,72,4|8,0:2|0:2,0:0:0:0:
311,332,36209,2,0,P|351:326|390:322,1,72,6|0,0:1|1:2,0:0:0:0:
201,332,36558,5,6,0:2:0:0:
256,247,36732,1,10,0:2:0:0:
386,225,36906,2,0,P|391:189|395:153,1,72,6|0,0:1|1:2,0:0:0:0:
311,332,37255,5,6,0:2:0:0:
256,247,37430,1,10,0:2:0:0:
126,225,37604,2,0,P|120:189|116:153,1,72,6|0,0:1|1:2,0:0:0:0:
256,247,37953,5,6,0:1:0:0:
256,112,38127,2,0,L|256:40,1,72,10|4,0:1|0:2,0:0:0:0:
256,247,38476,5,2,1:2:0:0:
184,134,38651,2,0,P|179:98|176:63,1,72,4|8,0:2|0:2,0:0:0:0:
327,134,38999,2,0,P|332:98|336:63,1,72,6|0,0:1|1:2,0:0:0:0:
184,134,39348,5,6,0:2:0:0:
176,63,39523,1,10,0:2:0:0:
327,134,39697,5,6,0:1:0:0:
327,134,39872,1,4,0:2:0:0:
335,62,40046,6,0,P|353:68|369:76,1,36,10|8,0:2|0:2,0:0:0:0:
384,177,40220,2,0,P|370:190|355:199,1,36,10|8,0:2|0:2,0:0:0:0:
260,161,40395,1,10,0:1:0:0:
255,143,40482,1,8,0:2:0:0:
255,125,40569,1,8,0:2:0:0:
327,134,40744,5,2,1:2:0:0:
284,241,40918,1,14,0:2:0:0:
64,64,41267,5,4,1:1:0:0:
26,129,41441,1,2,0:2:0:0:
25,142,41529,1,2,0:2:0:0:
23,155,41616,1,10,0:2:0:0:
49,225,41790,1,0,0:2:0:0:
119,239,41965,2,0,P|131:235|145:232,1,27.0000010299683,0|0,1:2|0:2,0:0:0:0:
173,238,42139,2,0,P|146:242|119:239,1,54.0000020599366,2|8,0:2|0:2,0:0:0:0:
174,132,42488,6,0,B|190:184|158:192|172:238,1,108.000004119873,2|2,0:2|0:2,0:0:0:0:
179,249,42924,1,2,0:2:0:0:
187,259,43011,1,10,0:2:0:0:
237,315,43185,1,0,0:2:0:0:
308,338,43360,1,0,1:2:0:0:
380,322,43534,2,0,P|396:315|413:313,1,27.0000010299683,0|0,0:2|0:2,0:0:0:0:
432,314,43709,2,0,P|406:322|380:322,1,54.0000020599366,8|0,0:2|0:2,0:0:0:0:
339,256,44058,5,2,1:2:0:0:
338,243,44145,1,2,0:2:0:0:
337,230,44232,1,2,0:2:0:0:
336,217,44319,1,2,0:2:0:0:
335,204,44406,6,0,L|337:162,1,27.0000010299683,10|0,0:2|0:2,0:0:0:0:
410,170,44581,2,0,L|408:128,1,27.0000010299683,2|0,0:2|0:2,0:0:0:0:
335,204,44755,5,2,1:2:0:0:
336,217,44842,1,2,0:2:0:0:
337,230,44930,1,2,0:2:0:0:
338,243,45017,1,2,0:2:0:0:
339,256,45104,6,0,L|337:298,1,27.0000010299683,10|0,0:2|0:2,0:0:0:0:
414,290,45279,2,0,L|412:332,1,27.0000010299683,2|0,0:2|0:2,0:0:0:0:
325,358,45453,5,0,1:2:0:0:
338,283,45627,1,0,0:2:0:0:
256,352,45802,5,8,0:2:0:0:
256,276,45976,1,0,0:2:0:0:
187,358,46151,5,0,1:2:0:0:
174,282,46325,2,0,L|173:256,1,27.0000010299683,8|8,0:2|0:2,0:0:0:0:
186,204,46499,6,0,P|175:228|172:255,1,54,2|0,0:2|0:2,0:0:0:0:
174,282,46848,5,0,1:2:0:0:
103,312,47023,2,0,L|100:286,1,27.0000010299683,2|0,0:2|0:2,0:0:0:0:
30,255,47197,5,8,0:2:0:0:
100,286,47372,2,0,L|103:259,1,27.0000010299683,2|0,0:2|0:2,0:0:0:0:
174,282,47546,5,0,1:2:0:0:
103,312,47720,1,2,0:2:0:0:
101,299,47808,1,2,0:2:0:0:
100,286,47895,1,10,0:2:0:0:
30,255,48069,6,0,B|11:227|11:227|1:192|19:154,1,108.000004119873,2|2,0:2|0:2,0:0:0:0:
31,149,48505,1,2,0:2:0:0:
43,145,48592,1,10,0:2:0:0:
114,171,48767,2,0,L|117:145,1,27.0000010299683,2|0,0:2|0:2,0:0:0:0:
189,159,48941,5,0,1:2:0:0:
117,144,49116,2,0,L|114:117,1,27.0000010299683,2|0,0:2|0:2,0:0:0:0:
43,145,49290,2,0,L|40:172,2,27.0000010299683,8|0|0,0:2|0:2|0:2,0:0:0:0:
57,70,49639,5,2,1:2:0:0:
62,57,49726,1,2,0:2:0:0:
136,40,49901,1,2,0:2:0:0:
147,32,49988,1,10,0:2:0:0:
219,54,50162,1,2,0:2:0:0:
147,32,50337,5,2,1:2:0:0:
136,40,50424,1,2,0:2:0:0:
62,57,50598,1,2,0:2:0:0:
57,70,50685,1,10,0:2:0:0:
43,145,50860,1,2,0:2:0:0:
101,195,51034,5,0,1:2:0:0:
43,145,51209,1,2,0:2:0:0:
159,245,51383,5,8,0:2:0:0:
101,195,51558,1,2,0:2:0:0:
217,295,51732,5,0,1:2:0:0:
159,245,51906,1,2,0:2:0:0:
275,345,52081,5,8,0:2:0:0:
217,295,52255,1,2,0:2:0:0:
101,195,52430,5,0,1:2:0:0:
159,245,52779,1,0,1:2:0:0:
217,295,53127,1,0,1:2:0:0:
275,345,53476,5,2,1:2:0:0:
217,295,53651,1,2,0:2:0:0:
159,245,53825,1,2,1:2:0:0:
101,195,54174,5,2,1:2:0:0:
159,145,54348,1,2,0:2:0:0:
217,95,54523,1,2,1:2:0:0:
144,69,54697,5,6,0:3:0:0:
133,67,54784,1,4,0:3:0:0:
122,65,54872,1,8,0:3:0:0:
159,145,55046,1,8,0:2:0:0:
217,95,55220,5,0,1:2:0:0:
293,97,55569,1,0,1:2:0:0:
369,99,55918,1,0,1:2:0:0:
445,101,56267,5,2,1:2:0:0:
369,99,56441,1,2,0:2:0:0:
293,97,56616,1,2,1:2:0:0:
217,95,56965,5,2,1:2:0:0:
253,161,57139,1,2,0:2:0:0:
289,228,57313,1,2,1:2:0:0:
213,226,57488,5,6,0:3:0:0:
202,227,57575,1,4,0:3:0:0:
191,228,57662,1,8,0:3:0:0:
253,161,57837,1,8,0:2:0:0:
289,228,58011,5,4,1:2:0:0:
361,251,58360,1,0,1:2:0:0:
434,274,58709,1,0,1:2:0:0:
507,297,59058,5,2,1:2:0:0:
434,274,59232,1,2,0:2:0:0:
361,251,59406,1,2,1:2:0:0:
289,228,59755,5,2,1:2:0:0:
312,155,59930,1,2,0:2:0:0:
385,178,60104,1,2,1:2:0:0:
361,251,60279,5,6,0:3:0:0:
359,261,60366,1,4,0:3:0:0:
357,271,60453,1,8,0:3:0:0:
289,228,60627,1,8,0:2:0:0:
385,178,60802,5,2,1:2:0:0:
361,251,61151,5,2,1:2:0:0:
312,155,61325,1,2,0:2:0:0:
217,204,61499,1,2,1:2:0:0:
266,300,61848,5,6,2:2:0:0:
158,294,62023,1,2,2:2:0:0:
115,171,62197,1,6,2:3:0:0:
217,204,62372,1,10,2:3:0:0:
298,76,62546,1,6,2:3:0:0:
194,99,62720,1,10,2:3:0:0:
321,181,62895,6,0,L|361:184,1,36,4|0,1:2|0:2,0:0:0:0:
418,111,63069,1,8,0:2:0:0:
420,98,63156,1,8,0:2:0:0:
422,85,63244,1,8,0:2:0:0:
423,72,63331,1,8,0:2:0:0:
425,59,63418,1,8,0:2:0:0:
426,47,63505,1,8,0:2:0:0:
428,33,63592,6,0,P|470:21|509:44,1,82.8000015792847,4|2,1:1|0:2,0:0:0:0:
503,100,63854,1,2,0:2:0:0:
501,116,63941,1,10,0:2:0:0:
428,33,64116,1,0,0:2:0:0:
372,161,64290,5,2,1:2:0:0:
428,33,64465,1,0,0:2:0:0:
491,181,64639,2,0,P|497:140|502:99,1,82.8000015792847,10|0,0:2|0:2,0:0:0:0:
382,357,64988,6,0,P|376:316|371:274,1,82.8000015792847,0|0,1:2|0:2,0:0:0:0:
398,219,65249,1,2,0:2:0:0:
414,213,65337,1,10,0:2:0:0:
475,302,65511,1,0,0:2:0:0:
491,181,65685,5,0,1:2:0:0:
398,219,65860,1,0,0:2:0:0:
299,142,66034,2,0,P|293:101|288:59,1,82.8000015792847,10|0,0:2|0:2,0:0:0:0:
202,324,66383,6,0,P|207:283|212:241,1,82.8000015792847,0|0,1:2|0:2,0:0:0:0:
187,185,66645,1,2,0:2:0:0:
172,177,66732,1,10,0:2:0:0:
85,268,66906,1,0,0:2:0:0:
104,83,67081,5,0,1:2:0:0:
2,166,67255,1,0,0:2:0:0:
85,268,67430,1,10,0:2:0:0:
187,185,67604,1,0,0:2:0:0:
25,90,67779,5,2,1:2:0:0:
9,246,67953,1,0,0:2:0:0:
166,262,68127,1,10,0:2:0:0:
183,106,68302,1,0,0:2:0:0:
85,268,68476,6,0,P|139:339|225:319,1,187.199991430664,2|8,1:2|0:2,0:0:0:0:
480,32,69174,5,4,1:2:0:0:
457,123,69348,1,0,0:2:0:0:
366,100,69523,1,10,0:2:0:0:
389,9,69697,1,0,0:2:0:0:
457,123,69872,6,0,P|477:127|497:128,1,41.4000007896423,2|0,1:2|0:2,0:0:0:0:
366,100,70046,2,0,P|345:95|325:94,1,41.4000007896423,2|0,0:2|0:2,0:0:0:0:
255,144,70220,5,10,0:2:0:0:
247,129,70308,1,2,0:2:0:0:
242,112,70395,1,2,0:2:0:0:
242,95,70482,1,2,0:2:0:0:
244,78,70569,6,0,L|248:31,1,41.4000007896423,2|0,1:2|0:2,0:0:0:0:
366,100,70744,2,0,L|362:147,1,41.4000007896423,0|0,0:2|0:2,0:0:0:0:
270,208,70918,5,8,0:2:0:0:
244,78,71092,1,0,0:2:0:0:
378,15,71267,5,2,1:2:0:0:
362,141,71441,1,0,0:2:0:0:
244,78,71616,2,0,P|204:66|163:62,1,82.8000015792847,10|0,0:2|0:2,0:0:0:0:
458,0,71965,6,0,P|416:3|377:15,1,82.8000015792847,0|2,1:2|0:2,0:0:0:0:
323,46,72226,1,2,0:2:0:0:
319,62,72313,1,10,0:2:0:0:
235,7,72488,1,0,0:2:0:0:
179,177,72662,5,2,1:2:0:0:
163,62,72837,1,0,0:2:0:0:
36,21,73011,5,10,0:2:0:0:
52,136,73185,1,0,0:2:0:0:
195,292,73360,5,2,1:2:0:0:
179,177,73534,1,0,0:2:0:0:
52,136,73709,5,10,0:2:0:0:
68,251,73883,1,0,0:2:0:0:
163,62,74058,5,10,0:2:0:0:
163,62,74232,1,8,0:2:0:0:
163,62,74406,5,8,0:2:0:0:
183,60,74494,1,8,0:2:0:0:
204,59,74581,1,8,0:2:0:0:
225,58,74668,1,8,0:2:0:0:
244,57,74755,6,0,P|284:41|306:3,1,82.8000015792847,4|4,1:1|0:2,0:0:0:0:
191,149,75104,2,0,P|185:190|207:228,1,82.8000015792847,8|4,0:2|0:2,0:0:0:0:
412,198,75453,5,0,1:2:0:0:
269,173,75627,1,4,0:2:0:0:
477,250,75802,2,0,P|496:214|490:174,1,82.8000015792847,10|4,0:2|0:2,0:0:0:0:
362,62,76151,5,0,1:2:0:0:
275,179,76325,1,6,0:2:0:0:
275,179,76412,1,2,0:2:0:0:
275,179,76499,1,10,0:2:0:0:
412,198,76674,1,4,0:2:0:0:
284,91,76848,5,0,1:2:0:0:
424,116,77023,1,4,0:2:0:0:
338,231,77197,2,0,P|325:281|325:317,1,82.8000015792847,10|4,0:2|0:2,0:0:0:0:
269,10,77546,6,0,P|281:49|283:90,1,82.8000015792847,0|6,1:2|0:2,0:0:0:0:
243,139,77808,1,2,0:2:0:0:
233,152,77895,1,10,0:2:0:0:
153,68,78069,1,4,0:2:0:0:
79,202,78244,5,2,1:2:0:0:
153,68,78418,1,4,0:2:0:0:
132,268,78592,5,10,0:2:0:0:
88,119,78767,1,4,0:2:0:0:
217,278,78941,5,2,1:2:0:0:
79,202,79116,1,4,0:2:0:0:
285,225,79290,5,8,0:2:0:0:
132,268,79465,1,4,0:2:0:0:
296,140,79639,5,2,1:2:0:0:
285,225,79813,1,4,0:2:0:0:
217,278,79988,2,0,P|209:315|207:351,1,54.0000020599366,8|4,0:2|0:2,0:0:0:0:
188,118,80337,6,0,P|148:104|107:105,1,82.8000015792847,4|4,1:2|0:2,0:0:0:0:
136,266,80685,2,0,P|175:279|217:278,1,82.8000015792847,10|4,0:2|0:2,0:0:0:0:
296,140,81034,5,0,1:2:0:0:
363,273,81209,1,4,0:2:0:0:
445,149,81383,5,10,0:2:0:0:
363,273,81558,1,4,0:2:0:0:
296,140,81732,2,0,L|291:49,1,82.8000015792847,2|4,1:2|0:2,0:0:0:0:
363,273,82081,5,10,0:2:0:0:
445,149,82255,1,4,0:2:0:0:
363,273,82430,5,2,1:2:0:0:
329,206,82604,1,4,0:2:0:0:
296,140,82779,2,0,P|258:123|225:121,1,54.0000020599366,8|4,0:2|0:2,0:0:0:0:
363,365,83127,6,0,P|407:354|441:321,1,93.5999957153322,2|4,1:2|0:2,0:0:0:0:
246,121,83476,5,10,0:2:0:0:
275,340,83651,1,4,0:2:0:0:
157,187,83825,5,2,1:2:0:0:
363,273,83999,1,4,0:2:0:0:
172,298,84174,5,10,0:2:0:0:
348,163,84348,1,4,0:2:0:0:
207,357,84523,5,2,1:1:0:0:
246,121,84697,1,4,0:2:0:0:
343,340,84872,5,10,0:1:0:0:
246,121,85046,1,4,0:2:0:0:
278,373,85220,5,10,0:2:0:0:
278,373,85395,1,8,0:2:0:0:
278,373,85569,5,8,0:2:0:0:
273,352,85656,1,8,0:2:0:0:
270,331,85744,1,8,0:2:0:0:
268,311,85831,1,8,0:2:0:0:
265,291,85918,5,4,0:2:0:0:
256,192,88534,5,4,0:2:0:0:
256,192,88622,1,4,0:2:0:0:
256,192,88709,1,4,0:2:0:0:
256,192,91151,5,8,0:2:0:0:
256,192,91499,5,4,1:1:0:0:
300,116,91674,2,0,P|310:77|314:38,1,79.2000024169923,4|8,0:2|0:2,0:0:0:0:
212,116,92023,2,0,P|202:77|197:38,1,79.2000024169923,6|0,0:1|1:2,0:0:0:0:
344,193,92372,5,6,0:2:0:0:
344,193,92459,1,2,0:2:0:0:
344,193,92546,1,10,0:2:0:0:
420,112,92720,2,0,P|461:100|508:95,1,79.2000024169923,6|0,2:1|1:2,0:0:0:0:
397,290,93069,5,6,0:2:0:0:
344,193,93244,1,10,0:2:0:0:
420,112,93418,2,0,P|432:71|411:24,1,79.2000024169923,6|0,0:1|1:2,0:0:0:0:
361,15,93680,1,2,0:2:0:0:
345,10,93767,5,6,0:2:0:0:
256,112,93941,2,0,L|256:192,1,79.2000024169923,10|4,0:1|0:2,0:0:0:0:
256,366,94290,5,2,1:2:0:0:
310,308,94465,2,0,P|318:275|337:225,1,79.2000024169923,4|8,0:2|0:2,0:0:0:0:
201,308,94813,2,0,P|192:275|173:225,1,79.2000024169923,6|0,0:1|1:2,0:0:0:0:
57,325,95162,5,6,0:2:0:0:
57,325,95249,1,2,0:2:0:0:
57,325,95337,1,10,0:2:0:0:
177,232,95511,2,0,L|177:149,1,79.2000024169923,6|0,0:1|1:2,0:0:0:0:
7,144,95860,5,6,0:2:0:0:
87,233,96034,1,10,0:2:0:0:
177,152,96209,2,0,P|191:114|200:76,1,79.2000024169923,6|8,0:1|0:2,0:0:0:0:
157,30,96470,1,2,0:2:0:0:
142,23,96558,5,6,0:2:0:0:
15,64,96732,1,8,0:2:0:0:
13,84,96819,1,8,0:2:0:0:
11,104,96906,1,8,0:2:0:0:
9,124,96994,1,8,0:2:0:0:
7,144,97081,6,0,L|5:206,1,54.0000020599366,4|2,1:2|0:2,0:0:0:0:
10,210,97342,1,2,0:2:0:0:
15,221,97430,2,0,P|26:246|28:273,1,54.0000020599366,10|0,0:2|0:2,0:0:0:0:
15,348,97779,1,0,1:2:0:0:
85,318,97953,2,0,P|111:313|137:319,1,54.0000020599366,2|8,0:2|0:2,0:0:0:0:
242,338,98302,6,0,P|188:337|137:319,1,108.000004119873,2|2,0:2|0:2,0:0:0:0:
128,313,98738,1,2,0:0:0:0:
120,301,98825,1,10,0:2:0:0:
94,229,98999,1,0,0:2:0:0:
107,153,99174,1,0,1:2:0:0:
156,94,99348,1,0,0:2:0:0:
228,67,99523,1,8,0:2:0:0:
327,181,99872,5,2,1:2:0:0:
328,168,99959,1,2,0:2:0:0:
398,142,100133,1,2,0:2:0:0:
399,129,100220,1,10,0:2:0:0:
469,103,100395,1,2,0:2:0:0:
399,129,100569,5,2,1:2:0:0:
398,142,100656,1,2,0:2:0:0:
363,155,100744,1,2,0:2:0:0:
328,168,100831,1,2,0:0:0:0:
327,181,100918,1,10,0:2:0:0:
257,207,101092,1,2,0:2:0:0:
244,280,101267,5,0,1:2:0:0:
300,327,101441,2,0,P|315:331|339:331,1,27.0000010299683,2|0,1:2|1:2,0:0:0:0:
257,207,101616,5,8,0:2:0:0:
244,280,101790,1,2,0:2:0:0:
327,181,101965,5,0,1:2:0:0:
257,207,102139,2,0,P|244:203|231:199,1,27.0000010299683,8|8,0:0|0:2,0:0:0:0:
325,102,102313,6,0,P|352:106|375:119,1,54,2|0,0:2|0:2,0:0:0:0:
397,155,102662,5,0,1:2:0:0:
382,229,102837,1,0,0:2:0:0:
327,181,103011,1,8,0:2:0:0:
397,155,103185,1,0,0:2:0:0:
382,229,103360,1,0,1:2:0:0:
313,253,103534,2,0,P|287:243|268:225,1,54,2|8,0:2|0:2,0:0:0:0:
262,328,103883,6,0,P|278:277|268:225,1,108.000004119873,2|2,0:2|0:2,0:0:0:0:
257,214,104319,1,2,0:2:0:0:
244,208,104406,1,10,0:2:0:0:
168,201,104581,1,0,0:2:0:0:
105,156,104755,1,0,1:2:0:0:
73,86,104930,1,8,0:2:0:0:
80,9,105104,1,8,1:2:0:0:
105,156,105453,5,8,2:2:0:0:
103,181,105540,1,8,2:2:0:0:
101,207,105627,1,8,2:2:0:0:
98,233,105715,1,8,2:2:0:0:
96,259,105802,1,8,2:2:0:0:
128,329,105976,1,8,2:2:0:0:
96,259,106151,5,8,2:2:0:0:
98,233,106238,1,8,2:2:0:0:
101,207,106325,1,8,2:2:0:0:
103,181,106412,1,8,2:2:0:0:
105,156,106499,1,8,2:2:0:0:
73,86,106674,1,8,2:2:0:0:
195,31,106848,5,4,1:2:0:0:
228,101,107023,1,2,0:2:0:0:
73,86,107197,5,8,0:2:0:0:
118,24,107372,1,2,0:2:0:0:
182,164,107546,6,0,P|179:178|172:200,1,27.0000010299683,2|0,1:2|0:2,0:0:0:0:
105,156,107720,1,2,0:2:0:0:
195,31,107895,6,0,P|222:25|248:28,1,54,2|0,0:2|0:2,0:0:0:0:
274,38,108244,5,4,1:2:0:0:
356,63,108418,1,2,0:2:0:0:
371,64,108505,1,2,0:2:0:0:
386,65,108592,1,10,0:2:0:0:
468,90,108767,1,0,0:2:0:0:
487,173,108941,1,0,1:2:0:0:
424,229,109116,2,0,P|415:259|411:289,1,61.2000011672974,2|8,0:2|0:2,0:0:0:0:
511,316,109465,6,0,P|468:275|411:288,1,122.400002334595,2|2,0:2|0:2,0:0:0:0:
404,302,109901,1,2,0:0:0:0:
399,316,109988,1,10,0:2:0:0:
317,341,110162,1,0,0:2:0:0:
231,343,110337,1,0,1:2:0:0:
147,323,110511,1,8,0:2:0:0:
72,282,110685,1,8,1:2:0:0:
69,99,111034,5,2,1:2:0:0:
75,85,111122,1,2,0:2:0:0:
81,71,111209,1,2,0:2:0:0:
87,57,111296,1,2,0:2:0:0:
93,43,111383,6,0,P|108:21|119:12,1,30.6000005836487,10|0,0:2|0:2,0:0:0:0:
159,72,111558,2,0,L|229:77,1,61.2000011672974,2|0,0:2|0:2,0:0:0:0:
232,85,111819,1,2,0:2:0:0:
309,51,111994,1,2,0:0:0:0:
313,36,112081,1,10,0:2:0:0:
396,15,112255,1,2,0:2:0:0:
386,152,112430,5,0,1:2:0:0:
307,119,112604,2,0,P|289:123|270:134,1,30.6000005836487,2|0,1:2|1:0,0:0:0:0:
441,87,112779,5,8,0:2:0:0:
396,15,112953,1,2,0:2:0:0:
386,152,113127,5,0,1:2:0:0:
441,87,113302,2,0,P|446:69|446:47,1,30.6000005836487,8|8,0:2|0:2,0:0:0:0:
307,119,113476,6,0,P|298:144|299:171,1,54,2|0,0:2|0:2,0:0:0:0:
319,205,113825,5,0,1:2:0:0:
399,237,113999,1,0,0:2:0:0:
466,183,114174,1,8,0:2:0:0:
386,152,114348,1,0,0:2:0:0:
319,205,114523,1,0,1:2:0:0:
331,289,114697,2,0,P|332:331|320:368,1,61.2000011672974,2|8,0:2|0:2,0:0:0:0:
445,346,115046,6,0,P|385:333|327:349,1,122.400002334595,2|2,0:2|0:2,0:0:0:0:
315,359,115482,1,2,0:2:0:0:
305,371,115569,1,10,0:2:0:0:
219,366,115744,1,0,0:2:0:0:
161,301,115918,1,0,1:2:0:0:
166,215,116092,1,8,0:2:0:0:
231,157,116267,1,8,1:2:0:0:
161,301,116616,5,2,1:2:0:0:
157,286,116703,1,2,0:2:0:0:
86,238,116877,1,2,0:2:0:0:
83,223,116965,1,10,0:2:0:0:
11,175,117139,1,2,0:2:0:0:
83,223,117313,5,2,1:2:0:0:
86,238,117401,1,2,0:2:0:0:
121,262,117488,1,2,0:2:0:0:
157,286,117575,1,2,0:2:0:0:
161,301,117662,1,10,0:2:0:0:
166,215,117837,1,2,0:2:0:0:
231,157,118011,5,0,1:2:0:0:
166,215,118185,1,2,0:2:0:0:
318,162,118360,5,8,0:2:0:0:
231,157,118534,1,2,0:2:0:0:
376,228,118709,5,0,1:2:0:0:
318,162,118883,2,0,P|314:145|311:119,1,30.6000005836487,4|4,0:3|0:3,0:0:0:0:
391,134,119058,2,0,P|403:122|424:106,1,30.6000005836487,8|8,0:3|0:3,0:0:0:0:
451,183,119232,2,0,P|467:188|491:198,1,30.6000005836487,8|8,0:3|0:3,0:0:0:0:
438,259,119406,6,0,P|442:276|446:316,2,43.1999986816407,6|2|2,1:2|0:2|1:2,0:0:0:0:
376,228,119930,1,2,0:2:0:0:
364,223,120017,1,2,0:2:0:0:
299,248,120191,1,2,0:2:0:0:
288,256,120279,1,2,0:2:0:0:
257,317,120453,1,2,1:2:0:0:
188,320,120627,1,2,0:2:0:0:
149,261,120802,6,0,P|129:254|108:251,1,43.1999986816407,2|2,1:2|0:2,0:0:0:0:
43,275,121151,1,2,1:2:0:0:
1,221,121325,1,2,0:2:0:0:
38,164,121499,6,0,P|46:144|50:123,1,43.1999986816407,2|4,1:2|0:3,0:0:0:0:
61,115,121761,1,4,0:3:0:0:
73,110,121848,2,0,L|124:106,1,43.1999986816407,8|8,0:3|0:2,0:0:0:0:
174,69,122197,6,0,P|175:44|185:14,2,43.1999986816407,2|2|2,1:2|0:2|1:2,0:0:0:0:
211,127,122720,1,2,0:2:0:0:
217,138,122808,1,2,0:2:0:0:
269,182,122982,1,2,0:2:0:0:
272,195,123069,1,2,0:2:0:0:
251,260,123244,1,2,1:2:0:0:
281,319,123418,1,2,0:2:0:0:
343,339,123592,6,0,L|394:343,1,43.1999986816407,2|2,1:2|0:2,0:0:0:0:
452,323,123941,1,2,1:2:0:0:
403,276,124116,1,2,0:2:0:0:
469,257,124290,2,0,L|473:206,1,43.1999986816407,2|4,1:2|0:3,0:0:0:0:
467,201,124552,1,4,0:3:0:0:
459,190,124639,2,0,P|443:178|429:172,1,21.5999993408203,8|8,0:3|0:3,0:0:0:0:
409,190,124813,2,0,P|397:186|388:182,1,21.5999993408203,8|8,0:3|0:3,0:0:0:0:
357,166,124988,6,0,L|296:170,2,43.1999986816407,6|2|2,1:2|0:2|1:2,0:0:0:0:
393,106,125511,1,2,0:2:0:0:
395,93,125598,1,2,0:2:0:0:
355,36,125773,1,2,0:2:0:0:
345,27,125860,1,2,0:2:0:0:
276,35,126034,1,2,1:2:0:0:
248,98,126209,1,2,0:2:0:0:
179,105,126383,6,0,L|118:101,1,43.1999986816407,2|2,1:2|0:2,0:0:0:0:
71,75,126732,1,2,1:2:0:0:
25,127,126906,1,2,0:2:0:0:
60,186,127081,2,0,P|65:214|63:248,1,43.1999986816407,2|4,1:2|0:3,0:0:0:0:
63,241,127342,1,4,0:3:0:0:
60,253,127430,2,0,P|55:274|54:295,1,43.1999986816407,8|8,0:3|0:2,0:0:0:0:
79,360,127779,6,0,P|56:361|32:366,2,43.1999986816407,2|2|2,1:2|0:2|1:2,0:0:0:0:
148,361,128302,1,2,0:2:0:0:
160,364,128389,1,2,0:2:0:0:
220,331,128563,1,2,0:2:0:0:
224,343,128651,1,2,0:2:0:0:
290,361,128825,1,2,1:2:0:0:
352,332,128999,1,2,0:2:0:0:
448,384,129174,6,0,L|448:288,1,86.3999973632813,6|0,1:2|0:2,0:0:0:0:
358,338,129697,5,2,0:2:0:0:
358,338,129784,1,2,0:2:0:0:
358,338,129872,2,0,P|351:321|346:303,1,36,2|0,0:2|0:2,0:0:0:0:
345,226,130046,2,0,P|352:209|361:193,1,36,2|0,2:2|2:2,0:0:0:0:
458,136,130220,5,2,0:2:0:0:
435,144,130308,1,2,0:2:0:0:
411,141,130395,1,2,0:2:0:0:
391,127,130482,1,2,0:2:0:0:
380,106,130569,6,0,P|341:83|293:89,1,82.8000015792847,4|2,1:1|0:2,0:0:0:0:
252,119,130831,1,2,0:2:0:0:
244,134,130918,1,10,0:2:0:0:
166,55,131092,1,0,0:2:0:0:
304,84,131267,5,2,1:2:0:0:
215,205,131441,1,0,0:2:0:0:
87,101,131616,2,0,P|83:60|81:18,1,82.8000015792847,10|0,0:2|0:2,0:0:0:0:
177,350,131965,6,0,P|181:308|182:267,1,82.8000015792847,0|0,1:2|0:2,0:0:0:0:
148,215,132226,1,2,0:2:0:0:
134,206,132313,1,10,0:2:0:0:
29,253,132488,1,0,0:2:0:0:
87,101,132662,5,0,1:2:0:0:
134,206,132837,1,0,0:2:0:0:
256,128,133011,2,0,P|297:120|338:115,1,82.8000015792847,10|0,0:2|0:2,0:0:0:0:
177,350,133360,6,0,P|215:331|253:316,1,82.8000015792847,0|2,1:2|0:2,0:0:0:0:
315,313,133622,1,2,0:2:0:0:
331,317,133709,1,10,0:2:0:0:
449,378,133883,1,0,0:2:0:0:
393,200,134058,5,0,1:2:0:0:
509,261,134232,1,0,0:2:0:0:
449,378,134406,1,10,0:2:0:0:
331,317,134581,1,0,0:2:0:0:
331,144,134755,5,2,1:2:0:0:
191,217,134930,1,0,0:2:0:0:
263,357,135104,1,10,0:2:0:0:
405,284,135279,1,0,0:2:0:0:
418,90,135453,6,0,P|343:41|257:71,1,187.199991430664,2|8,1:2|0:2,0:0:0:0:
32,352,136151,5,4,1:2:0:0:
21,262,136325,1,0,0:2:0:0:
111,251,136499,1,10,0:2:0:0:
122,341,136674,1,0,0:2:0:0:
20,261,136848,6,0,P|19:241|23:222,1,41.4000007896423,2|0,1:2|0:2,0:0:0:0:
111,251,137023,2,0,P|124:235|140:224,1,41.4000007896423,2|0,0:2|0:2,0:0:0:0:
181,305,137197,5,10,0:2:0:0:
196,309,137284,1,2,0:2:0:0:
213,310,137372,1,2,0:2:0:0:
229,308,137459,1,2,0:2:0:0:
245,301,137546,6,0,P|282:295|324:317,1,82.8000015792847,2|2,1:2|0:2,0:0:0:0:
370,354,137808,1,2,0:2:0:0:
382,366,137895,1,10,0:2:0:0:
402,254,138069,1,0,0:2:0:0:
245,301,138244,5,2,1:2:0:0:
270,172,138418,1,0,0:2:0:0:
402,254,138592,2,0,P|443:256|484:254,1,82.8000015792847,10|0,0:2|0:2,0:0:0:0:
228,70,138941,6,0,P|269:64|310:63,1,82.8000015792847,0|2,1:2|0:2,0:0:0:0:
373,69,139203,1,2,0:2:0:0:
389,76,139290,1,10,0:2:0:0:
270,172,139465,1,0,0:2:0:0:
402,254,139639,5,2,1:2:0:0:
443,146,139813,1,0,0:2:0:0:
309,63,139988,5,10,0:2:0:0:
270,172,140162,1,0,0:2:0:0:
361,362,140337,5,2,1:2:0:0:
402,254,140511,1,0,0:2:0:0:
270,172,140685,5,10,0:2:0:0:
231,281,140860,1,0,0:2:0:0:
443,146,141034,5,10,0:2:0:0:
443,146,141209,1,8,0:2:0:0:
443,146,141383,5,8,0:2:0:0:
445,124,141470,1,8,0:2:0:0:
447,102,141558,1,8,0:2:0:0:
450,80,141645,1,8,0:2:0:0:
451,57,141732,6,0,P|415:39|374:44,1,82.8000015792847,4|4,1:1|0:2,0:0:0:0:
324,240,142081,2,0,P|360:257|401:253,1,82.8000015792847,8|4,0:2|0:2,0:0:0:0:
256,64,142430,5,0,1:2:0:0:
201,220,142604,1,4,0:2:0:0:
60,56,142779,2,0,P|98:38|138:43,1,82.8000015792847,10|4,0:2|0:2,0:0:0:0:
64,247,143127,5,0,1:2:0:0:
112,117,143302,1,4,0:2:0:0:
140,276,143476,5,8,0:2:0:0:
51,169,143651,1,4,0:2:0:0:
201,220,143825,5,0,1:2:0:0:
64,247,143999,1,4,0:2:0:0:
182,139,144174,2,0,P|223:140|259:161,1,82.8000015792847,10|4,0:2|0:2,0:0:0:0:
265,346,144523,5,0,1:2:0:0:
207,226,144697,1,6,0:2:0:0:
207,226,144784,1,2,0:2:0:0:
207,226,144872,1,10,0:2:0:0:
192,361,145046,5,6,0:2:0:0:
192,361,145133,1,2,0:0:0:0:
192,361,145220,1,2,1:2:0:0:
291,237,145395,1,4,0:2:0:0:
338,364,145569,5,10,0:2:0:0:
181,292,145744,1,4,0:2:0:0:
337,292,145918,5,2,1:2:0:0:
192,361,146092,1,4,0:2:0:0:
410,258,146267,5,8,0:2:0:0:
264,326,146441,1,4,0:2:0:0:
483,224,146616,5,2,1:2:0:0:
410,258,146790,1,4,0:2:0:0:
337,292,146965,2,0,L|335:352,1,54.0000020599366,8|4,0:2|0:2,0:0:0:0:
403,108,147313,6,0,P|366:90|324:90,1,82.8000015792847,4|4,1:2|0:2,0:0:0:0:
187,293,147662,2,0,P|146:293|109:275,1,82.8000015792847,10|4,0:2|0:2,0:0:0:0:
102,70,148011,5,0,1:2:0:0:
164,216,148185,1,4,0:2:0:0:
222,56,148360,5,10,0:2:0:0:
164,216,148534,1,4,0:2:0:0:
102,70,148709,2,0,P|65:52|23:52,1,82.8000015792847,2|4,1:2|0:2,0:0:0:0:
34,276,149058,5,10,0:2:0:0:
47,128,149232,1,4,0:2:0:0:
164,216,149406,5,2,1:2:0:0:
193,136,149581,1,4,0:2:0:0:
222,56,149755,2,0,P|227:23|230:-4,1,54.0000020599366,8|4,0:2|0:2,0:0:0:0:
135,296,150104,5,2,1:2:0:0:
193,136,150279,1,4,0:2:0:0:
324,274,150453,5,10,0:2:0:0:
164,216,150627,1,4,0:2:0:0:
302,85,150802,5,2,1:2:0:0:
244,245,150976,1,4,0:2:0:0:
113,107,151151,5,10,0:2:0:0:
273,165,151325,1,4,0:2:0:0:
135,296,151499,5,2,1:1:0:0:
113,107,151674,1,4,0:2:0:0:
324,274,151848,5,10,0:1:0:0:
302,85,152023,1,4,0:2:0:0:
135,296,152197,5,10,0:2:0:0:
135,296,152372,1,8,0:2:0:0:
135,296,152546,5,8,0:2:0:0:
115,298,152633,1,8,0:2:0:0:
94,299,152720,1,8,0:2:0:0:
73,300,152808,1,8,0:2:0:0:
54,301,152895,6,0,P|32:315|16:330,1,36,6|2,1:2|0:2,0:0:0:0:
52,227,153069,2,0,P|28:214|7:208,1,36,6|2,0:2|0:2,0:0:0:0:
115,188,153244,2,0,P|114:160|108:139,1,36,10|2,0:2|0:2,0:0:0:0:
180,223,153418,2,0,P|203:208|218:193,1,36,6|2,0:2|0:2,0:0:0:0:
182,296,153592,5,2,1:2:0:0:
197,311,153680,1,2,0:2:0:0:
216,322,153767,1,6,0:2:0:0:
237,327,153854,1,2,0:2:0:0:
259,328,153941,1,10,0:2:0:0:
281,322,154029,1,2,0:2:0:0:
300,312,154116,1,6,0:2:0:0:
316,297,154203,1,2,0:2:0:0:
328,279,154290,6,0,P|348:268|387:268,3,36,2|2|6|2,1:2|0:2|0:2|0:2,0:0:0:0:
376,201,154639,2,0,P|397:207|425:234,3,36,10|2|6|2,0:2|0:2|0:2|0:2,0:0:0:0:
465,179,154988,5,2,1:2:0:0:
472,158,155075,1,2,0:2:0:0:
475,136,155162,1,6,0:2:0:0:
472,114,155249,1,2,0:2:0:0:
462,94,155337,2,0,P|454:75|454:54,3,36,10|2|6|2,0:2|0:2|0:2|0:2,0:0:0:0:
398,25,155685,5,2,1:2:0:0:
374,38,155773,1,2,0:2:0:0:
348,44,155860,1,6,0:2:0:0:
321,42,155947,1,2,0:2:0:0:
296,32,156034,1,10,0:2:0:0:
272,18,156122,1,2,0:2:0:0:
246,12,156209,1,6,0:2:0:0:
219,14,156296,1,2,0:2:0:0:
194,24,156383,5,2,1:2:0:0:
188,50,156470,1,2,0:2:0:0:
190,77,156558,1,6,0:2:0:0:
200,102,156645,1,2,0:2:0:0:
214,126,156732,1,10,0:2:0:0:
220,152,156819,1,2,0:2:0:0:
218,179,156906,1,6,0:2:0:0:
208,204,156994,1,2,0:2:0:0:
190,224,157081,6,0,P|184:252|183:273,1,36,6|2,1:2|0:2,0:0:0:0:
264,329,157255,1,10,0:2:0:0:
264,329,157342,1,10,0:2:0:0:
264,329,157430,2,0,P|270:301|271:280,1,36,6|2,1:2|0:2,0:0:0:0:
272,230,157604,5,10,0:2:0:0:
255,262,157691,1,10,0:2:0:0:
271,294,157779,1,10,0:2:0:0:
306,303,157866,1,10,0:2:0:0:
334,280,157953,1,10,0:2:0:0:
334,244,158040,1,10,0:2:0:0:
306,221,158127,1,14,0:2:0:0:
100,62,158476,5,2,1:2:0:0:
123,74,158563,1,2,0:2:0:0:
150,77,158651,1,6,0:2:0:0:
176,72,158738,1,2,0:2:0:0:
199,58,158825,1,10,0:2:0:0:
221,43,158912,1,2,0:2:0:0:
248,38,158999,1,6,0:2:0:0:
274,41,159087,1,2,0:2:0:0:
298,54,159174,6,0,P|316:60|343:60,3,36,2|2|6|2,1:2|0:2|0:2|0:2,0:0:0:0:
397,52,159523,2,0,P|415:46|442:46,3,36,10|2|6|2,0:2|0:2|0:2|0:2,0:0:0:0:
485,81,159872,5,2,1:2:0:0:
500,103,159959,1,2,0:2:0:0:
505,129,160046,1,6,0:2:0:0:
502,156,160133,1,2,0:2:0:0:
489,180,160220,2,0,L|483:225,3,36,10|2|6|2,0:2|0:2|0:2|0:2,0:0:0:0:
477,279,160569,5,2,1:2:0:0:
459,299,160656,1,2,0:2:0:0:
435,311,160744,1,6,0:2:0:0:
409,315,160831,1,2,0:2:0:0:
382,309,160918,2,0,P|356:305|331:310,3,36,10|2|6|2,0:2|0:2|0:2|0:2,0:0:0:0:
287,337,161267,5,2,1:2:0:0:
263,350,161354,1,2,0:2:0:0:
238,359,161441,1,6,0:2:0:0:
211,363,161529,1,2,0:2:0:0:
184,363,161616,1,10,0:2:0:0:
158,357,161703,1,2,0:2:0:0:
133,347,161790,1,6,0:2:0:0:
110,332,161877,1,2,0:2:0:0:
90,314,161965,5,2,1:2:0:0:
90,287,162052,1,2,0:2:0:0:
89,260,162139,1,6,0:2:0:0:
89,233,162226,1,2,0:2:0:0:
88,206,162313,1,10,0:2:0:0:
88,179,162401,1,2,0:2:0:0:
87,152,162488,1,6,0:2:0:0:
87,125,162575,1,2,0:2:0:0:
86,98,162662,6,0,P|80:79|64:57,1,36,2|2,1:2|0:2,0:0:0:0:
186,147,162837,2,0,P|195:129|199:102,1,36,6|2,0:2|0:2,0:0:0:0:
256,32,163011,5,10,0:2:0:0:
256,32,163098,1,2,0:2:0:0:
256,32,163185,2,0,L|256:96,1,36,6|2,0:2|0:2,0:0:0:0:
325,146,163360,6,0,P|317:131|313:113,1,36,2|2,1:2|0:2,0:0:0:0:
426,97,163534,2,0,P|431:80|440:65,1,36,10|2,0:2|0:2,0:0:0:0:
512,223,163709,5,10,0:2:0:0:
470,205,163796,1,10,0:2:0:0:
435,231,163883,1,10,0:2:0:0:
393,212,163970,1,10,0:2:0:0:
355,238,164058,5,4,1:2:0:0:
256,192,164406,1,8,0:2:0:0:
256,192,164581,1,8,0:2:0:0:
256,352,164930,5,0,1:2:0:0:
256,192,165104,1,8,0:2:0:0:
192,256,165279,1,2,0:3:0:0:
96,192,165453,5,0,1:2:0:0:
96,192,165627,1,0,1:2:0:0:
256,192,165802,1,8,0:2:0:0:
256,192,165976,1,8,0:2:0:0:
256,32,166325,5,0,1:2:0:0:
256,192,166499,1,8,0:2:0:0:
320,128,166674,1,2,0:3:0:0:
416,192,166848,5,0,1:2:0:0:
256,192,167197,1,8,0:2:0:0:
256,192,167372,1,8,0:2:0:0:
96,192,167720,5,0,1:2:0:0:
256,192,167895,1,8,0:2:0:0:
192,256,168069,1,2,0:3:0:0:
256,352,168244,5,0,1:2:0:0:
256,352,168418,1,0,1:2:0:0:
256,192,168592,1,8,0:2:0:0:
256,192,168767,1,8,0:2:0:0:
256,32,169116,5,0,1:2:0:0:
256,192,169290,1,8,0:2:0:0:
320,128,169465,1,2,0:3:0:0:
96,64,169639,5,4,1:2:0:0:
256,192,169988,1,8,0:2:0:0:
256,192,170162,1,8,0:2:0:0:
416,192,170511,5,0,1:2:0:0:
256,192,170685,1,8,0:2:0:0:
192,128,170860,1,2,0:3:0:0:
256,32,171034,5,0,1:2:0:0:
256,32,171209,1,0,1:2:0:0:
256,192,171383,1,8,0:2:0:0:
256,192,171558,1,8,0:2:0:0:
96,192,171906,5,0,1:2:0:0:
256,192,172081,1,8,0:2:0:0:
320,128,172255,1,2,0:3:0:0:
416,320,172430,5,4,1:2:0:0:
290,320,172604,1,2,0:2:0:0:
290,320,172691,1,2,0:2:0:0:
290,320,172779,1,8,0:2:0:0:
262,198,172953,1,2,0:2:0:0:
262,198,173040,1,2,0:2:0:0:
262,198,173127,1,8,0:2:0:0:
338,218,173302,6,0,P|328:236|307:258,1,36,10|8,0:2|0:2,0:0:0:0:
228,274,173476,2,0,P|211:264|189:243,1,36,10|8,0:2|0:2,0:0:0:0:
173,164,173651,2,0,P|183:147|204:125,1,36,10|8,0:2|0:2,0:0:0:0:
283,109,173825,2,0,P|300:119|322:140,1,36,10|8,0:2|0:2,0:0:0:0:
193,134,173999,6,0,P|183:128|174:122,1,21.5999993408203,10|8,0:2|0:2,0:0:0:0:
177,24,174174,2,0,P|177:35|176:46,1,21.5999993408203,10|8,0:2|0:2,0:0:0:0:
91,92,174348,2,0,P|101:86|111:82,2,21.5999993408203,8|8|8,0:2|0:2|0:2,0:0:0:0:
64,192,174697,5,2,0:2:0:0:
0,96,174872,2,0,L|0:82,6,13.5000005149841,4|0|0|0|0|0|0,0:2|0:2|0:2|0:2|0:2|0:2|0:2,0:0:0:0:
2,259,175220,6,0,P|24:275|49:283,1,54.0000020599366,2|0,0:2|0:2,0:0:0:0:
130,255,175395,2,0,P|145:231|152:206,1,54.0000020599366,2|0,0:2|0:2,0:0:0:0:
64,192,175569,5,12,0:2:0:0:
105,323,175744,1,4,0:2:0:0:
242,324,175918,1,0,1:2:0:0:
285,194,176092,1,4,0:2:0:0:
174,112,176267,2,0,P|173:67|184:16,1,88.5600013513184,10|4,0:2|0:2,0:0:0:0:
381,248,176616,6,0,P|389:204|388:160,1,88.5600013513184,0|4,1:2|0:2,0:0:0:0:
346,108,176877,1,2,0:2:0:0:
330,98,176965,1,10,0:2:0:0:
200,189,177139,1,4,0:2:0:0:
181,24,177313,5,0,1:2:0:0:
285,194,177488,1,4,0:2:0:0:
383,40,177662,2,0,P|426:33|465:52,1,88.5600013513184,10|4,0:2|0:2,0:0:0:0:
357,317,178011,5,0,1:2:0:0:
479,246,178185,1,4,0:2:0:0:
408,123,178360,1,8,0:2:0:0:
285,194,178534,1,4,0:2:0:0:
91,142,178709,5,2,1:2:0:0:
214,71,178883,1,4,0:2:0:0:
285,194,179058,1,10,0:2:0:0:
163,265,179232,1,4,0:2:0:0:
214,71,179406,5,2,1:2:0:0:
286,194,179581,1,4,0:2:0:0:
408,123,179755,1,8,0:2:0:0:
337,0,179930,1,4,0:2:0:0:
286,194,180104,5,2,1:2:0:0:
189,168,180279,1,4,0:2:0:0:
91,142,180453,2,0,P|62:138|13:142,1,54.0000020599366,8|4,0:2|0:2,0:0:0:0:
408,123,180802,6,0,P|367:106|320:97,1,88.5600013513184,4|4,1:2|0:2,0:0:0:0:
391,337,181151,2,0,P|432:352|475:361,1,88.5600013513184,10|4,0:2|0:2,0:0:0:0:
408,123,181499,5,0,1:2:0:0:
328,296,181674,1,4,0:2:0:0:
323,97,181848,5,10,0:2:0:0:
396,262,182023,1,4,0:2:0:0:
501,112,182197,2,0,P|512:58|507:23,1,88.5600013513184,2|4,1:2|0:2,0:0:0:0:
396,262,182546,5,10,0:2:0:0:
323,97,182720,1,4,0:2:0:0:
396,262,182895,5,2,1:2:0:0:
448,187,183069,1,4,0:2:0:0:
501,112,183244,2,0,P|509:85|511:41,1,54.0000020599366,8|4,0:2|0:2,0:0:0:0:
396,262,183592,5,2,1:2:0:0:
323,97,183767,1,4,0:2:0:0:
231,335,183941,5,10,0:2:0:0:
396,262,184116,1,4,0:2:0:0:
158,170,184290,5,2,1:2:0:0:
231,335,184465,1,4,0:2:0:0:
323,97,184639,5,10,0:2:0:0:
158,170,184813,1,4,0:2:0:0:
396,262,184988,5,10,1:2:0:0:
277,216,185162,1,8,0:2:0:0:
323,97,185860,5,8,0:2:0:0:
343,355,186034,1,8,0:2:0:0:
343,355,186383,6,0,P|413:306|480:323,1,144,6|8,1:1|0:2,0:0:0:0:
343,355,186906,2,0,P|300:347|261:326,1,72,6|0,0:1|1:2,0:0:0:0:
96,224,187255,5,6,0:2:0:0:
173,288,187430,1,10,0:2:0:0:
256,192,187604,2,0,L|256:109,1,72,6|0,0:1|1:2,0:0:0:0:
416,160,187953,5,6,0:2:0:0:
339,96,188127,1,10,0:2:0:0:
256,192,188302,2,0,L|256:275,1,72,6|0,0:1|1:2,0:0:0:0:
256,120,188651,5,6,0:1:0:0:
256,264,188825,2,0,L|256:360,1,72,10|4,0:1|0:2,0:0:0:0:
256,120,189174,5,2,1:2:0:0:
320,96,189348,2,0,L|400:103,1,72,4|8,0:2|0:2,0:0:0:0:
192,96,189697,2,0,L|112:103,1,72,6|0,0:1|1:2,0:0:0:0:
256,192,190046,5,6,0:2:0:0:
350,243,190220,1,10,0:2:0:0:
391,102,190395,2,0,P|395:88|401:25,1,72,6|0,0:1|1:2,0:0:0:0:
256,192,190744,5,6,0:2:0:0:
162,243,190918,1,10,0:2:0:0:
121,102,191092,2,0,P|117:88|111:25,1,72,6|0,0:1|1:0,0:0:0:0:
256,192,191441,5,6,0:1:0:0:
256,96,191616,1,10,0:2:0:0:
256,92,191703,1,8,0:2:0:0:
256,88,191790,1,8,0:2:0:0:
256,84,191877,1,8,0:2:0:0:
256,80,191965,5,4,1:1:0:0:
320,128,192139,2,0,P|324:88|332:38,1,79.2000024169923,4|8,0:2|0:2,0:0:0:0:
192,128,192488,2,0,P|188:88|180:38,1,79.2000024169923,6|0,0:1|1:2,0:0:0:0:
256,192,192837,5,6,0:2:0:0:
256,192,192924,1,2,0:2:0:0:
256,192,193011,1,10,0:2:0:0:
182,49,193185,2,0,L|86:30,1,79.2000024169923,6|0,2:1|1:2,0:0:0:0:
135,186,193534,5,6,0:2:0:0:
256,192,193709,1,10,0:2:0:0:
330,49,193883,2,0,L|407:33,1,79.2000024169923,6|0,0:1|1:2,0:0:0:0:
468,51,194145,1,2,0:2:0:0:
483,57,194232,5,6,0:2:0:0:
512,147,194406,1,10,0:1:0:0:
508,176,194494,1,8,0:0:0:0:
505,206,194581,1,8,0:0:0:0:
502,235,194668,1,8,0:0:0:0:
499,265,194755,1,6,1:2:0:0:
256,320,195279,5,2,0:2:0:0:
256,320,195627,5,2,0:2:0:0:
256,256,195802,1,2,0:2:0:0:
256,192,195976,1,2,0:2:0:0:
256,64,196325,5,2,0:2:0:0:
256,128,196499,1,2,0:2:0:0:
256,192,196674,1,2,0:2:0:0:
320,192,197023,5,2,0:2:0:0:
192,192,197197,2,2,L|176:192,1,14.4,2|0,0:2|0:2,0:1:0:0:
