osu file format v14

[General]
AudioFilename: audio.mp3
AudioLeadIn: 0
PreviewTime: 164058
Countdown: 0
SampleSet: Soft
StackLeniency: 0.2
Mode: 0
LetterboxInBreaks: 0
WidescreenStoryboard: 0

[Editor]
DistanceSpacing: 1
BeatDivisor: 4
GridSize: 32
TimelineZoom: 1.4

[Metadata]
Title:Buriki no Dance
TitleUnicode:ブリキノダンス
Artist:96neko
ArtistUnicode:96猫
Creator:Lasse
Version:Delusion
Source:
Tags:utaite cover 日向電工 Hinata Electric Works
BeatmapID:1245345
BeatmapSetID:588211

[Difficulty]
HPDrainRate:7
CircleSize:4.5
OverallDifficulty:9
ApproachRate:9.2
SliderMultiplier:1.76
SliderTickRate:1

[Events]
//Background and Video events
0,0,"bg.jpg",0,0
//Break Periods
2,86118,87964
2,88909,90581
//Storyboard Layer 0 (Background)
//Storyboard Layer 1 (Fail)
//Storyboard Layer 2 (Pass)
//Storyboard Layer 3 (Foreground)
//Storyboard Sound Samples

[TimingPoints]
1500,348.837209302326,4,2,3,50,1,0
5686,-100,4,2,3,55,0,0
6558,-100,4,2,3,60,0,0
7081,-100,4,2,3,30,0,0
7779,348.837209302326,4,2,1,65,1,0
7866,-100,4,2,40,65,0,0
13360,-90.9090909090909,4,2,1,67,0,0
13534,-90.9090909090909,4,2,12,67,0,0
18941,-133.333333333333,4,2,4,60,0,0
24174,-266.666666666667,4,2,4,60,0,0
24435,-266.666666666667,4,2,99,5,0,0
24523,-133.333333333333,4,2,4,60,0,0
30104,-100,4,2,4,65,0,0
30191,-100,4,2,40,65,0,0
34465,-80,4,2,40,65,0,0
34552,-80,4,2,99,30,0,0
34639,-80,4,2,40,65,0,0
34726,-80,4,2,99,30,0,0
34813,-80,4,2,40,65,0,0
34901,-80,4,2,99,30,0,0
34988,-80,4,2,40,65,0,0
35075,-80,4,2,99,30,0,0
35162,-100,4,2,40,65,0,0
35685,-100,4,2,1,65,0,0
35860,-100,4,2,40,65,0,0
40918,-100,4,2,1,55,0,0
41267,-133.333333333333,4,2,4,60,0,0
42052,-133.333333333333,4,2,4,20,0,0
42139,-133.333333333333,4,2,4,60,0,0
43622,-133.333333333333,4,2,4,20,0,0
43709,-133.333333333333,4,2,4,60,0,0
44494,-133.333333333333,4,2,4,20,0,0
44581,-133.333333333333,4,2,4,60,0,0
44668,-133.333333333333,4,2,4,20,0,0
44755,-133.333333333333,4,2,4,60,0,0
45191,-133.333333333333,4,2,4,20,0,0
45279,-133.333333333333,4,2,4,60,0,0
45366,-133.333333333333,4,2,4,20,0,0
45453,-133.333333333333,4,2,4,60,0,0
46499,-200,4,2,4,60,0,0
46761,-200,4,2,99,5,0,0
46848,-133.333333333333,4,2,4,60,0,0
47110,-133.333333333333,4,2,4,20,0,0
47197,-133.333333333333,4,2,4,60,0,0
47459,-133.333333333333,4,2,4,20,0,0
47546,-133.333333333333,4,2,4,60,0,0
48854,-133.333333333333,4,2,4,20,0,0
48941,-133.333333333333,4,2,4,60,0,0
49203,-133.333333333333,4,2,4,20,0,0
49290,-133.333333333333,4,2,4,60,0,0
49377,-133.333333333333,4,2,4,20,0,0
49465,-133.333333333333,4,2,4,40,0,0
49639,-133.333333333333,4,2,4,60,0,0
52430,-100,4,2,3,55,0,0
62895,-100,4,2,3,60,0,0
63069,-100,4,2,3,65,0,0
63592,-80,4,2,1,72,0,1
74406,-80,4,2,1,70,0,0
74755,-80,4,2,1,75,0,1
74930,-80,4,2,2,75,0,1
80337,-80,4,2,1,75,0,1
80511,-80,4,2,2,75,0,1
85918,-100,4,2,1,70,0,0
88534,-100,4,2,2,30,0,0
88622,-100,4,2,2,37,0,0
88709,-100,4,2,44,55,0,0
91151,-100,4,2,2,65,0,0
91499,-90.9090909090909,4,2,1,67,0,0
91674,-90.9090909090909,4,2,12,67,0,0
97081,-133.333333333333,4,2,4,60,0,0
102313,-200,4,2,4,60,0,0
102575,-200,4,2,99,5,0,0
102662,-133.333333333333,4,2,4,60,0,0
107633,-133.333333333333,4,2,4,20,0,0
107720,-133.333333333333,4,2,4,60,0,0
107895,-200,4,2,4,50,0,0
108156,-200,4,2,99,5,0,0
108244,-117.647058823529,4,2,4,60,0,0
111732,-117.647058823529,4,2,99,5,0,0
111819,-117.647058823529,4,2,4,60,0,0
111906,-117.647058823529,4,2,4,30,0,0
111994,-117.647058823529,4,2,4,60,0,0
113476,-200,4,2,4,60,0,0
113738,-200,4,2,99,5,0,0
113825,-117.647058823529,4,2,4,60,0,0
119406,-166.666666666667,4,2,3,55,0,0
129697,-100,4,2,4,60,0,0
129872,-100,4,2,4,62,0,0
129959,-100,4,2,4,40,0,0
130046,-100,4,2,4,62,0,0
130133,-100,4,2,4,40,0,0
130220,-100,4,2,72,64,0,0
130308,-100,4,2,72,66,0,0
130395,-100,4,2,72,68,0,0
130482,-100,4,2,72,70,0,0
130569,-80,4,2,1,72,0,1
141383,-80,4,2,1,70,0,0
141732,-80,4,2,1,75,0,1
141906,-80,4,2,2,75,0,1
147313,-80,4,2,1,75,0,1
147488,-80,4,2,2,75,0,1
152895,-100,4,2,1,70,0,0
152982,-100,4,2,55,70,0,0
157081,-100,4,2,1,70,0,0
157168,-100,4,2,55,70,0,0
157430,-100,4,2,1,70,0,0
157517,-100,4,2,55,70,0,0
158127,-100,4,2,1,70,0,0
158476,-100,4,2,55,72,0,0
163709,-100,4,2,55,75,0,0
164058,-133.333333333333,4,2,18,60,0,0
172430,-133.333333333333,4,2,18,62,0,0
172604,-133.333333333333,4,2,4,62,0,0
172779,-133.333333333333,4,2,18,62,0,0
172953,-133.333333333333,4,2,4,64,0,0
173127,-133.333333333333,4,2,18,64,0,0
173302,-100,4,2,3,70,0,0
173389,-100,4,2,3,40,0,0
173476,-100,4,2,3,70,0,0
173563,-100,4,2,3,40,0,0
173651,-100,4,2,3,70,0,0
173738,-100,4,2,3,40,0,0
173825,-100,4,2,3,70,0,0
173912,-100,4,2,3,40,0,0
173999,-166.666666666667,4,2,18,70,0,0
174087,-166.666666666667,4,2,18,40,0,0
174174,-166.666666666667,4,2,18,70,0,0
174261,-166.666666666667,4,2,18,40,0,0
174348,-166.666666666667,4,2,3,65,0,0
174435,-166.666666666667,4,2,3,67,0,0
174523,-166.666666666667,4,2,3,70,0,0
174697,-166.666666666667,4,2,3,55,0,0
174872,-133.333333333333,4,2,98,70,0,0
174893,-133.333333333333,4,2,98,50,0,0
175220,-66.6666666666667,4,2,1,60,0,1
175308,-66.6666666666667,4,2,99,20,0,0
175395,-66.6666666666667,4,2,1,60,0,0
175482,-66.6666666666667,4,2,99,20,0,0
175569,-76.9230769230769,4,2,1,75,0,1
175744,-76.9230769230769,4,2,2,75,0,1
180627,-76.9230769230769,4,2,2,70,0,0
180802,-74.0740740740741,4,2,1,77,0,1
180976,-74.0740740740741,4,2,2,77,0,1
185162,-100,4,2,1,75,0,0
185860,-100,4,2,18,70,0,0
186383,-100,4,2,1,65,0,0
186558,-100,4,2,40,65,0,0
191965,-90.9090909090909,4,2,1,67,0,0
192139,-90.9090909090909,4,2,12,67,0,0
194755,-125,4,2,98,70,0,0
194930,-200,4,2,1,50,0,0
195627,-200,4,2,1,40,0,0
196325,-200,4,2,1,35,0,0
197023,-200,4,2,1,30,0,0
197197,-1000,4,2,1,25,0,0
197546,-200,4,2,99,5,0,0

[Colours]
Combo1 : 185,150,245
Combo2 : 250,85,85
Combo3 : 100,130,190
Combo4 : 250,170,200

[HitObjects]
61,89,1500,5,4,1:2:0:0:
70,104,1848,1,0,1:2:0:0:
79,119,2197,1,0,1:2:0:0:
88,134,2546,1,0,1:2:0:0:
97,149,2895,1,0,1:2:0:0:
106,164,3244,1,0,1:2:0:0:
115,179,3593,6,0,P|162:187|205:171,1,88,0|0,1:2|0:0,0:0:0:0:
254,127,3854,1,8,2:2:0:0:
262,111,3941,1,8,0:3:0:0:
346,46,4116,1,8,0:2:0:0:
433,105,4290,5,0,1:2:0:0:
438,120,4639,1,0,1:2:0:0:
443,136,4988,1,0,1:2:0:0:
448,152,5337,1,0,1:2:0:0:
453,168,5686,5,4,0:3:0:0:
458,184,5860,1,8,0:3:0:0:
463,200,6034,1,4,0:3:0:0:
468,216,6209,1,8,0:3:0:0:
473,232,6383,1,4,0:3:0:0:
478,248,6558,5,8,0:2:0:0:
483,264,6645,1,8,0:2:0:0:
488,280,6732,1,8,0:2:0:0:
493,296,6819,1,8,0:2:0:0:
498,312,6906,1,8,0:2:0:0:
503,328,6994,1,8,0:2:0:0:
508,344,7081,5,0,0:2:0:0:
507,343,7779,6,0,P|437:294|351:303,1,176,6|8,1:1|0:2,0:0:0:0:
202,359,8302,2,0,L|90:351,1,88,6|0,0:1|1:2,0:0:0:0:
3,227,8651,5,6,0:2:0:0:
125,150,8825,1,10,0:2:0:0:
202,272,8999,2,0,P|209:315|201:358,1,88,6|0,0:1|1:2,0:0:0:0:
125,150,9348,5,6,0:2:0:0:
202,272,9523,1,10,0:2:0:0:
326,196,9697,2,0,P|369:188|411:196,1,88,6|0,0:1|1:2,0:0:0:0:
202,272,10046,5,6,0:1:0:0:
326,195,10220,2,0,P|333:151|324:108,1,88,10|4,0:1|0:2,0:0:0:0:
183,44,10569,5,2,1:2:0:0:
285,17,10744,2,0,L|380:21,1,88,4|8,0:2|0:2,0:0:0:0:
326,195,11092,2,0,P|317:151|324:108,1,88,6|0,0:1|1:2,0:0:0:0:
201,181,11441,5,6,0:2:0:0:
303,278,11616,1,10,0:2:0:0:
324,108,11790,2,0,L|419:112,1,88,6|0,0:1|1:2,0:0:0:0:
201,181,12139,5,6,0:2:0:0:
324,108,12313,1,10,0:2:0:0:
200,38,12488,2,0,L|105:34,1,88,6|0,0:1|1:0,0:0:0:0:
324,108,12837,5,6,0:1:0:0:
201,181,13011,1,10,0:2:0:0:
198,202,13098,1,8,0:2:0:0:
195,224,13185,1,8,0:2:0:0:
192,246,13273,1,8,0:2:0:0:
190,268,13360,5,4,1:1:0:0:
72,369,13534,2,0,L|60:273,1,96.8000029541017,4|8,0:2|0:2,0:0:0:0:
178,364,13883,2,0,L|189:268,1,96.8000029541017,6|0,0:1|1:2,0:0:0:0:
387,194,14232,5,6,0:2:0:0:
387,194,14319,1,2,0:2:0:0:
387,194,14406,1,10,0:2:0:0:
352,364,14581,2,0,L|340:268,1,96.8000029541017,6|0,2:1|1:2,0:0:0:0:
259,131,14930,5,6,0:2:0:0:
387,194,15104,1,10,0:2:0:0:
352,20,15279,2,0,L|340:116,1,96.8000029541017,6|0,0:1|1:2,0:0:0:0:
313,188,15540,1,2,0:2:0:0:
304,205,15627,5,6,0:2:0:0:
246,34,15802,2,0,L|258:130,1,96.8000029541017,10|4,0:1|0:2,0:0:0:0:
244,292,16151,5,2,1:2:0:0:
105,193,16325,2,0,L|201:180,1,96.8000029541017,4|8,0:2|0:2,0:0:0:0:
54,66,16674,2,0,L|150:79,1,96.8000029541017,6|0,0:1|1:2,0:0:0:0:
0,199,17023,5,6,0:2:0:0:
0,199,17110,1,2,0:2:0:0:
0,199,17197,1,10,0:2:0:0:
54,318,17372,2,0,L|150:305,1,96.8000029541017,6|0,0:1|1:2,0:0:0:0:
299,351,17720,5,6,0:2:0:0:
337,231,17895,1,10,0:2:0:0:
458,318,18069,2,0,L|362:305,1,96.8000029541017,6|8,0:1|0:2,0:0:0:0:
299,351,18331,1,2,0:2:0:0:
283,362,18418,5,6,0:2:0:0:
149,305,18592,1,8,0:2:0:0:
144,269,18680,1,8,0:2:0:0:
139,233,18767,1,8,0:2:0:0:
134,197,18854,1,8,0:2:0:0:
129,161,18941,6,0,P|93:139|50:148,1,66.0000025177003,4|0,1:2|0:2,0:0:0:0:
60,148,19203,1,2,0:2:0:0:
52,158,19290,1,10,0:2:0:0:
0,235,19465,1,0,0:2:0:0:
40,318,19639,1,0,1:2:0:0:
131,324,19813,2,0,L|196:322,1,66.0000025177003,2|8,0:2|0:2,0:0:0:0:
305,295,20162,6,0,B|277:276|277:276|299:326|273:371,1,132.000005035401,2|2,0:2|0:2,0:0:0:0:
196,322,20685,1,8,0:2:0:0:
177,233,20860,1,0,0:2:0:0:
226,156,21034,1,0,1:2:0:0:
206,66,21209,1,0,0:2:0:0:
128,16,21383,1,8,0:2:0:0:
128,16,21732,5,2,1:2:0:0:
92,21,21848,5,2,0:2:0:0:
57,27,21965,5,2,0:2:0:0:
22,33,22081,5,10,0:2:0:0:
0,122,22255,1,2,0:2:0:0:
77,170,22430,5,2,1:2:0:0:
82,181,22517,1,2,0:2:0:0:
87,193,22604,1,2,0:2:0:0:
65,281,22779,1,10,0:2:0:0:
141,329,22953,1,2,0:2:0:0:
176,187,23127,5,0,1:2:0:0:
65,281,23302,1,2,0:2:0:0:
87,193,23476,5,8,0:2:0:0:
141,329,23651,1,2,0:2:0:0:
211,272,23825,5,0,1:2:0:0:
65,281,23999,2,0,L|9:276,1,33.0000012588501,8|8,0:2|0:2,0:0:0:0:
176,187,24174,6,2,P|208:177|237:178,1,49.5000018882752,0|0,1:1|0:2,0:1:0:0:
256,192,24523,5,0,1:2:0:0:
301,272,24697,1,0,0:2:0:0:
389,296,24872,1,8,0:2:0:0:
468,250,25046,1,0,0:2:0:0:
492,162,25220,1,0,1:2:0:0:
446,83,25395,2,0,L|377:73,1,66.0000025177003,2|8,0:2|0:2,0:0:0:0:
308,5,25744,6,0,B|306:23|313:39|313:39|302:73|302:73|321:103|314:138,1,132.000005035401,2|2,0:2|0:2,0:0:0:0:
314,145,26180,1,2,0:2:0:0:
313,158,26267,1,10,0:2:0:0:
292,248,26441,1,0,0:2:0:0:
203,274,26616,1,0,1:2:0:0:
135,209,26790,1,0,0:2:0:0:
225,182,26965,1,8,0:2:0:0:
225,182,27313,5,2,1:2:0:0:
227,168,27401,1,2,0:2:0:0:
229,154,27488,1,2,0:2:0:0:
231,140,27575,1,2,0:2:0:0:
233,126,27662,1,10,0:2:0:0:
194,42,27837,1,2,0:2:0:0:
286,50,28011,5,2,1:2:0:0:
300,48,28098,1,2,0:2:0:0:
314,46,28185,1,2,0:2:0:0:
328,44,28273,1,2,0:2:0:0:
342,42,28360,1,10,0:2:0:0:
426,81,28534,1,2,0:2:0:0:
345,170,28709,5,0,1:2:0:0:
286,50,28883,1,2,0:2:0:0:
331,172,29058,5,8,0:2:0:0:
300,48,29232,1,2,0:2:0:0:
317,174,29406,5,0,1:2:0:0:
314,46,29581,1,2,0:2:0:0:
303,176,29755,5,8,0:2:0:0:
328,44,29930,1,2,0:2:0:0:
428,184,30104,6,0,B|436:243|425:314|425:314|445:260,1,176,6|8,1:1|0:2,0:0:0:0:
499,125,30627,2,0,P|462:100|419:91,1,88,6|0,0:1|1:2,0:0:0:0:
302,257,30976,5,6,0:2:0:0:
177,185,31151,1,10,0:2:0:0:
302,112,31325,2,0,P|319:72|321:28,1,88,6|0,0:1|1:2,0:0:0:0:
177,185,31674,5,6,0:2:0:0:
302,112,31848,1,10,0:2:0:0:
177,41,32023,2,0,P|137:23|93:21,1,88,6|0,0:1|1:2,0:0:0:0:
302,112,32372,5,6,1:1:0:0:
116,112,32546,2,0,P|72:116|33:137,1,88,10|4,2:1|0:2,0:0:0:0:
21,342,32895,5,2,1:2:0:0:
92,290,33069,2,0,L|99:203,1,88,4|8,0:2|0:2,0:0:0:0:
163,341,33418,2,0,L|250:348,1,88,6|0,0:1|1:2,0:0:0:0:
438,278,33767,5,6,0:2:0:0:
355,177,33941,1,10,0:2:0:0:
254,260,34116,2,0,L|250:355,1,88,6|0,2:1|1:2,0:0:0:0:
355,177,34465,6,0,P|330:164|312:144,1,55,4|0,2:1|0:2,0:0:0:0:
245,182,34639,2,0,P|236:156|237:128,1,55,10|0,0:1|0:2,0:0:0:0:
163,107,34813,6,0,P|175:82|195:63,1,55,6|0,0:1|0:2,0:0:0:0:
237,128,34988,2,0,P|224:152|204:171,1,55,2|0,1:1|0:2,0:0:0:0:
128,174,35162,5,6,0:2:0:0:
273,60,35337,1,8,0:2:0:0:
299,242,35511,1,8,0:2:0:0:
305,258,35598,1,8,0:2:0:0:
311,274,35685,5,6,1:2:0:0:
439,214,35860,2,0,P|486:212|529:229,1,88,4|8,0:2|0:2,0:0:0:0:
512,58,36209,2,0,P|492:97|459:125,1,88,6|0,0:1|1:2,0:0:0:0:
295,165,36558,5,6,0:2:0:0:
439,214,36732,1,10,0:2:0:0:
311,274,36906,2,0,L|223:266,1,88,6|0,0:1|1:2,0:0:0:0:
439,214,37255,5,6,0:2:0:0:
311,274,37430,1,10,0:2:0:0:
214,170,37604,2,0,L|206:82,1,88,6|0,0:1|1:2,0:0:0:0:
311,274,37953,5,6,0:1:0:0:
214,170,38127,2,0,L|126:162,1,88,10|4,0:1|0:2,0:0:0:0:
84,323,38476,5,2,1:2:0:0:
134,249,38651,2,0,L|126:161,1,88,4|8,0:2|0:2,0:0:0:0:
7,77,38999,2,0,L|0:164,1,88,6|0,0:1|1:2,0:0:0:0:
143,43,39348,5,6,0:2:0:0:
0,164,39523,1,10,0:2:0:0:
64,13,39697,5,6,0:1:0:0:
125,162,39872,1,4,0:2:0:0:
252,40,40046,6,0,P|274:34|312:37,1,44,10|8,0:2|0:2,0:0:0:0:
370,59,40220,2,0,P|386:75|402:109,1,44,10|8,0:2|0:2,0:0:0:0:
412,170,40395,1,10,0:1:0:0:
406,191,40482,1,8,0:2:0:0:
395,210,40569,1,8,0:2:0:0:
295,262,40744,5,2,1:2:0:0:
252,40,40918,1,14,0:2:0:0:
48,352,41267,5,4,1:1:0:0:
23,263,41441,1,2,0:2:0:0:
20,249,41529,1,2,0:2:0:0:
17,235,41616,1,10,0:2:0:0:
94,184,41790,1,0,0:2:0:0:
176,225,41965,2,0,P|195:227|233:227,1,33.0000012588501,0|0,1:2|0:2,0:0:0:0:
231,214,42139,2,0,P|263:208|296:212,1,66.0000025177003,2|8,0:2|0:2,0:0:0:0:
381,302,42488,6,0,B|368:269|368:269|396:234|383:178,1,132.000005035401,2|2,0:2|0:2,0:0:0:0:
376,165,42924,1,2,0:2:0:0:
368,154,43011,1,10,0:2:0:0:
296,212,43185,1,0,0:2:0:0:
209,178,43360,1,0,1:2:0:0:
194,85,43534,2,0,L|190:42,1,33.0000012588501,0|0,0:2|0:2,0:0:0:0:
172,33,43709,2,0,P|139:24|95:30,1,66.0000025177003,8|0,0:2|0:2,0:0:0:0:
11,123,44058,5,2,1:2:0:0:
10,136,44145,1,2,0:2:0:0:
9,149,44232,1,2,0:2:0:0:
8,162,44319,1,2,0:2:0:0:
7,175,44406,6,0,L|13:220,1,33.0000012588501,10|0,0:2|0:2,0:0:0:0:
8,284,44581,2,0,L|2:329,1,33.0000012588501,2|0,0:2|0:2,0:0:0:0:
77,248,44755,5,2,1:2:0:0:
88,241,44842,1,2,0:2:0:0:
100,236,44930,1,2,0:2:0:0:
112,233,45017,1,2,0:2:0:0:
124,230,45104,6,0,L|170:225,1,33.0000012588501,10|0,0:2|0:2,0:0:0:0:
227,255,45279,2,0,L|273:260,1,33.0000012588501,2|0,0:2|0:2,0:0:0:0:
360,127,45453,5,0,1:2:0:0:
216,179,45627,1,0,0:2:0:0:
329,43,45802,5,8,0:2:0:0:
303,195,45976,1,0,0:2:0:0:
240,27,46151,5,0,1:2:0:0:
361,128,46325,2,0,L|403:130,1,33.0000012588501,8|8,0:2|0:2,0:0:0:0:
512,71,46499,6,0,P|479:73|442:56,1,66,2|0,0:2|0:2,0:0:0:0:
428,44,46848,5,0,1:2:0:0:
393,129,47023,2,0,L|389:161,1,33.0000012588501,2|0,0:2|0:2,0:0:0:0:
484,148,47197,5,8,0:2:0:0:
389,161,47372,2,0,L|385:193,1,33.0000012588501,2|0,0:2|0:2,0:0:0:0:
299,142,47546,5,0,1:2:0:0:
384,193,47720,1,2,0:2:0:0:
383,206,47808,1,2,0:2:0:0:
381,219,47895,1,10,0:2:0:0:
333,319,48069,6,0,B|362:305|399:325|399:325|434:327|457:308,1,132.000005035401,2|2,0:2|0:2,0:0:0:0:
466,297,48505,1,2,0:2:0:0:
471,284,48592,1,10,0:2:0:0:
381,219,48767,2,0,L|378:176,1,33.0000012588501,2|0,0:2|0:2,0:0:0:0:
486,167,48941,5,0,1:2:0:0:
378,186,49116,2,0,L|375:143,1,33.0000012588501,2|0,0:2|0:2,0:0:0:0:
486,167,49290,2,0,L|488:209,2,33.0000012588501,8|0|0,0:2|0:2|0:2,0:0:0:0:
461,77,49639,5,2,1:2:0:0:
458,64,49726,1,2,0:2:0:0:
370,33,49901,1,2,0:2:0:0:
361,23,49988,1,10,0:2:0:0:
269,40,50162,1,2,0:2:0:0:
244,129,50337,5,2,1:2:0:0:
241,142,50424,1,2,0:2:0:0:
153,173,50598,1,2,0:2:0:0:
144,183,50685,1,10,0:2:0:0:
53,165,50860,1,2,0:2:0:0:
114,55,51034,5,0,1:2:0:0:
144,183,51209,1,2,0:2:0:0:
123,45,51383,5,8,0:2:0:0:
153,173,51558,1,2,0:2:0:0:
249,84,51732,5,0,1:2:0:0:
132,35,51906,1,2,0:2:0:0:
258,74,52081,5,8,0:2:0:0:
141,25,52255,1,2,0:2:0:0:
58,121,52430,5,0,1:2:0:0:
54,138,52779,1,0,1:2:0:0:
50,155,53127,1,0,1:2:0:0:
46,172,53476,5,2,1:2:0:0:
58,259,53651,1,2,0:2:0:0:
111,328,53825,1,2,1:2:0:0:
126,337,54174,5,2,1:2:0:0:
206,370,54348,1,2,0:2:0:0:
291,358,54523,1,2,1:2:0:0:
359,306,54697,5,6,0:3:0:0:
365,289,54784,1,4,0:3:0:0:
372,272,54872,1,8,0:3:0:0:
385,185,55046,1,8,0:2:0:0:
352,103,55220,5,0,1:2:0:0:
341,88,55569,1,0,1:2:0:0:
330,73,55918,1,0,1:2:0:0:
319,58,56267,5,2,1:2:0:0:
233,36,56441,1,2,0:2:0:0:
170,99,56616,1,2,1:2:0:0:
168,116,56965,5,2,1:2:0:0:
191,201,57139,1,2,0:2:0:0:
278,224,57313,1,2,1:2:0:0:
341,160,57488,5,6,0:3:0:0:
348,144,57575,1,4,0:3:0:0:
355,128,57662,1,8,0:3:0:0:
418,66,57837,1,8,0:2:0:0:
440,151,58011,5,4,1:2:0:0:
442,168,58360,1,0,1:2:0:0:
444,185,58709,1,0,1:2:0:0:
446,202,59058,5,2,1:2:0:0:
456,289,59232,1,2,0:2:0:0:
466,376,59406,1,2,1:2:0:0:
448,371,59755,5,2,1:2:0:0:
360,361,59930,1,2,0:2:0:0:
274,352,60104,1,2,1:2:0:0:
188,343,60279,5,6,0:3:0:0:
170,344,60366,1,4,0:3:0:0:
152,345,60453,1,8,0:3:0:0:
66,354,60627,1,8,0:2:0:0:
30,274,60802,5,2,1:2:0:0:
29,256,61151,5,2,1:2:0:0:
40,168,61325,1,2,0:2:0:0:
51,80,61499,1,2,1:2:0:0:
62,66,61848,5,6,2:2:0:0:
124,173,62023,1,2,2:2:0:0:
176,50,62197,1,6,2:3:0:0:
236,189,62372,1,10,2:3:0:0:
290,34,62546,1,6,2:3:0:0:
348,205,62720,1,10,2:3:0:0:
404,18,62895,6,0,P|434:13|468:17,1,44,4|0,1:2|0:2,0:0:0:0:
493,98,63069,1,8,0:2:0:0:
495,114,63156,1,8,0:2:0:0:
497,130,63244,1,8,0:2:0:0:
499,146,63331,1,8,0:2:0:0:
501,162,63418,1,8,0:2:0:0:
503,178,63505,1,8,0:2:0:0:
505,194,63592,5,4,1:1:0:0:
381,310,63767,1,2,0:2:0:0:
381,310,63854,1,2,0:2:0:0:
381,310,63941,1,10,0:2:0:0:
413,143,64116,1,0,0:2:0:0:
477,329,64290,5,2,1:2:0:0:
404,157,64465,1,0,0:2:0:0:
308,351,64639,2,0,P|254:361|202:343,1,110,10|0,0:2|0:2,0:0:0:0:
275,73,64988,6,0,L|270:182,1,110,0|0,1:2|0:2,0:0:0:0:
266,255,65249,1,2,0:2:0:0:
265,272,65337,1,10,0:2:0:0:
404,157,65511,1,0,0:2:0:0:
477,329,65685,5,0,1:2:0:0:
265,272,65860,1,0,0:2:0:0:
413,143,66034,2,0,P|430:91|421:37,1,110,10|0,0:2|0:2,0:0:0:0:
98,142,66383,6,0,P|81:91|90:37,1,110,0|0,1:2|0:2,0:0:0:0:
143,50,66645,1,2,0:2:0:0:
185,84,66732,1,10,0:2:0:0:
22,198,66906,1,0,0:2:0:0:
90,37,67081,5,0,1:2:0:0:
109,235,67255,1,0,0:2:0:0:
185,84,67430,5,10,0:2:0:0:
114,250,67604,1,0,0:2:0:0:
265,154,67779,5,2,1:2:0:0:
119,265,67953,1,0,0:2:0:0:
324,242,68127,5,10,0:2:0:0:
124,280,68302,1,0,0:2:0:0:
184,84,68476,6,0,P|285:49|365:120,1,220,2|8,1:2|0:2,0:0:0:0:
52,308,69174,5,4,1:2:0:0:
59,120,69348,1,0,0:2:0:0:
184,185,69523,1,10,0:2:0:0:
0,212,69697,1,0,0:2:0:0:
156,99,69872,6,0,P|183:93|211:96,1,55,2|0,1:2|0:2,0:0:0:0:
212,270,70046,2,0,P|185:276|157:273,1,55,2|0,0:2|0:2,0:0:0:0:
184,184,70220,5,10,0:2:0:0:
238,184,70308,1,2,0:2:0:0:
282,216,70395,1,2,0:2:0:0:
299,267,70482,1,2,0:2:0:0:
284,319,70569,6,0,L|351:325,1,55,2|0,1:2|0:2,0:0:0:0:
363,147,70744,2,0,L|296:141,1,55,0|0,0:2|0:2,0:0:0:0:
212,270,70918,5,8,0:2:0:0:
275,75,71092,1,0,0:2:0:0:
379,225,71267,5,2,1:2:0:0:
261,85,71441,1,0,0:2:0:0:
441,52,71616,2,0,B|529:48|529:48|498:78,1,110,10|0,0:2|0:2,0:0:0:0:
379,225,71965,5,0,1:2:0:0:
352,39,72139,1,2,0:2:0:0:
352,39,72226,1,2,0:2:0:0:
352,39,72313,1,10,0:2:0:0:
264,205,72488,1,0,0:2:0:0:
228,19,72662,5,2,1:2:0:0:
263,221,72837,1,0,0:2:0:0:
352,39,73011,5,10,0:2:0:0:
262,237,73185,1,0,0:2:0:0:
231,34,73360,5,2,1:2:0:0:
261,253,73534,1,0,0:2:0:0:
349,54,73709,5,10,0:2:0:0:
260,269,73883,1,0,0:2:0:0:
21,139,74058,5,10,0:2:0:0:
21,139,74232,1,8,0:2:0:0:
21,139,74406,5,8,0:2:0:0:
18,111,74494,1,8,0:2:0:0:
16,84,74581,1,8,0:2:0:0:
13,56,74668,1,8,0:2:0:0:
11,29,74755,5,4,1:1:0:0:
204,101,74930,1,4,0:2:0:0:
31,249,75104,5,8,0:2:0:0:
220,104,75279,1,4,0:2:0:0:
21,139,75453,5,0,1:2:0:0:
236,107,75627,1,4,0:2:0:0:
338,311,75802,2,0,P|389:331|444:329,1,110,10|4,0:2|0:2,0:0:0:0:
426,50,76151,5,0,1:2:0:0:
282,222,76325,1,6,0:2:0:0:
282,222,76412,1,2,0:2:0:0:
282,222,76499,1,10,0:2:0:0:
318,33,76674,1,4,0:2:0:0:
403,229,76848,5,0,1:2:0:0:
325,48,77023,1,4,0:2:0:0:
169,240,77197,2,0,P|114:245|62:229,1,110,10|4,0:2|0:2,0:0:0:0:
208,41,77546,5,0,1:2:0:0:
290,230,77720,1,6,0:2:0:0:
290,230,77808,1,2,0:2:0:0:
290,230,77895,1,10,0:2:0:0:
325,48,78069,1,4,0:2:0:0:
169,240,78244,5,2,1:2:0:0:
93,64,78418,1,4,0:2:0:0:
165,256,78592,5,10,0:2:0:0:
97,48,78767,1,4,0:2:0:0:
156,270,78941,5,2,1:2:0:0:
105,33,79116,1,4,0:2:0:0:
143,281,79290,5,8,0:2:0:0:
113,18,79465,1,4,0:2:0:0:
17,164,79639,5,2,1:2:0:0:
128,150,79813,1,4,0:2:0:0:
238,137,79988,2,0,L|359:146,1,110,8|4,0:2|0:2,0:0:0:0:
480,352,80337,5,4,1:2:0:0:
507,156,80511,1,4,0:2:0:0:
400,330,80685,5,10,0:2:0:0:
504,139,80860,1,4,0:2:0:0:
328,288,81034,5,0,1:2:0:0:
501,122,81209,1,4,0:2:0:0:
269,228,81383,5,10,0:2:0:0:
498,105,81558,1,4,0:2:0:0:
328,287,81732,2,0,P|279:311|226:300,1,110,2|4,1:2|0:2,0:0:0:0:
153,63,82081,5,10,0:2:0:0:
226,300,82255,1,4,0:2:0:0:
395,119,82430,5,2,1:2:0:0:
274,91,82604,1,4,0:2:0:0:
153,63,82779,2,0,L|34:57,1,110,8|4,0:2|0:2,0:0:0:0:
328,287,83127,6,0,L|437:292,1,110,2|4,1:2|0:2,0:0:0:0:
314,22,83476,5,10,0:2:0:0:
226,300,83651,1,4,0:2:0:0:
404,66,83825,5,2,1:2:0:0:
214,289,83999,1,4,0:2:0:0:
479,131,84174,5,10,0:2:0:0:
202,278,84348,1,4,0:2:0:0:
314,22,84523,5,2,1:1:0:0:
437,292,84697,1,4,0:2:0:0:
457,12,84872,5,10,0:1:0:0:
328,287,85046,1,4,0:2:0:0:
186,39,85220,5,10,0:2:0:0:
186,39,85395,1,8,0:2:0:0:
186,39,85569,5,8,0:2:0:0:
150,39,85656,1,8,0:2:0:0:
115,36,85744,1,8,0:2:0:0:
82,34,85831,1,8,0:2:0:0:
49,32,85918,5,4,0:2:0:0:
256,192,88534,5,4,0:2:0:0:
256,192,88622,1,4,0:2:0:0:
256,192,88709,1,4,0:2:0:0:
256,192,91151,5,8,0:2:0:0:
256,192,91499,5,4,1:1:0:0:
384,130,91674,2,0,L|287:118,1,96.8000029541017,4|8,0:2|0:2,0:0:0:0:
384,254,92023,2,0,L|287:266,1,96.8000029541017,6|0,0:1|1:2,0:0:0:0:
480,192,92372,5,6,0:2:0:0:
480,192,92459,1,2,0:2:0:0:
480,192,92546,1,10,0:2:0:0:
396,350,92720,2,0,L|384:254,1,96.8000029541017,6|0,2:1|1:2,0:0:0:0:
287,117,93069,5,6,0:2:0:0:
287,266,93244,1,10,0:2:0:0:
384,130,93418,2,0,L|396:34,1,96.8000029541017,6|0,0:1|1:2,0:0:0:0:
472,12,93680,1,2,0:2:0:0:
491,10,93767,5,6,0:2:0:0:
480,192,93941,2,0,L|468:96,1,96.8000029541017,10|4,0:1|0:2,0:0:0:0:
383,253,94290,5,2,1:2:0:0:
287,117,94465,2,0,L|191:103,1,96.8000029541017,4|8,0:2|0:2,0:0:0:0:
287,240,94813,2,0,L|383:253,1,96.8000029541017,6|0,0:1|1:2,0:0:0:0:
161,229,95162,5,6,0:2:0:0:
161,229,95249,1,2,0:2:0:0:
161,229,95337,1,10,0:2:0:0:
287,117,95511,2,0,L|300:21,1,96.8000029541017,6|0,0:1|1:2,0:0:0:0:
287,240,95860,5,6,0:2:0:0:
191,104,96034,1,10,0:2:0:0:
161,229,96209,2,0,L|148:325,1,96.8000029541017,6|8,0:1|0:2,0:0:0:0:
80,362,96470,1,2,0:2:0:0:
61,365,96558,5,6,0:2:0:0:
0,234,96732,1,8,0:2:0:0:
5,198,96819,1,8,0:2:0:0:
10,162,96906,1,8,0:2:0:0:
15,126,96994,1,8,0:2:0:0:
20,89,97081,6,0,P|46:79|83:79,1,66.0000025177003,4|2,1:2|0:2,0:0:0:0:
94,85,97342,1,2,0:2:0:0:
104,93,97430,1,10,0:2:0:0:
141,177,97604,1,0,0:2:0:0:
226,210,97779,1,0,1:2:0:0:
309,173,97953,2,0,L|315:107,1,66.0000025177003,2|8,0:2|0:2,0:0:0:0:
209,22,98302,6,0,B|274:42|276:0|337:13,1,132.000005035401,2|2,0:2|0:2,0:0:0:0:
349,19,98738,1,2,0:0:0:0:
359,26,98825,1,10,0:2:0:0:
315,107,98999,1,0,0:2:0:0:
363,185,99174,1,0,1:2:0:0:
454,182,99348,1,0,0:2:0:0:
496,101,99523,1,8,0:2:0:0:
496,101,99872,5,2,1:2:0:0:
492,88,99959,1,2,0:2:0:0:
404,58,100133,1,2,0:2:0:0:
400,45,100220,1,10,0:2:0:0:
312,15,100395,1,2,0:2:0:0:
257,90,100569,5,2,1:2:0:0:
255,103,100656,1,2,0:2:0:0:
253,116,100744,1,2,0:2:0:0:
251,129,100831,1,2,0:0:0:0:
249,142,100918,1,10,0:2:0:0:
177,199,101092,1,2,0:2:0:0:
124,59,101267,5,0,1:2:0:0:
249,142,101441,2,0,L|296:139,1,33.0000012588501,2|0,1:2|1:2,0:0:0:0:
218,56,101616,5,8,0:2:0:0:
100,148,101790,1,2,0:2:0:0:
177,199,101965,5,0,1:2:0:0:
124,59,102139,2,0,L|121:12,1,33.0000012588501,8|8,0:2|0:2,0:0:0:0:
100,148,102313,6,0,L|93:227,1,66,2|0,0:2|0:2,0:0:0:0:
72,255,102662,5,0,1:2:0:0:
117,336,102837,1,0,0:2:0:0:
205,360,103011,1,8,0:2:0:0:
285,316,103185,1,0,0:2:0:0:
310,229,103360,1,0,1:2:0:0:
264,148,103534,2,0,P|260:114|269:81,1,66.0000025177003,2|8,0:2|0:2,0:0:0:0:
389,103,103883,6,0,B|342:115|342:115|305:116|267:83,1,132.000005035401,2|2,0:2|0:2,0:0:0:0:
258,75,104319,1,2,0:2:0:0:
249,65,104406,1,10,0:2:0:0:
166,20,104581,1,0,0:2:0:0:
86,69,104755,1,0,1:2:0:0:
88,162,104930,1,8,0:2:0:0:
170,208,105104,1,8,1:2:0:0:
170,208,105453,5,8,2:2:0:0:
171,234,105540,1,8,2:2:0:0:
172,260,105627,1,8,2:2:0:0:
173,286,105715,1,8,2:2:0:0:
174,312,105802,1,8,2:2:0:0:
246,369,105976,1,8,2:2:0:0:
315,309,106151,5,8,2:2:0:0:
338,296,106238,1,8,2:2:0:0:
361,284,106325,1,8,2:2:0:0:
384,272,106412,1,8,2:2:0:0:
407,260,106499,1,8,2:2:0:0:
488,301,106674,1,8,2:2:0:0:
483,210,106848,5,4,1:2:0:0:
407,260,107023,1,2,0:2:0:0:
478,119,107197,5,8,0:2:0:0:
326,219,107372,1,2,0:2:0:0:
483,210,107546,6,0,L|424:197,1,33.0000012588501,2|0,1:2|0:2,0:0:0:0:
330,309,107720,1,2,0:2:0:0:
245,178,107895,6,0,L|237:103,1,66,2|0,0:2|0:2,0:0:0:0:
256,88,108244,5,4,1:2:0:0:
332,15,108418,1,2,0:2:0:0:
346,12,108505,1,2,0:2:0:0:
360,11,108592,1,10,0:2:0:0:
458,46,108767,1,0,0:2:0:0:
502,140,108941,1,0,1:2:0:0:
466,237,109116,2,0,L|465:320,1,74.8000014266968,2|8,0:2|0:2,0:0:0:0:
368,384,109465,6,0,P|305:344|231:340,1,149.600002853394,2|2,0:2|0:2,0:0:0:0:
218,347,109901,1,2,0:0:0:0:
205,354,109988,1,10,0:2:0:0:
101,365,110162,1,0,0:2:0:0:
19,299,110337,1,0,1:2:0:0:
7,194,110511,1,8,0:2:0:0:
72,111,110685,1,8,1:2:0:0:
72,111,111034,5,2,1:2:0:0:
86,106,111122,1,2,0:2:0:0:
100,101,111209,1,2,0:2:0:0:
114,96,111296,1,2,0:2:0:0:
127,90,111383,6,0,P|140:60|147:33,1,37.4000007133484,10|0,0:2|0:2,0:0:0:0:
212,24,111558,2,0,L|296:28,1,74.8000014266968,2|0,0:2|0:2,0:0:0:0:
349,73,111819,2,0,P|357:56|363:38,1,37.4000007133484,2|0,0:2|1:2,0:0:0:0:
435,26,111994,1,2,0:0:0:0:
449,23,112081,1,10,0:2:0:0:
507,109,112255,1,2,0:2:0:0:
382,172,112430,5,0,1:2:0:0:
349,73,112604,2,0,P|330:69|284:69,1,37.4000007133484,2|0,1:2|1:0,0:0:0:0:
387,182,112779,5,8,0:2:0:0:
250,176,112953,1,2,0:2:0:0:
392,192,113127,5,0,1:2:0:0:
335,298,113302,2,0,P|315:300|269:297,1,37.4000007133484,8|8,0:2|0:2,0:0:0:0:
392,192,113476,6,0,P|429:186|478:189,1,66,2|0,0:2|0:2,0:0:0:0:
485,199,113825,5,0,1:2:0:0:
507,96,113999,1,0,0:2:0:0:
428,26,114174,1,8,0:2:0:0:
327,59,114348,1,0,0:2:0:0:
305,162,114523,1,0,1:2:0:0:
204,194,114697,2,0,L|129:189,1,74.8000014266968,2|8,0:2|0:2,0:0:0:0:
27,86,115046,6,0,B|54:111|45:152|45:152|30:188|46:229,1,149.600002853394,2|2,0:2|0:2,0:0:0:0:
54,243,115482,1,2,0:2:0:0:
61,256,115569,1,10,0:2:0:0:
120,342,115744,1,0,0:2:0:0:
222,361,115918,1,0,1:2:0:0:
308,302,116092,1,8,0:2:0:0:
327,200,116267,1,8,1:2:0:0:
327,200,116616,5,2,1:2:0:0:
312,199,116703,1,2,0:2:0:0:
254,112,116877,1,2,0:2:0:0:
239,111,116965,1,10,0:2:0:0:
180,25,117139,1,2,0:2:0:0:
282,17,117313,5,2,1:2:0:0:
297,20,117401,1,2,0:2:0:0:
313,22,117488,1,2,0:2:0:0:
328,25,117575,1,2,0:2:0:0:
343,28,117662,1,10,0:2:0:0:
447,19,117837,1,2,0:2:0:0:
402,113,118011,5,0,1:2:0:0:
343,28,118185,1,2,0:2:0:0:
395,122,118360,5,8,0:2:0:0:
290,120,118534,1,2,0:2:0:0:
393,133,118709,5,0,1:2:0:0:
328,218,118883,2,0,L|323:255,1,37.4000007133484,4|4,0:3|0:3,0:0:0:0:
261,313,119058,6,0,L|251:278,1,37.4000007133484,8|8,0:3|0:3,0:0:0:0:
371,326,119232,2,0,L|391:294,1,37.4000007133484,8|8,0:3|0:3,0:0:0:0:
328,218,119406,6,0,L|267:202,2,52.7999983886719,6|2|2,1:2|0:2|1:2,0:0:0:0:
402,221,119930,1,2,0:2:0:0:
408,226,120017,1,2,0:2:0:0:
473,192,120191,1,2,0:2:0:0:
479,197,120279,1,2,0:2:0:0:
483,123,120453,1,2,1:2:0:0:
420,82,120627,1,2,0:2:0:0:
352,116,120802,6,0,P|328:118|291:109,1,52.7999983886719,2|2,1:2|0:2,0:0:0:0:
242,66,121151,1,2,1:2:0:0:
169,55,121325,1,2,0:2:0:0:
99,80,121499,1,2,1:2:0:0:
51,137,121674,1,4,0:3:0:0:
50,145,121761,1,4,0:3:0:0:
49,153,121848,1,8,0:3:0:0:
61,226,122023,1,8,0:2:0:0:
107,283,122197,6,0,P|112:322|108:354,2,52.7999983886719,2|2|2,1:2|0:2|1:2,0:0:0:0:
61,226,122720,1,2,0:2:0:0:
60,218,122808,1,2,0:2:0:0:
50,145,122982,1,2,0:2:0:0:
51,137,123069,1,2,0:2:0:0:
99,80,123244,1,2,1:2:0:0:
169,55,123418,1,2,0:2:0:0:
242,66,123592,6,0,P|266:68|303:59,1,52.7999983886719,2|2,1:2|0:2,0:0:0:0:
362,34,123941,1,2,1:2:0:0:
431,63,124116,1,2,0:2:0:0:
459,132,124290,1,2,1:2:0:0:
430,200,124465,1,4,0:3:0:0:
428,208,124552,1,4,0:3:0:0:
426,216,124639,1,8,0:3:0:0:
424,225,124726,1,8,0:3:0:0:
423,233,124813,1,8,0:3:0:0:
421,241,124901,1,8,0:3:0:0:
419,250,124988,6,0,P|445:267|479:266,2,52.7999983886719,6|2|2,1:2|0:2|1:2,0:0:0:0:
351,219,125511,1,2,0:2:0:0:
344,217,125598,1,2,0:2:0:0:
281,255,125773,1,2,0:2:0:0:
273,253,125860,1,2,0:2:0:0:
283,326,126034,1,2,1:2:0:0:
344,367,126209,1,2,0:2:0:0:
410,334,126383,6,0,P|440:334|479:344,1,52.7999983886719,2|2,1:2|0:2,0:0:0:0:
511,282,126732,1,2,1:2:0:0:
506,207,126906,1,2,0:2:0:0:
449,157,127081,1,2,1:2:0:0:
373,161,127255,1,4,0:3:0:0:
365,162,127342,1,4,0:3:0:0:
357,163,127430,1,8,0:3:0:0:
315,223,127604,1,8,0:2:0:0:
284,156,127779,6,0,L|276:91,2,52.7999983886719,2|2|2,1:2|0:2|1:2,0:0:0:0:
242,217,128302,1,2,0:2:0:0:
239,224,128389,1,2,0:2:0:0:
166,238,128563,1,2,0:2:0:0:
159,240,128651,1,2,0:2:0:0:
97,198,128825,1,2,1:2:0:0:
91,124,128999,1,2,0:2:0:0:
284,156,129174,6,0,B|288:113|288:113|276:89|276:89|278:53,1,105.599996777344,6|0,1:2|0:2,0:0:0:0:
239,224,129697,5,2,0:2:0:0:
212,200,129784,1,2,0:2:0:0:
194,169,129872,2,0,L|189:113,1,44,2|0,0:2|0:2,0:0:0:0:
284,156,130046,2,0,L|288:113,1,44,2|0,2:2|2:2,0:0:0:0:
350,228,130220,5,2,0:2:0:0:
304,244,130308,1,2,0:2:0:0:
257,238,130395,1,2,0:2:0:0:
217,211,130482,1,2,0:2:0:0:
194,169,130569,5,4,1:1:0:0:
285,329,130744,1,2,0:2:0:0:
285,329,130831,1,2,0:2:0:0:
285,329,130918,1,10,0:2:0:0:
284,156,131092,1,0,0:2:0:0:
152,307,131267,5,2,1:2:0:0:
271,167,131441,1,0,0:2:0:0:
382,349,131616,2,0,L|398:237,1,110,10|0,0:2|0:2,0:0:0:0:
500,85,131965,6,0,P|446:88|399:62,1,110,0|0,1:2|0:2,0:0:0:0:
335,20,132226,1,2,0:2:0:0:
318,16,132313,1,10,0:2:0:0:
341,195,132488,1,0,0:2:0:0:
500,85,132662,5,0,1:2:0:0:
318,16,132837,1,0,0:2:0:0:
196,167,133011,2,0,L|180:279,1,110,10|0,0:2|0:2,0:0:0:0:
32,32,133360,5,0,1:2:0:0:
57,213,133534,1,2,0:2:0:0:
57,213,133622,1,2,0:2:0:0:
57,213,133709,1,10,0:2:0:0:
168,77,133883,1,0,0:2:0:0:
180,275,134058,5,0,1:2:0:0:
164,93,134232,1,0,0:2:0:0:
99,281,134406,5,10,0:2:0:0:
160,109,134581,1,0,0:2:0:0:
261,269,134755,5,2,1:2:0:0:
156,125,134930,1,0,0:2:0:0:
95,297,135104,5,10,0:2:0:0:
152,141,135279,1,0,0:2:0:0:
336,296,135453,6,0,P|249:349|180:275,1,220,2|8,1:2|0:2,0:0:0:0:
453,41,136151,5,4,1:2:0:0:
374,199,136325,1,0,0:2:0:0:
355,37,136499,1,10,0:2:0:0:
471,181,136674,1,0,0:2:0:0:
453,41,136848,6,0,L|446:117,1,55,2|0,1:2|0:2,0:0:0:0:
374,199,137023,2,0,L|367:123,1,55,2|0,0:2|0:2,0:0:0:0:
355,37,137197,5,10,0:2:0:0:
325,82,137284,1,2,0:2:0:0:
274,101,137372,1,2,0:2:0:0:
222,88,137459,1,2,0:2:0:0:
187,47,137546,6,0,P|151:37|129:38,1,55,2|0,1:2|0:2,0:0:0:0:
226,176,137720,1,2,0:2:0:0:
226,176,137808,1,2,0:2:0:0:
226,176,137895,1,10,0:2:0:0:
268,11,138069,1,0,0:2:0:0:
146,127,138244,5,2,1:2:0:0:
264,27,138418,1,0,0:2:0:0:
226,176,138592,2,0,L|210:288,1,110,10|0,0:2|0:2,0:0:0:0:
32,347,138941,5,0,1:2:0:0:
68,183,139116,1,2,0:2:0:0:
68,183,139203,1,2,0:2:0:0:
68,183,139290,1,10,0:2:0:0:
159,345,139465,1,0,0:2:0:0:
226,176,139639,5,2,1:2:0:0:
147,356,139813,1,0,0:2:0:0:
148,154,139988,5,10,0:2:0:0:
159,345,140162,1,0,0:2:0:0:
302,203,140337,5,2,1:2:0:0:
171,334,140511,1,0,0:2:0:0:
238,165,140685,5,10,0:2:0:0:
183,323,140860,1,0,0:2:0:0:
373,352,141034,5,10,0:2:0:0:
373,352,141209,1,8,0:2:0:0:
373,352,141383,5,8,0:2:0:0:
401,349,141470,1,8,0:2:0:0:
428,347,141558,1,8,0:2:0:0:
456,344,141645,1,8,0:2:0:0:
483,342,141732,5,4,1:1:0:0:
411,146,141906,1,4,0:2:0:0:
373,352,142081,5,8,0:2:0:0:
415,130,142255,1,4,0:2:0:0:
273,306,142430,5,0,1:2:0:0:
419,114,142604,1,4,0:2:0:0:
180,84,142779,2,0,L|70:74,1,110,10|4,0:2|0:2,0:0:0:0:
113,296,143127,5,0,1:2:0:0:
192,95,143302,1,4,0:2:0:0:
273,306,143476,5,8,0:2:0:0:
204,106,143651,1,4,0:2:0:0:
189,350,143825,5,0,1:2:0:0:
216,117,143999,1,4,0:2:0:0:
360,342,144174,2,0,P|413:353|468:337,1,110,10|4,0:2|0:2,0:0:0:0:
512,57,144523,5,0,1:2:0:0:
412,230,144697,1,6,0:2:0:0:
412,230,144784,1,2,0:2:0:0:
412,230,144872,1,10,0:2:0:0:
409,32,145046,5,6,0:2:0:0:
409,32,145133,1,2,0:0:0:0:
409,32,145220,1,2,1:2:0:0:
512,212,145395,1,4,0:2:0:0:
315,137,145569,5,10,0:2:0:0:
503,71,145744,1,4,0:2:0:0:
314,154,145918,5,2,1:2:0:0:
499,55,146092,1,4,0:2:0:0:
312,170,146267,5,8,0:2:0:0:
495,39,146441,1,4,0:2:0:0:
419,217,146616,5,2,1:2:0:0:
312,170,146790,1,4,0:2:0:0:
196,152,146965,2,0,L|79:144,1,110,8|4,0:2|0:2,0:0:0:0:
0,359,147313,5,4,1:2:0:0:
69,132,147488,1,4,0:2:0:0:
17,347,147662,5,10,0:2:0:0:
52,120,147837,1,4,0:2:0:0:
34,335,148011,5,0,1:2:0:0:
35,108,148185,1,4,0:2:0:0:
51,323,148360,5,10,0:2:0:0:
18,96,148534,1,4,0:2:0:0:
193,277,148709,2,0,P|244:297|297:283,1,110,2|4,1:2|0:2,0:0:0:0:
371,23,149058,5,10,0:2:0:0:
249,204,149232,1,4,0:2:0:0:
220,53,149406,5,2,1:2:0:0:
310,114,149581,1,4,0:2:0:0:
400,175,149755,2,0,L|518:182,1,110,8|4,0:2|0:2,0:0:0:0:
256,320,150104,5,2,1:2:0:0:
310,114,150279,1,4,0:2:0:0:
378,337,150453,5,10,0:2:0:0:
313,98,150627,1,4,0:2:0:0:
253,336,150802,5,2,1:2:0:0:
316,82,150976,1,4,0:2:0:0:
381,353,151151,5,10,0:2:0:0:
319,66,151325,1,4,0:2:0:0:
130,316,151499,5,2,1:1:0:0:
400,175,151674,1,4,0:2:0:0:
150,138,151848,5,10,0:1:0:0:
381,353,152023,1,4,0:2:0:0:
319,66,152197,5,10,0:2:0:0:
319,66,152372,1,8,0:2:0:0:
319,66,152546,5,8,0:2:0:0:
283,66,152633,1,8,0:2:0:0:
248,63,152720,1,8,0:2:0:0:
215,61,152808,1,8,0:2:0:0:
182,59,152895,5,6,1:2:0:0:
163,70,152982,1,2,0:2:0:0:
148,87,153069,1,6,0:2:0:0:
138,106,153156,1,2,0:2:0:0:
133,127,153244,1,10,0:2:0:0:
133,149,153331,1,2,0:2:0:0:
139,170,153418,1,6,0:2:0:0:
149,189,153505,1,2,0:2:0:0:
165,205,153592,1,2,1:2:0:0:
180,220,153680,1,2,0:2:0:0:
191,239,153767,1,6,0:2:0:0:
196,260,153854,1,2,0:2:0:0:
197,282,153941,1,10,0:2:0:0:
191,304,154029,1,2,0:2:0:0:
181,323,154116,1,6,0:2:0:0:
166,339,154203,1,2,0:2:0:0:
148,351,154290,5,2,1:2:0:0:
139,319,154377,1,2,0:2:0:0:
138,286,154465,1,6,0:2:0:0:
144,253,154552,1,2,0:2:0:0:
157,223,154639,1,10,0:2:0:0:
177,197,154726,1,2,0:2:0:0:
202,176,154813,1,6,0:2:0:0:
232,161,154901,1,2,0:2:0:0:
263,152,154988,1,2,1:2:0:0:
296,152,155075,1,2,0:2:0:0:
329,158,155162,1,6,0:2:0:0:
359,172,155249,1,2,0:2:0:0:
385,192,155337,1,10,0:2:0:0:
406,217,155424,1,2,0:2:0:0:
421,246,155511,1,6,0:2:0:0:
428,278,155598,1,2,0:2:0:0:
429,311,155685,5,2,1:2:0:0:
462,283,155773,1,2,0:2:0:0:
487,246,155860,1,6,0:2:0:0:
500,205,155947,1,2,0:2:0:0:
502,161,156034,1,10,0:2:0:0:
492,118,156122,1,2,0:2:0:0:
470,80,156209,1,6,0:2:0:0:
440,48,156296,1,2,0:2:0:0:
402,27,156383,1,2,1:2:0:0:
369,55,156470,1,2,0:2:0:0:
344,92,156558,1,6,0:2:0:0:
331,133,156645,1,2,0:2:0:0:
329,177,156732,1,10,0:2:0:0:
339,220,156819,1,2,0:2:0:0:
361,258,156906,1,6,0:2:0:0:
391,290,156994,1,2,0:2:0:0:
429,311,157081,6,0,L|432:242,1,44,6|2,1:2|0:2,0:0:0:0:
480,212,157255,1,10,0:2:0:0:
493,223,157342,1,10,0:2:0:0:
507,234,157430,2,0,L|510:165,1,44,6|2,1:2|0:2,0:0:0:0:
402,27,157604,5,10,0:2:0:0:
378,74,157691,1,10,0:2:0:0:
401,122,157779,1,10,0:2:0:0:
453,134,157866,1,10,0:2:0:0:
494,101,157953,1,10,0:2:0:0:
494,48,158040,1,10,0:2:0:0:
453,15,158127,1,14,0:2:0:0:
297,209,158476,5,2,1:2:0:0:
287,223,158563,1,2,0:2:0:0:
272,233,158651,1,6,0:2:0:0:
255,236,158738,1,2,0:2:0:0:
238,233,158825,1,10,0:2:0:0:
223,223,158912,1,2,0:2:0:0:
213,208,158999,1,6,0:2:0:0:
210,191,159087,1,2,0:2:0:0:
213,174,159174,1,2,1:2:0:0:
223,159,159261,1,2,0:2:0:0:
238,150,159348,1,6,0:2:0:0:
255,146,159435,1,2,0:2:0:0:
272,150,159523,1,10,0:2:0:0:
287,159,159610,1,2,0:2:0:0:
297,174,159697,1,6,0:2:0:0:
300,191,159784,1,2,0:2:0:0:
294,207,159872,5,2,1:2:0:0:
273,183,159959,1,2,0:2:0:0:
258,153,160046,1,6,0:2:0:0:
254,121,160133,1,2,0:2:0:0:
258,88,160220,1,10,0:2:0:0:
272,59,160308,1,2,0:2:0:0:
294,34,160395,1,6,0:2:0:0:
322,17,160482,1,2,0:2:0:0:
354,9,160569,1,2,1:2:0:0:
387,10,160656,1,2,0:2:0:0:
418,21,160744,1,6,0:2:0:0:
445,40,160831,1,2,0:2:0:0:
465,66,160918,1,10,0:2:0:0:
476,97,161005,1,2,0:2:0:0:
478,130,161092,1,6,0:2:0:0:
471,162,161180,1,2,0:2:0:0:
455,190,161267,5,2,1:2:0:0:
446,147,161354,1,2,0:2:0:0:
421,112,161441,1,6,0:2:0:0:
382,91,161529,1,2,0:2:0:0:
339,89,161616,1,10,0:2:0:0:
298,105,161703,1,2,0:2:0:0:
269,137,161790,1,6,0:2:0:0:
255,178,161877,1,2,0:2:0:0:
261,222,161965,1,2,1:2:0:0:
266,265,162052,1,2,0:2:0:0:
253,306,162139,1,6,0:2:0:0:
223,338,162226,1,2,0:2:0:0:
183,354,162313,1,10,0:2:0:0:
139,352,162401,1,2,0:2:0:0:
101,331,162488,1,6,0:2:0:0:
75,296,162575,1,2,0:2:0:0:
67,253,162662,5,2,1:2:0:0:
115,271,162749,1,2,0:2:0:0:
159,245,162837,1,6,0:2:0:0:
166,194,162924,1,2,0:2:0:0:
132,156,163011,1,10,0:2:0:0:
140,105,163098,1,2,0:2:0:0:
184,79,163185,1,6,0:2:0:0:
231,96,163273,1,2,0:2:0:0:
247,143,163360,1,2,1:2:0:0:
293,160,163447,1,2,0:2:0:0:
335,134,163534,6,0,L|343:77,1,44,10|2,0:2|0:2,0:0:0:0:
426,14,163709,5,10,0:2:0:0:
431,82,163796,1,10,0:2:0:0:
436,150,163883,1,10,0:2:0:0:
443,220,163970,1,10,0:2:0:0:
448,288,164058,5,4,1:2:0:0:
256,192,164406,1,8,0:2:0:0:
256,192,164581,1,8,0:2:0:0:
64,288,164930,5,0,1:2:0:0:
256,192,165104,1,8,0:2:0:0:
192,128,165279,1,2,0:3:0:0:
64,96,165453,5,0,1:2:0:0:
64,96,165627,1,0,1:2:0:0:
256,192,165802,1,8,0:2:0:0:
256,192,165976,1,8,0:2:0:0:
448,96,166325,5,0,1:2:0:0:
256,192,166499,1,8,0:2:0:0:
320,256,166674,1,2,0:3:0:0:
448,288,166848,5,0,1:2:0:0:
256,192,167197,1,8,0:2:0:0:
256,192,167372,1,8,0:2:0:0:
64,96,167720,5,0,1:2:0:0:
256,192,167895,1,8,0:2:0:0:
192,256,168069,1,2,0:3:0:0:
64,288,168244,5,0,1:2:0:0:
64,288,168418,1,0,1:2:0:0:
256,192,168592,1,8,0:2:0:0:
256,192,168767,1,8,0:2:0:0:
448,96,169116,5,0,1:2:0:0:
256,192,169290,1,8,0:2:0:0:
320,128,169465,1,2,0:3:0:0:
256,352,169639,5,4,1:2:0:0:
256,192,169988,1,8,0:2:0:0:
256,192,170162,1,8,0:2:0:0:
64,96,170511,5,0,1:2:0:0:
256,192,170685,1,8,0:2:0:0:
320,128,170860,1,2,0:3:0:0:
448,288,171034,5,0,1:2:0:0:
448,288,171209,1,0,1:2:0:0:
256,192,171383,1,8,0:2:0:0:
256,192,171558,1,8,0:2:0:0:
64,288,171906,5,0,1:2:0:0:
256,192,172081,1,8,0:2:0:0:
320,256,172255,1,2,0:3:0:0:
0,192,172430,5,4,1:2:0:0:
224,160,172604,1,2,0:2:0:0:
240,176,172691,1,2,0:2:0:0:
256,192,172779,1,8,0:2:0:0:
320,128,172953,1,2,0:2:0:0:
336,112,173040,1,2,0:2:0:0:
352,96,173127,1,8,0:2:0:0:
160,96,173302,6,0,L|96:96,1,44,10|8,0:2|0:2,0:0:0:0:
352,288,173476,2,0,L|416:288,1,44,10|8,0:2|0:2,0:0:0:0:
160,288,173651,6,0,L|96:288,1,44,10|8,0:2|0:2,0:0:0:0:
352,96,173825,2,0,L|416:96,1,44,10|8,0:2|0:2,0:0:0:0:
160,192,173999,6,0,L|112:192,1,26.399999194336,10|8,0:2|0:2,0:0:0:0:
352,192,174174,2,0,L|403:192,1,26.399999194336,10|8,0:2|0:2,0:0:0:0:
256,96,174348,5,8,0:2:0:0:
256,64,174435,1,8,0:2:0:0:
256,32,174523,1,8,0:2:0:0:
256,352,174697,5,2,0:2:0:0:
256,256,174872,2,0,L|256:224,6,16.5000006294251,4|0|0|0|0|0|0,0:2|0:2|0:2|0:2|0:2|0:2|0:2,0:0:0:0:
159,191,175220,6,0,P|153:159|142:128,1,66.0000025177003,2|0,0:2|0:2,0:0:0:0:
352,191,175395,2,0,P|358:159|369:128,1,66.0000025177003,2|0,0:2|0:2,0:0:0:0:
256,32,175569,5,12,0:2:0:0:
163,208,175744,1,4,0:2:0:0:
147,24,175918,5,0,1:2:0:0:
167,225,176092,1,4,0:2:0:0:
27,28,176267,2,0,L|18:160,1,114.399994763184,10|4,0:2|0:2,0:0:0:0:
256,352,176616,6,0,L|265:220,1,114.399994763184,0|4,1:2|0:2,0:0:0:0:
274,165,176877,1,2,0:2:0:0:
275,148,176965,1,10,0:2:0:0:
377,344,177139,1,4,0:2:0:0:
387,101,177313,5,0,1:2:0:0:
378,327,177488,1,4,0:2:0:0:
508,117,177662,2,0,B|527:72|504:27|504:27|468:73,1,114.399994763184,10|4,0:2|0:2,0:0:0:0:
379,310,178011,5,0,1:2:0:0:
323,90,178185,1,4,0:2:0:0:
394,301,178360,5,8,0:2:0:0:
308,99,178534,1,4,0:2:0:0:
407,290,178709,5,2,1:2:0:0:
295,110,178883,1,4,0:2:0:0:
418,277,179058,5,10,0:2:0:0:
284,123,179232,1,4,0:2:0:0:
204,335,179406,5,2,1:2:0:0:
274,137,179581,1,4,0:2:0:0:
216,347,179755,5,8,0:2:0:0:
262,125,179930,1,4,0:2:0:0:
230,358,180104,5,2,1:2:0:0:
302,240,180279,1,4,0:2:0:0:
248,114,180453,2,0,B|210:89|157:110|157:110|193:69,1,114.399994763184,8|4,0:2|0:2,0:0:0:0:
451,30,180802,5,4,1:2:0:0:
182,83,180976,1,4,0:2:0:0:
444,108,181151,5,10,0:2:0:0:
195,71,181325,1,4,0:2:0:0:
423,183,181499,5,0,1:2:0:0:
208,59,181674,1,4,0:2:0:0:
389,253,181848,5,10,0:2:0:0:
221,47,182023,1,4,0:2:0:0:
78,264,182197,2,0,B|66:309|64:354|64:354|62:342|55:327,1,118.800000453186,2|4,1:2|0:2,0:0:0:0:
112,72,182546,5,10,0:2:0:0:
215,258,182720,1,4,0:2:0:0:
221,47,182895,5,2,1:2:0:0:
164,165,183069,1,4,0:2:0:0:
78,263,183244,2,0,P|36:274|5:209,1,118.800000453186,8|4,0:2|0:2,0:0:0:0:
221,47,183592,5,2,1:2:0:0:
372,322,183767,1,4,0:2:0:0:
307,23,183941,5,10,0:2:0:0:
390,320,184116,1,4,0:2:0:0:
395,13,184290,5,2,1:2:0:0:
408,319,184465,1,4,0:2:0:0:
483,18,184639,5,10,0:2:0:0:
426,317,184813,1,4,0:2:0:0:
198,15,184988,5,10,1:2:0:0:
226,355,185162,1,8,0:2:0:0:
109,25,185860,5,8,0:2:0:0:
70,342,186034,1,8,0:2:0:0:
70,342,186383,6,0,B|102:274|51:223|51:223|42:243|45:275,1,176,6|8,1:1|0:2,0:0:0:0:
174,362,186906,2,0,L|286:354,1,88,6|0,0:1|1:2,0:0:0:0:
382,197,187255,5,6,0:2:0:0:
365,336,187430,1,10,0:2:0:0:
250,251,187604,2,0,P|236:210|240:167,1,88,6|0,0:1|1:2,0:0:0:0:
365,336,187953,5,6,0:2:0:0:
250,251,188127,1,10,0:2:0:0:
382,197,188302,2,0,P|423:182|466:186,1,88,6|0,0:1|1:2,0:0:0:0:
250,251,188651,5,6,0:1:0:0:
382,197,188825,2,0,P|385:153|371:112,1,88,10|4,0:1|0:2,0:0:0:0:
142,86,189174,5,2,1:2:0:0:
207,163,189348,2,0,L|295:167,1,88,4|8,0:2|0:2,0:0:0:0:
261,336,189697,2,0,P|246:294|249:250,1,88,6|0,0:1|1:2,0:0:0:0:
382,197,190046,5,6,0:2:0:0:
248,251,190220,1,10,0:2:0:0:
106,229,190395,2,0,P|91:187|94:143,1,88,6|0,0:1|1:2,0:0:0:0:
248,251,190744,5,6,0:2:0:0:
106,229,190918,1,10,0:2:0:0:
236,166,191092,2,0,P|250:124|247:80,1,88,6|0,0:1|1:0,0:0:0:0:
32,32,191441,5,6,0:1:0:0:
93,144,191616,1,10,0:2:0:0:
97,164,191703,1,8,0:2:0:0:
100,186,191790,1,8,0:2:0:0:
104,208,191877,1,8,0:2:0:0:
107,230,191965,5,4,1:1:0:0:
192,352,192139,2,0,L|204:256,1,96.8000029541017,4|8,0:2|0:2,0:0:0:0:
22,352,192488,2,0,L|10:256,1,96.8000029541017,6|0,0:1|1:2,0:0:0:0:
146,93,192837,5,6,0:2:0:0:
146,93,192924,1,2,0:2:0:0:
146,93,193011,1,10,0:2:0:0:
204,255,193185,2,0,L|216:159,1,96.8000029541017,6|0,2:1|1:2,0:0:0:0:
301,40,193534,5,6,0:2:0:0:
216,158,193709,1,10,0:2:0:0:
373,203,193883,2,0,L|361:107,1,96.8000029541017,6|0,0:1|1:2,0:0:0:0:
312,49,194145,1,2,0:2:0:0:
301,40,194232,1,6,0:2:0:0:
185,202,194406,5,10,0:1:0:0:
134,185,194494,1,8,0:0:0:0:
134,132,194581,1,8,0:0:0:0:
185,115,194668,1,8,0:0:0:0:
216,158,194755,1,6,1:2:0:0:
216,158,195279,5,2,0:2:0:0:
216,158,195627,5,2,0:2:0:0:
222,228,195802,1,2,0:2:0:0:
225,298,195976,1,2,0:2:0:0:
222,228,196325,5,2,0:2:0:0:
225,298,196499,1,2,0:2:0:0:
285,261,196674,1,2,0:2:0:0:
225,298,197023,5,2,0:2:0:0:
285,261,197197,2,2,L|305:260,1,17.6,2|0,0:2|0:2,0:1:0:0:
