osu file format v14

[General]
AudioFilename: audio.mp3
AudioLeadIn: 0
PreviewTime: 164058
Countdown: 0
SampleSet: Soft
StackLeniency: 0.7
Mode: 0
LetterboxInBreaks: 0
WidescreenStoryboard: 0

[Editor]
DistanceSpacing: 1.1
BeatDivisor: 4
GridSize: 16
TimelineZoom: 1.5

[Metadata]
Title:Buriki no Dance
TitleUnicode:ブリキノダンス
Artist:96neko
ArtistUnicode:96猫
Creator:Lasse
Version:Advanced
Source:
Tags:utaite cover 日向電工 Hinata Electric Works
BeatmapID:1252702
BeatmapSetID:588211

[Difficulty]
HPDrainRate:5
CircleSize:3.6
OverallDifficulty:5
ApproachRate:6
SliderMultiplier:1.19999990463257
SliderTickRate:1

[Events]
//Background and Video events
0,0,"bg.jpg",0,0
//Break Periods
2,86118,90101
//Storyboard Layer 0 (Background)
//Storyboard Layer 1 (Fail)
//Storyboard Layer 2 (Pass)
//Storyboard Layer 3 (Foreground)
//Storyboard Sound Samples

[TimingPoints]
1500,348.837209302326,4,2,3,50,1,0
1500,-111.111111111111,4,2,3,50,0,0
5686,-111.111111111111,4,2,3,55,0,0
6558,-111.111111111111,4,2,3,60,0,0
7081,-111.111111111111,4,2,3,30,0,0
7779,348.837209302326,4,2,1,65,1,0
7866,-100,4,2,40,65,0,0
13360,-100,4,2,1,67,0,0
13534,-100,4,2,12,67,0,0
18941,-117.647058823529,4,2,4,60,0,0
24174,-117.647058823529,4,2,4,50,0,0
24435,-117.647058823529,4,2,99,5,0,0
24523,-117.647058823529,4,2,4,60,0,0
30104,-100,4,2,4,65,0,0
30191,-100,4,2,40,65,0,0
34465,-100,4,2,40,65,0,0
34552,-100,4,2,99,30,0,0
34639,-100,4,2,40,65,0,0
34726,-100,4,2,99,30,0,0
34813,-100,4,2,40,65,0,0
34901,-100,4,2,99,30,0,0
34988,-100,4,2,40,65,0,0
35075,-100,4,2,99,30,0,0
35162,-100,4,2,40,65,0,0
35685,-100,4,2,1,65,0,0
35860,-100,4,2,40,65,0,0
40918,-100,4,2,1,55,0,0
41267,-117.647058823529,4,2,4,60,0,0
42052,-117.647058823529,4,2,4,20,0,0
42139,-117.647058823529,4,2,4,60,0,0
43622,-117.647058823529,4,2,4,20,0,0
43709,-117.647058823529,4,2,4,60,0,0
44494,-117.647058823529,4,2,4,20,0,0
44581,-117.647058823529,4,2,4,60,0,0
44668,-117.647058823529,4,2,4,20,0,0
44755,-117.647058823529,4,2,4,60,0,0
45191,-117.647058823529,4,2,4,20,0,0
45279,-117.647058823529,4,2,4,60,0,0
45366,-117.647058823529,4,2,4,20,0,0
45453,-117.647058823529,4,2,4,60,0,0
46499,-117.647058823529,4,2,4,60,0,0
46761,-117.647058823529,4,2,99,5,0,0
46848,-117.647058823529,4,2,4,60,0,0
47110,-117.647058823529,4,2,4,20,0,0
47197,-117.647058823529,4,2,4,60,0,0
47459,-117.647058823529,4,2,4,20,0,0
47546,-117.647058823529,4,2,4,60,0,0
48854,-117.647058823529,4,2,4,20,0,0
48941,-117.647058823529,4,2,4,60,0,0
49203,-117.647058823529,4,2,4,20,0,0
49290,-117.647058823529,4,2,4,60,0,0
49377,-117.647058823529,4,2,4,20,0,0
49639,-117.647058823529,4,2,4,60,0,0
52430,-111.111111111111,4,2,3,55,0,0
62895,-111.111111111111,4,2,3,60,0,0
63069,-111.111111111111,4,2,3,65,0,0
63592,-95.2380952380952,4,2,1,72,0,1
74406,-95.2380952380952,4,2,1,70,0,0
74755,-95.2380952380952,4,2,1,75,0,1
74930,-95.2380952380952,4,2,2,75,0,1
80337,-95.2380952380952,4,2,1,75,0,1
80511,-95.2380952380952,4,2,2,75,0,1
85918,-100,4,2,1,70,0,0
88534,-100,4,2,2,30,0,0
88622,-100,4,2,2,37,0,0
88709,-100,4,2,44,55,0,0
91151,-100,4,2,2,65,0,0
91499,-100,4,2,1,67,0,0
91674,-100,4,2,12,67,0,0
97081,-117.647058823529,4,2,4,60,0,0
102313,-117.647058823529,4,2,4,60,0,0
102575,-117.647058823529,4,2,99,5,0,0
102662,-117.647058823529,4,2,4,60,0,0
107633,-117.647058823529,4,2,4,20,0,0
107720,-117.647058823529,4,2,4,60,0,0
107895,-117.647058823529,4,2,4,50,0,0
108156,-117.647058823529,4,2,99,5,0,0
108244,-117.647058823529,4,2,4,60,0,0
111732,-117.647058823529,4,2,99,5,0,0
111819,-117.647058823529,4,2,4,60,0,0
111906,-117.647058823529,4,2,4,30,0,0
111994,-117.647058823529,4,2,4,60,0,0
113476,-117.647058823529,4,2,4,60,0,0
113738,-117.647058823529,4,2,99,5,0,0
113825,-117.647058823529,4,2,4,60,0,0
119406,-125,4,2,3,55,0,0
129174,-111.111111111111,4,2,3,55,0,0
129697,-107.52688172043,4,2,4,60,0,0
129872,-107.52688172043,4,2,4,62,0,0
129959,-107.52688172043,4,2,4,40,0,0
130046,-107.52688172043,4,2,4,62,0,0
130133,-107.52688172043,4,2,4,40,0,0
130220,-107.52688172043,4,2,72,64,0,0
130308,-107.52688172043,4,2,72,66,0,0
130395,-107.52688172043,4,2,72,68,0,0
130482,-107.52688172043,4,2,72,70,0,0
130569,-95.2380952380952,4,2,1,72,0,1
141383,-95.2380952380952,4,2,1,70,0,0
141732,-95.2380952380952,4,2,1,75,0,1
141906,-95.2380952380952,4,2,2,75,0,1
147313,-95.2380952380952,4,2,1,75,0,1
147488,-95.2380952380952,4,2,2,75,0,1
152895,-100,4,2,1,70,0,0
152982,-100,4,2,55,70,0,0
157081,-100,4,2,1,70,0,0
157168,-100,4,2,55,70,0,0
157430,-100,4,2,1,70,0,0
157517,-100,4,2,55,70,0,0
158127,-100,4,2,1,70,0,0
158476,-100,4,2,55,72,0,0
163709,-100,4,2,55,75,0,0
164058,-117.647058823529,4,2,18,60,0,0
172430,-117.647058823529,4,2,18,62,0,0
172604,-117.647058823529,4,2,4,62,0,0
172779,-117.647058823529,4,2,18,62,0,0
172953,-117.647058823529,4,2,4,64,0,0
173127,-117.647058823529,4,2,18,64,0,0
173302,-117.647058823529,4,2,3,70,0,0
173389,-117.647058823529,4,2,3,40,0,0
173476,-117.647058823529,4,2,3,70,0,0
173563,-117.647058823529,4,2,3,40,0,0
173651,-117.647058823529,4,2,3,70,0,0
173738,-117.647058823529,4,2,3,40,0,0
173825,-117.647058823529,4,2,3,70,0,0
173912,-117.647058823529,4,2,3,40,0,0
173999,-117.647058823529,4,2,18,70,0,0
174087,-117.647058823529,4,2,18,40,0,0
174174,-117.647058823529,4,2,18,70,0,0
174261,-117.647058823529,4,2,18,40,0,0
174348,-111.111111111111,4,2,3,65,0,0
174435,-111.111111111111,4,2,3,67,0,0
174523,-111.111111111111,4,2,3,70,0,0
174697,-111.111111111111,4,2,3,55,0,0
174872,-105.263157894737,4,2,98,70,0,0
174893,-105.263157894737,4,2,98,50,0,0
175220,-95.2380952380952,4,2,1,60,0,1
175308,-95.2380952380952,4,2,1,60,0,0
175569,-95.2380952380952,4,2,1,75,0,1
175744,-95.2380952380952,4,2,2,75,0,1
180627,-95.2380952380952,4,2,2,70,0,0
180802,-95.2380952380952,4,2,1,77,0,1
180976,-95.2380952380952,4,2,2,77,0,1
185162,-100,4,2,1,75,0,0
185860,-100,4,2,18,70,0,0
186383,-100,4,2,1,65,0,0
186558,-100,4,2,40,65,0,0
191965,-100,4,2,1,67,0,0
192139,-100,4,2,12,67,0,0
194755,-111.111111111111,4,2,98,70,0,0
194930,-111.111111111111,4,2,1,50,0,0
195627,-125,4,2,1,40,0,0
196325,-125,4,2,1,35,0,0
197023,-125,4,2,1,30,0,0
197197,-142.857142857143,4,2,1,25,0,0
197546,-142.857142857143,4,2,99,5,0,0

[Colours]
Combo1 : 185,150,245
Combo2 : 250,85,85
Combo3 : 100,130,190
Combo4 : 250,170,200

[HitObjects]
64,355,1500,5,4,1:2:0:0:
64,247,1848,1,0,1:2:0:0:
64,138,2197,1,0,1:2:0:0:
64,29,2546,1,0,1:2:0:0:
172,29,2895,1,0,1:2:0:0:
172,137,3244,1,0,1:2:0:0:
172,245,3593,2,0,B|172:299|172:299|236:299,1,107.999988121033,0|8,1:2|0:3,0:0:0:0:
334,299,4290,5,0,1:2:0:0:
334,190,4639,1,0,1:2:0:0:
442,190,4988,1,0,1:2:0:0:
442,81,5337,1,0,1:2:0:0:
333,81,5686,2,0,L|262:81,2,53.9999940605166,4|8|4,0:3|0:3|0:3,0:0:0:0:
334,136,6209,2,0,L|334:202,1,53.9999940605166,8|4,0:3|0:3,0:0:0:0:
334,244,6558,2,0,L|334:314,2,53.9999940605166,8|8|8,0:2|0:2|0:2,0:0:0:0:
64,152,7779,6,0,B|64:32|64:32|99:79,1,179.999985694886,6|6,1:1|0:1,0:0:0:0:
184,165,8651,1,6,0:2:0:0:
282,96,8999,1,6,0:1:0:0:
366,180,9348,2,0,L|366:260,2,59.9999952316285,6|10|6,0:2|0:2|0:1,0:0:0:0:
451,94,10046,1,6,0:1:0:0:
451,94,10220,2,0,L|516:94,1,59.9999952316285,10|4,0:1|0:2,0:0:0:0:
508,154,10569,6,0,B|484:200|484:200|484:328,1,179.999985694886,2|6,1:2|0:1,0:0:0:0:
375,277,11441,2,0,L|375:213,2,59.9999952316285,6|10|6,0:2|0:2|0:1,0:0:0:0:
277,347,12139,1,6,0:2:0:0:
167,297,12488,1,6,0:1:0:0:
158,180,12837,1,6,0:1:0:0:
158,180,13011,2,0,L|158:107,1,59.9999952316285,10|8,0:2|0:2,0:0:0:0:
207,85,13360,6,0,B|153:85|153:85|99:58|99:58|31:58,1,179.999985694886,4|6,1:1|0:1,0:0:0:0:
33,178,14232,1,6,0:2:0:0:
33,297,14581,1,6,2:1:0:0:
153,297,14930,2,0,L|217:297,2,59.9999952316285,6|10|6,0:2|0:2|0:1,0:0:0:0:
157,180,15627,1,6,0:2:0:0:
157,180,15802,2,0,L|157:115,1,59.9999952316285,10|4,0:1|0:2,0:0:0:0:
186,67,16151,6,0,B|232:91|232:91|360:91,1,179.999985694886,2|6,1:2|0:1,0:0:0:0:
445,175,17023,2,0,L|509:175,2,59.9999952316285,6|10|6,0:2|0:2|0:1,0:0:0:0:
359,260,17720,1,6,0:2:0:0:
274,344,18069,1,6,0:1:0:0:
193,263,18418,1,6,0:2:0:0:
193,263,18592,2,0,L|113:263,1,59.9999952316285,8|8,0:2|0:2,0:0:0:0:
88,287,18941,6,0,P|86:238|81:185,1,101.999993839264,4|10,1:2|0:2,0:0:0:0:
47,88,19639,2,0,P|94:98|147:107,1,101.999993839264,0|8,1:2|0:2,0:0:0:0:
191,95,20162,1,2,0:2:0:0:
286,58,20511,1,2,0:2:0:0:
329,43,20685,2,0,P|379:51|429:62,1,101.999993839264,8|0,0:2|1:2,0:0:0:0:
498,137,21383,1,8,0:2:0:0:
452,228,21732,6,0,P|447:278|445:329,1,101.999993839264,2|10,1:2|0:2,0:0:0:0:
348,364,22430,1,2,1:2:0:0:
285,283,22779,1,10,0:2:0:0:
342,198,23127,2,0,P|346:147|348:96,1,101.999993839264,0|8,1:2|0:2,0:0:0:0:
261,42,23825,2,0,P|228:39|200:33,2,50.999996919632,0|8|0,1:2|0:2|1:1,0:0:0:0:
347,96,24523,6,0,P|396:94|449:89,1,101.999993839264,0|8,1:2|0:2,0:0:0:0:
423,187,25220,2,0,P|411:236|403:287,1,101.999993839264,0|8,1:2|0:2,0:0:0:0:
380,327,25744,1,2,0:2:0:0:
278,333,26092,1,2,0:2:0:0:
239,358,26267,2,0,P|188:350|138:338,1,101.999993839264,10|0,0:2|1:2,0:0:0:0:
45,297,26965,1,8,0:2:0:0:
80,201,27313,6,0,P|85:151|87:100,1,101.999993839264,2|10,1:2|0:2,0:0:0:0:
146,16,28011,1,2,1:2:0:0:
246,26,28360,1,10,0:2:0:0:
287,117,28709,2,0,P|337:122|388:124,1,101.999993839264,0|8,1:2|0:2,0:0:0:0:
468,59,29406,2,0,P|471:26|477:-2,2,50.999996919632,0|2|8,1:2|0:2|0:2,0:0:0:0:
493,176,30104,6,0,B|493:304|493:304|445:262,1,179.999985694886,6|6,1:1|0:1,0:0:0:0:
368,184,30976,1,6,0:2:0:0:
247,184,31325,1,6,0:1:0:0:
162,99,31674,2,0,L|162:19,2,59.9999952316285,6|10|6,0:2|0:2|0:1,0:0:0:0:
80,188,32372,1,6,1:1:0:0:
80,188,32546,2,0,L|80:253,1,59.9999952316285,10|4,2:1|0:2,0:0:0:0:
62,305,32895,6,0,B|110:273|110:273|254:273,1,179.999985694886,2|6,1:2|0:1,0:0:0:0:
317,357,33767,1,6,0:2:0:0:
401,272,34116,1,6,2:1:0:0:
316,187,34465,2,0,L|316:123,2,59.9999952316285,4|10|6,2:1|0:1|0:1,0:0:0:0:
236,277,35162,1,6,0:2:0:0:
236,277,35337,2,0,L|236:350,1,59.9999952316285,8|8,0:2|0:2,0:0:0:0:
182,364,35685,6,0,B|54:364|54:364|10:335,1,179.999985694886,6|6,1:2|0:1,0:0:0:0:
10,215,36558,1,6,0:2:0:0:
130,215,36906,1,6,0:1:0:0:
250,215,37255,2,0,L|330:215,2,59.9999952316285,6|10|6,0:2|0:2|0:1,0:0:0:0:
194,116,37953,1,6,0:1:0:0:
194,116,38127,2,0,L|194:51,1,59.9999952316285,10|4,0:1|0:2,0:0:0:0:
236,13,38476,6,0,B|284:45|284:45|406:45,1,179.999985694886,2|6,1:2|0:1,0:0:0:0:
491,129,39348,1,6,0:2:0:0:
406,213,39697,2,0,L|326:213,1,59.9999952316285,6|4,0:1|0:2,0:0:0:0:
290,236,40046,2,0,L|226:236,2,59.9999952316285,10|10|10,0:2|0:2|0:1,0:0:0:0:
369,325,40744,1,2,1:2:0:0:
369,325,40918,1,14,0:2:0:0:
263,350,41267,6,0,P|212:345|161:343,1,101.999993839264,4|10,1:1|0:2,0:0:0:0:
63,373,41965,2,0,P|67:322|69:271,1,101.999993839264,0|8,1:2|0:2,0:0:0:0:
41,234,42488,1,2,0:2:0:0:
30,132,42837,1,2,0:2:0:0:
52,92,43011,2,0,P|102:86|153:82,1,101.999993839264,10|0,0:2|1:2,0:0:0:0:
220,160,43709,1,8,0:2:0:0:
314,122,44058,6,0,P|331:74|346:26,1,101.999993839264,2|10,1:2|0:2,0:0:0:0:
446,0,44755,1,2,1:2:0:0:
500,86,45104,1,10,0:2:0:0:
434,163,45453,2,0,P|428:213|426:263,1,101.999993839264,0|8,1:2|0:2,0:0:0:0:
462,360,46151,2,0,P|495:363|523:369,2,50.999996919632,0|8|2,1:2|0:2|0:2,0:0:0:0:
362,338,46848,6,0,P|311:342|260:344,1,101.999993839264,0|8,1:2|0:2,0:0:0:0:
183,277,47546,2,0,P|226:249|267:220,1,101.999993839264,0|10,1:2|0:2,0:0:0:0:
292,180,48069,1,2,0:2:0:0:
277,79,48418,1,2,0:2:0:0:
233,68,48592,2,0,P|181:63|130:61,1,101.999993839264,10|0,0:2|1:2,0:0:0:0:
35,25,49290,1,8,0:2:0:0:
58,123,49639,6,0,P|63:173|65:224,1,101.999993839264,2|10,1:2|0:2,0:0:0:0:
27,319,50337,1,2,1:2:0:0:
106,384,50685,1,10,0:2:0:0:
192,328,51034,2,0,P|242:323|293:321,1,101.999993839264,0|8,1:2|0:2,0:0:0:0:
393,342,51732,2,0,P|425:347|454:349,2,50.999996919632,0|2|8,1:2|0:2|0:2,0:0:0:0:
360,238,52430,5,0,1:2:0:0:
360,130,52779,1,0,1:2:0:0:
360,21,53127,1,0,1:2:0:0:
468,21,53476,1,2,1:2:0:0:
468,129,53825,1,2,1:2:0:0:
468,237,54174,1,2,1:2:0:0:
360,238,54523,2,0,L|248:238,1,107.999988121033,2|8,1:2|0:3,0:0:0:0:
143,238,55220,5,0,1:2:0:0:
143,129,55569,1,0,1:2:0:0:
143,20,55918,1,0,1:2:0:0:
251,20,56267,1,2,1:2:0:0:
251,128,56616,1,2,1:2:0:0:
252,238,56965,1,2,1:2:0:0:
143,238,57313,2,0,L|31:238,1,107.999988121033,2|8,1:2|0:3,0:0:0:0:
35,346,58011,5,4,1:2:0:0:
143,346,58360,1,0,1:2:0:0:
251,346,58709,1,0,1:2:0:0:
251,237,59058,1,2,1:2:0:0:
251,129,59406,1,2,1:2:0:0:
359,129,59755,1,2,1:2:0:0:
467,129,60104,2,0,L|467:241,1,107.999988121033,2|8,1:2|0:3,0:0:0:0:
467,345,60802,5,2,1:2:0:0:
358,345,61151,1,2,1:2:0:0:
250,345,61499,1,2,1:2:0:0:
250,236,61848,1,6,2:2:0:0:
250,127,62197,2,0,L|250:63,1,53.9999940605166,6|10,2:3|2:3,0:0:0:0:
211,34,62546,2,0,L|147:34,1,53.9999940605166,6|10,2:3|2:3,0:0:0:0:
118,72,62895,2,0,L|118:187,1,107.999988121033,4|8,1:2|0:2,0:0:0:0:
87,302,63592,6,0,P|137:266|199:262,1,125.999986141205,4|10,1:1|0:2,0:0:0:0:
235,298,64116,1,0,0:2:0:0:
270,333,64290,2,0,L|350:338,1,62.9999930706027,2|0,1:2|0:2,0:0:0:0:
376,362,64639,1,10,0:2:0:0:
486,301,64988,6,0,P|466:247|477:177,1,125.999986141205,0|10,1:2|0:2,0:0:0:0:
493,133,65511,1,0,0:2:0:0:
512,84,65685,2,0,P|517:51|511:17,2,62.9999930706027,0|0|10,1:2|0:2|0:2,0:0:0:0:
390,48,66383,6,0,B|329:29|324:70|266:48,1,125.999986141205,0|10,1:2|0:2,0:0:0:0:
218,32,66906,1,0,0:2:0:0:
169,17,67081,2,0,P|134:12|88:14,1,62.9999930706027,0|0,1:2|0:2,0:0:0:0:
61,35,67430,1,10,0:2:0:0:
25,156,67779,6,0,P|60:161|106:159,1,62.9999930706027,2|0,1:2|0:2,0:0:0:0:
132,139,68127,2,0,P|163:139|194:143,1,62.9999930706027,10|0,0:2|0:2,0:0:0:0:
231,177,68476,2,0,P|285:200|352:192,1,125.999986141205,2|8,1:2|0:2,0:0:0:0:
458,127,69174,6,0,P|435:181|443:248,1,125.999986141205,4|10,1:2|0:2,0:0:0:0:
462,293,69697,1,0,0:2:0:0:
438,337,69872,2,0,P|402:347|358:342,1,62.9999930706027,2|2,1:2|0:2,0:0:0:0:
328,361,70220,1,10,0:2:0:0:
234,277,70569,6,0,P|180:257|110:268,1,125.999986141205,2|8,1:2|0:2,0:0:0:0:
80,304,71092,1,0,0:2:0:0:
48,343,71267,2,0,P|15:347|-19:342,2,62.9999930706027,2|0|10,1:2|0:2|0:2,0:0:0:0:
16,225,71965,6,0,B|2:179|2:179|6:138|31:104,1,125.999986141205,0|10,1:2|0:2,0:0:0:0:
76,88,72488,1,0,0:2:0:0:
124,101,72662,2,0,P|159:106|205:104,1,62.9999930706027,2|0,1:2|0:2,0:0:0:0:
234,88,73011,1,10,0:2:0:0:
331,169,73360,6,0,P|336:204|334:250,1,62.9999930706027,2|0,1:2|0:2,0:0:0:0:
350,279,73709,2,0,P|382:292|421:316,1,62.9999930706027,10|0,0:2|0:2,0:0:0:0:
454,317,74058,2,0,P|481:295|521:274,2,62.9999930706027,10|8|8,0:2|0:2|0:2,0:0:0:0:
327,363,74755,6,0,P|272:331|210:326,1,125.999986141205,4|8,1:1|0:2,0:0:0:0:
154,337,75279,1,4,0:2:0:0:
108,370,75453,2,0,P|74:372|43:363,1,62.9999930706027,0|4,1:2|0:2,0:0:0:0:
1,328,75802,1,10,0:2:0:0:
91,223,76151,6,0,B|112:165|73:161|96:99,1,125.999986141205,0|10,1:2|0:2,0:0:0:0:
138,62,76674,1,4,0:2:0:0:
191,44,76848,2,0,P|220:40|258:35,2,62.9999930706027,0|4|10,1:2|0:2|0:2,0:0:0:0:
274,155,77546,6,0,B|294:213|255:217|278:278,1,125.999986141205,0|10,1:2|0:2,0:0:0:0:
322,314,78069,1,4,0:2:0:0:
377,328,78244,2,0,P|412:323|458:325,1,62.9999930706027,2|4,1:2|0:2,0:0:0:0:
494,337,78592,1,10,0:2:0:0:
433,212,78941,6,0,P|428:177|430:131,1,62.9999930706027,2|4,1:2|0:2,0:0:0:0:
466,107,79290,2,0,P|470:75|470:44,1,62.9999930706027,8|4,0:2|0:2,0:0:0:0:
417,21,79639,2,0,P|363:44|300:23,1,125.999986141205,2|8,1:2|0:2,0:0:0:0:
199,118,80337,6,0,P|222:175|202:233,1,125.999986141205,4|10,1:2|0:2,0:0:0:0:
158,271,80860,1,4,0:2:0:0:
101,277,81034,2,0,P|71:267|39:267,1,62.9999930706027,0|4,1:2|0:2,0:0:0:0:
1,309,81383,1,10,0:2:0:0:
127,364,81732,6,0,P|189:346|260:344,1,125.999986141205,2|10,1:2|0:2,0:0:0:0:
306,354,82255,1,4,0:2:0:0:
362,356,82430,2,0,P|396:353|424:349,2,62.9999930706027,2|4|8,1:2|0:2|0:2,0:0:0:0:
320,223,83127,6,0,B|313:186|313:186|337:146|321:101,1,125.999986141205,2|10,1:2|0:2,0:0:0:0:
274,69,83651,1,4,0:2:0:0:
220,86,83825,2,0,P|187:88|142:79,1,62.9999930706027,2|4,1:2|0:2,0:0:0:0:
105,106,84174,1,10,0:2:0:0:
198,208,84523,6,0,P|231:206|276:215,1,62.9999930706027,2|4,1:1|0:2,0:0:0:0:
312,187,84872,2,0,P|336:208|362:247,1,62.9999930706027,10|4,0:1|0:2,0:0:0:0:
407,252,85220,2,0,P|409:283|399:329,2,62.9999930706027,10|8|8,0:2|0:2|0:2,0:0:0:0:
400,114,85918,5,4,0:2:0:0:
256,192,91151,5,8,0:2:0:0:
193,294,91499,6,0,B|154:333|154:333|29:333,1,179.999985694886,4|6,1:1|0:1,0:0:0:0:
29,212,92372,1,6,0:2:0:0:
29,91,92720,1,6,2:1:0:0:
149,91,93069,2,0,L|213:91,2,59.9999952316285,6|10|6,0:2|0:2|0:1,0:0:0:0:
153,215,93767,1,6,0:2:0:0:
153,215,93941,2,0,L|153:280,1,59.9999952316285,10|4,0:1|0:2,0:0:0:0:
193,319,94290,6,0,B|252:319|252:319|312:346|312:346|367:346,1,179.999985694886,2|6,1:2|0:1,0:0:0:0:
452,261,95162,2,0,L|516:261,2,59.9999952316285,6|10|6,0:2|0:2|0:1,0:0:0:0:
367,176,95860,1,6,0:2:0:0:
246,176,96209,1,6,0:1:0:0:
165,264,96558,1,6,0:2:0:0:
165,264,96732,2,0,L|85:264,1,59.9999952316285,8|8,0:2|0:2,0:0:0:0:
54,270,97081,6,0,P|52:221|47:168,1,101.999993839264,4|10,1:2|0:2,0:0:0:0:
11,72,97779,2,0,P|58:82|111:91,1,101.999993839264,0|8,1:2|0:2,0:0:0:0:
155,78,98302,1,2,0:2:0:0:
240,134,98651,1,2,0:2:0:0:
279,157,98825,2,0,P|329:149|379:138,1,101.999993839264,10|0,0:2|1:2,0:0:0:0:
481,134,99523,1,8,0:2:0:0:
450,231,99872,6,0,P|439:280|430:331,1,101.999993839264,2|10,1:2|0:2,0:0:0:0:
332,360,100569,1,2,1:2:0:0:
234,331,100918,1,10,0:2:0:0:
136,360,101267,2,0,P|85:357|34:354,1,101.999993839264,0|8,1:2|0:2,0:0:0:0:
9,254,101965,2,0,P|4:224|-3:200,2,50.999996919632,0|8|2,1:2|0:2|0:2,0:0:0:0:
109,271,102662,6,0,P|159:268|210:264,1,101.999993839264,0|8,1:2|0:2,0:0:0:0:
265,177,103360,2,0,P|253:128|245:77,1,101.999993839264,0|8,1:2|0:2,0:0:0:0:
241,31,103883,1,2,0:2:0:0:
142,7,104232,1,2,0:2:0:0:
105,34,104406,2,0,P|92:83|84:133,1,101.999993839264,10|0,0:2|1:2,0:0:0:0:
71,235,105104,1,8,1:2:0:0:
169,260,105453,6,0,P|193:253|218:247,1,50.999996919632,8|8,2:2|2:2,0:0:0:0:
266,263,105802,1,8,2:2:0:0:
354,314,106151,2,0,P|378:321|403:327,1,50.999996919632,8|8,2:2|2:2,0:0:0:0:
444,357,106499,1,8,2:2:0:0:
506,276,106848,5,4,1:2:0:0:
448,192,107197,2,0,L|383:188,1,50.999996919632,8|2,0:2|0:2,0:0:0:0:
353,215,107546,2,0,B|316:203|282:216|282:216|237:199,1,101.999993839264,2|2,1:2|0:2,0:0:0:0:
161,162,108244,6,0,P|165:212|167:263,1,101.999993839264,4|10,1:2|0:2,0:0:0:0:
229,345,108941,2,0,P|276:335|329:326,1,101.999993839264,0|8,1:2|0:2,0:0:0:0:
374,337,109465,1,2,0:2:0:0:
452,273,109813,1,2,0:2:0:0:
494,254,109988,2,0,P|504:204|513:153,1,101.999993839264,10|0,0:2|1:2,0:0:0:0:
489,114,110511,2,0,P|482:86|477:57,1,50.999996919632,8|8,0:2|1:2,0:0:0:0:
381,33,111034,6,0,P|331:38|265:32,1,101.999993839264,2|10,1:2|0:2,0:0:0:0:
235,48,111558,2,0,P|194:50|154:53,2,76.499995379448,2|2|10,0:2|0:2|0:2,0:0:0:0:
308,118,112430,1,0,1:2:0:0:
283,216,112779,1,8,0:2:0:0:
185,243,113127,2,0,P|156:238|124:234,2,50.999996919632,0|8|2,1:2|0:2|0:2,0:0:0:0:
260,312,113825,6,0,P|310:307|361:305,1,101.999993839264,0|8,1:2|0:2,0:0:0:0:
440,240,114523,2,0,P|442:189|446:138,1,101.999993839264,0|8,1:2|0:2,0:0:0:0:
460,94,115046,1,2,0:2:0:0:
374,38,115395,1,2,0:2:0:0:
342,71,115569,2,0,P|330:120|322:170,1,101.999993839264,10|0,0:2|1:2,0:0:0:0:
330,216,116092,2,0,P|329:241|327:266,1,50.999996919632,8|8,0:2|1:2,0:0:0:0:
256,342,116616,6,0,P|206:337|155:335,1,101.999993839264,2|10,1:2|0:2,0:0:0:0:
55,360,117313,1,2,1:2:0:0:
0,274,117662,1,10,0:2:0:0:
64,195,118011,2,0,P|69:144|71:93,1,101.999993839264,0|8,1:2|0:2,0:0:0:0:
155,35,118709,2,0,P|180:30|205:28,2,50.999996919632,0|4|8,1:2|0:3|0:3,0:0:0:0:
70,93,119406,5,6,1:2:0:0:
82,187,119755,1,2,1:2:0:0:
97,282,120104,1,2,1:2:0:0:
193,267,120453,1,2,1:2:0:0:
177,171,120802,1,2,1:2:0:0:
163,75,121151,1,2,1:2:0:0:
256,60,121499,2,0,L|350:44,1,95.9999923706056,2|8,1:2|0:3,0:0:0:0:
447,30,122197,5,2,1:2:0:0:
462,125,122546,1,2,1:2:0:0:
477,220,122895,1,2,1:2:0:0:
381,235,123244,1,2,1:2:0:0:
366,140,123592,1,2,1:2:0:0:
349,45,123941,1,2,1:2:0:0:
256,60,124290,2,0,L|192:70,1,47.9999961853028,2|4,1:2|0:3,0:0:0:0:
163,75,124639,2,0,L|99:85,1,47.9999961853028,8|8,0:3|0:3,0:0:0:0:
70,93,124988,5,6,1:2:0:0:
82,187,125337,1,2,1:2:0:0:
97,282,125685,1,2,1:2:0:0:
193,267,126034,1,2,1:2:0:0:
288,252,126383,1,2,1:2:0:0:
273,157,126732,1,2,1:2:0:0:
177,172,127081,2,0,L|82:187,1,95.9999923706056,2|8,1:2|0:3,0:0:0:0:
97,282,127779,5,2,1:2:0:0:
192,267,128127,1,2,1:2:0:0:
206,361,128476,1,2,1:2:0:0:
301,346,128825,1,2,1:2:0:0:
286,252,129174,6,0,L|286:121,1,107.999988121033,6|0,1:2|0:2,0:0:0:0:
325,104,129697,2,0,L|389:104,2,55.7999973108673,2|2|2,0:2|0:2|2:2,0:0:0:0:
285,64,130220,2,0,L|221:64,1,55.7999973108673,2|2,0:2|0:2,0:0:0:0:
180,49,130569,6,0,P|199:110|185:186,1,125.999986141205,4|10,1:1|0:2,0:0:0:0:
122,276,131267,2,0,P|154:268|197:266,1,62.9999930706027,2|0,1:2|0:2,0:0:0:0:
228,291,131616,1,10,0:2:0:0:
331,363,131965,6,0,P|351:304|341:242,1,125.999986141205,0|10,1:2|0:2,0:0:0:0:
314,199,132488,1,0,0:2:0:0:
265,186,132662,2,0,P|233:183|203:175,2,62.9999930706027,0|0|10,1:2|0:2|0:2,0:0:0:0:
368,111,133360,6,0,B|411:85|411:85|456:84|499:114,1,125.999986141205,0|10,1:2|0:2,0:0:0:0:
505,149,133883,1,0,0:2:0:0:
492,197,134058,2,0,P|489:228|487:259,1,62.9999930706027,0|0,1:2|0:2,0:0:0:0:
466,306,134406,1,10,0:2:0:0:
350,354,134755,6,0,P|312:342|263:336,1,62.9999930706027,2|0,1:2|0:2,0:0:0:0:
248,308,135104,2,0,P|209:316|163:335,1,62.9999930706027,10|0,0:2|0:2,0:0:0:0:
146,353,135453,2,0,P|69:351|29:304,1,125.999986141205,2|8,1:2|0:2,0:0:0:0:
64,196,136151,6,0,B|84:134|47:138|70:69,1,125.999986141205,4|10,1:2|0:2,0:0:0:0:
106,38,136674,1,0,0:2:0:0:
151,59,136848,2,0,P|181:66|213:66,1,62.9999930706027,2|2,1:2|0:2,0:0:0:0:
262,56,137197,1,10,0:2:0:0:
324,166,137546,6,0,P|264:183|203:168,1,125.999986141205,2|10,1:2|0:2,0:0:0:0:
154,158,138069,1,0,0:2:0:0:
112,186,138244,2,0,P|108:222|107:256,2,62.9999930706027,2|0|10,1:2|0:2|0:2,0:0:0:0:
85,60,138941,6,0,B|53:39|53:39|5:56|9:106,1,125.999986141205,0|10,1:2|0:2,0:0:0:0:
13,156,139465,1,0,0:2:0:0:
23,205,139639,2,0,P|21:236|17:267,1,62.9999930706027,2|0,1:2|0:2,0:0:0:0:
0,315,139988,1,10,0:2:0:0:
116,365,140337,6,0,P|151:360|197:362,1,62.9999930706027,2|0,1:2|0:2,0:0:0:0:
226,346,140685,2,0,P|239:314|263:275,1,62.9999930706027,10|0,0:2|0:2,0:0:0:0:
264,242,141034,2,0,P|242:215|221:175,2,62.9999930706027,10|8|8,0:2|0:2|0:2,0:0:0:0:
374,327,141732,6,0,B|413:318|448:341|448:341|482:340|495:327,1,125.999986141205,4|8,1:1|0:2,0:0:0:0:
506,272,142255,1,4,0:2:0:0:
482,220,142430,2,0,P|478:190|479:155,1,62.9999930706027,0|4,1:2|0:2,0:0:0:0:
490,101,142779,1,10,0:2:0:0:
379,17,143127,6,0,P|328:53|267:45,1,125.999986141205,0|8,1:2|0:2,0:0:0:0:
214,23,143651,1,4,0:2:0:0:
159,39,143825,2,0,P|125:35|91:34,2,62.9999930706027,0|4|10,1:2|0:2|0:2,0:0:0:0:
262,131,144523,6,0,P|277:197|253:256,1,125.999986141205,0|10,1:2|0:2,0:0:0:0:
219,292,145046,1,6,0:2:0:0:
170,322,145220,2,0,P|135:317|89:319,1,62.9999930706027,2|4,1:2|0:2,0:0:0:0:
59,347,145569,1,10,0:2:0:0:
4,219,145918,6,0,P|-1:184|1:138,1,62.9999930706027,2|4,1:2|0:2,0:0:0:0:
47,125,146267,2,0,P|75:103|106:69,1,62.9999930706027,8|4,0:2|0:2,0:0:0:0:
143,56,146616,2,0,P|203:72|230:23,1,125.999986141205,2|8,1:2|0:2,0:0:0:0:
293,150,147313,6,0,B|316:212|277:216|298:274,1,125.999986141205,4|10,1:2|0:2,0:0:0:0:
331,319,147837,1,4,0:2:0:0:
385,335,148011,2,0,P|417:334|451:343,1,62.9999930706027,0|4,1:2|0:2,0:0:0:0:
499,362,148360,1,10,0:2:0:0:
460,229,148709,6,0,B|439:193|451:138|451:138|431:147|412:169,1,125.999986141205,2|10,1:2|0:2,0:0:0:0:
384,197,149232,1,4,0:2:0:0:
334,225,149406,2,0,P|300:222|272:218,2,62.9999930706027,2|4|8,1:2|0:2|0:2,0:0:0:0:
326,87,150104,6,0,P|274:62|195:68,1,125.999986141205,2|10,1:2|0:2,0:0:0:0:
157,92,150627,1,4,0:2:0:0:
115,129,150802,2,0,P|83:130|52:126,1,62.9999930706027,2|4,1:2|0:2,0:0:0:0:
2,153,151151,1,10,0:2:0:0:
121,223,151499,6,0,P|151:214|182:210,1,62.9999930706027,2|4,1:1|0:2,0:0:0:0:
228,242,151848,2,0,P|258:249|287:261,1,62.9999930706027,10|4,0:1|0:2,0:0:0:0:
311,311,152197,2,0,P|333:332|352:356,2,62.9999930706027,10|8|8,0:2|0:2|0:2,0:0:0:0:
197,352,152895,6,0,L|70:345,1,119.999990463257,6|10,1:2|0:2,0:0:0:0:
23,318,153418,1,6,0:2:0:0:
8,260,153592,2,0,L|15:133,1,119.999990463257,2|10,1:2|0:2,0:0:0:0:
102,58,154290,6,0,L|229:65,1,119.999990463257,2|10,1:2|0:2,0:0:0:0:
337,33,154988,1,2,1:2:0:0:
402,133,155337,1,10,0:2:0:0:
326,225,155685,6,0,L|199:218,1,119.999990463257,2|10,1:2|0:2,0:0:0:0:
169,266,156209,1,6,0:2:0:0:
130,311,156383,2,0,L|2:302,1,119.999990463257,2|10,1:2|0:2,0:0:0:0:
70,198,157081,6,0,P|77:167|74:133,1,59.9999952316285,6|10,1:2|0:2,0:0:0:0:
135,146,157430,2,0,P|161:129|183:102,1,59.9999952316285,6|10,1:2|0:2,0:0:0:0:
217,155,157779,2,0,P|247:161|282:157,2,59.9999952316285,10|10|14,0:2|0:2|0:2,0:0:0:0:
150,35,158476,6,0,P|82:21|29:37,1,119.999990463257,2|10,1:2|0:2,0:0:0:0:
14,90,158999,1,6,0:2:0:0:
6,149,159174,2,0,L|2:277,1,119.999990463257,2|10,1:2|0:2,0:0:0:0:
99,339,159872,6,0,B|161:328|156:358|218:348,1,119.999990463257,2|10,1:2|0:2,0:0:0:0:
328,304,160569,1,2,1:2:0:0:
345,185,160918,1,10,0:2:0:0:
250,110,161267,6,0,P|228:52|265:7,1,119.999990463257,2|10,1:2|0:2,0:0:0:0:
317,27,161790,1,6,0:2:0:0:
373,48,161965,2,0,B|434:58|430:28|492:39,1,119.999990463257,2|10,1:2|0:2,0:0:0:0:
469,157,162662,6,0,P|458:215|473:274,1,119.999990463257,2|10,1:2|0:2,0:0:0:0:
451,329,163185,1,6,0:2:0:0:
395,352,163360,2,0,P|359:347|333:346,1,59.9999952316285,2|10,1:2|0:2,0:0:0:0:
276,357,163709,2,0,P|246:355|216:351,1,59.9999952316285,10|10,0:2|0:2,0:0:0:0:
165,318,164058,5,4,1:2:0:0:
67,322,164406,1,8,0:2:0:0:
67,322,164581,1,8,0:2:0:0:
29,227,164930,2,0,P|28:201|22:169,1,50.999996919632,0|8,1:2|0:2,0:0:0:0:
44,76,165453,5,0,1:2:0:0:
124,146,165802,1,8,0:2:0:0:
124,146,165976,1,8,0:2:0:0:
218,110,166325,2,0,P|243:106|268:105,1,50.999996919632,0|8,1:2|0:2,0:0:0:0:
365,138,166848,5,0,1:2:0:0:
348,42,167197,1,8,0:2:0:0:
348,42,167372,1,8,0:2:0:0:
268,105,167720,2,0,P|263:130|262:155,1,50.999996919632,0|8,1:2|0:2,0:0:0:0:
283,255,168244,5,0,1:2:0:0:
383,289,168592,1,8,0:2:0:0:
383,289,168767,1,8,0:2:0:0:
455,217,169116,2,0,P|459:191|460:166,1,50.999996919632,0|8,1:2|0:2,0:0:0:0:
437,66,169639,5,4,1:2:0:0:
344,98,169988,1,8,0:2:0:0:
344,98,170162,1,8,0:2:0:0:
247,66,170511,2,0,P|218:62|189:61,1,50.999996919632,0|8,1:2|0:2,0:0:0:0:
100,25,171034,5,0,1:2:0:0:
37,106,171383,1,8,0:2:0:0:
37,106,171558,1,8,0:2:0:0:
94,190,171906,2,0,P|97:217|96:240,1,50.999996919632,0|8,1:2|0:2,0:0:0:0:
61,337,172430,6,0,P|109:320|159:327,1,101.999993839264,4|8,1:2|0:2,0:0:0:0:
199,351,172953,1,2,0:2:0:0:
244,351,173127,2,0,P|277:344|313:342,1,50.999996919632,8|10,0:2|0:2,0:0:0:0:
343,328,173476,2,0,P|367:333|393:336,1,50.999996919632,10|10,0:2|0:2,0:0:0:0:
460,258,173999,2,0,P|462:232|468:207,2,50.999996919632,10|10|8,0:2|0:2|0:2,0:0:0:0:
512,359,174697,5,2,0:2:0:0:
512,359,174872,1,4,0:2:0:0:
393,336,175220,6,0,P|362:328|331:324,1,62.9999930706027,2|2,0:2|0:2,0:0:0:0:
290,284,175569,2,0,P|258:288|228:296,1,62.9999930706027,12|4,0:2|0:2,0:0:0:0:
175,274,175918,2,0,P|146:289|122:308,1,62.9999930706027,0|4,1:2|0:2,0:0:0:0:
90,355,176267,1,10,0:2:0:0:
24,235,176616,6,0,B|16:172|47:176|41:111,1,125.999986141205,0|10,1:2|0:2,0:0:0:0:
22,58,177139,1,4,0:2:0:0:
68,25,177313,2,0,P|97:17|134:14,2,62.9999930706027,0|4|10,1:2|0:2|0:2,0:0:0:0:
126,122,178011,6,0,P|167:135|255:123,1,125.999986141205,0|8,1:2|0:2,0:0:0:0:
291,89,178534,1,4,0:2:0:0:
340,61,178709,2,0,P|375:56|423:61,1,62.9999930706027,2|4,1:2|0:2,0:0:0:0:
457,42,179058,1,10,0:2:0:0:
501,171,179406,6,0,P|496:203|496:234,1,62.9999930706027,2|4,1:2|0:2,0:0:0:0:
480,287,179755,2,0,P|454:305|432:327,1,62.9999930706027,8|4,0:2|0:2,0:0:0:0:
380,351,180104,2,0,P|320:335|247:328,1,125.999986141205,2|8,1:2|0:2,0:0:0:0:
121,350,180802,6,0,B|142:327|144:297|144:297|131:271|138:231,1,125.999986141205,4|10,1:2|0:2,0:0:0:0:
176,189,181325,1,4,0:2:0:0:
207,141,181499,2,0,P|215:104|217:75,1,62.9999930706027,0|4,1:2|0:2,0:0:0:0:
207,22,181848,1,10,0:2:0:0:
75,65,182197,6,0,B|70:110|82:144|82:144|74:167|57:187,1,125.999986141205,2|10,1:2|0:2,0:0:0:0:
28,232,182720,1,4,0:2:0:0:
10,286,182895,2,0,P|5:317|2:348,2,62.9999930706027,2|4|8,1:2|0:2|0:2,0:0:0:0:
133,224,183592,6,0,P|185:199|267:205,1,125.999986141205,2|10,1:2|0:2,0:0:0:0:
300,230,184116,1,4,0:2:0:0:
348,258,184290,2,0,P|379:261|410:260,1,62.9999930706027,2|4,1:2|0:2,0:0:0:0:
461,285,184639,1,10,0:2:0:0:
505,153,184988,5,10,1:2:0:0:
505,153,185162,1,8,0:2:0:0:
256,64,185860,5,8,0:2:0:0:
256,64,186034,1,8,0:2:0:0:
128,32,186383,6,0,B|8:32|8:32|63:71,1,179.999985694886,6|6,1:1|0:1,0:0:0:0:
141,151,187255,1,6,0:2:0:0:
56,235,187604,1,6,0:1:0:0:
140,319,187953,2,0,L|140:383,2,59.9999952316285,6|10|6,0:2|0:2|0:1,0:0:0:0:
229,237,188651,1,6,0:1:0:0:
229,237,188825,2,0,L|289:237,1,59.9999952316285,10|4,0:1|0:2,0:0:0:0:
330,281,189174,6,0,B|330:227|330:227|357:173|357:173|357:105,1,179.999985694886,2|6,1:2|0:1,0:0:0:0:
466,59,190046,2,0,L|466:-5,2,59.9999952316285,6|10|6,0:2|0:2|0:1,0:0:0:0:
512,168,190744,1,6,0:2:0:0:
403,213,191092,1,6,0:1:0:0:
361,111,191441,1,6,0:1:0:0:
361,111,191616,2,0,L|277:111,1,59.9999952316285,10|8,0:2|0:2,0:0:0:0:
247,83,191965,6,0,B|205:54|205:54|75:54,1,179.999985694886,4|6,1:1|0:1,0:0:0:0:
76,174,192837,1,6,0:2:0:0:
195,174,193185,1,6,2:1:0:0:
195,294,193534,2,0,L|195:358,2,59.9999952316285,6|10|6,0:2|0:2|0:1,0:0:0:0:
78,298,194232,1,6,0:2:0:0:
78,298,194406,2,0,L|13:298,1,59.9999952316285,10|8,0:1|0:0,0:0:0:0:
1,249,194755,6,0,B|17:201|17:201|16:128|16:128|56:171,1,161.99998218155,6|2,1:2|0:2,0:0:0:0:
119,213,195627,6,0,L|167:213,2,47.9999961853028,2|2|2,0:2|0:2|0:2,0:0:0:0:
161,126,196325,2,0,L|209:126,2,47.9999961853028,2|2|2,0:2|0:2|0:2,0:0:0:0:
203,39,197023,5,2,0:2:0:0:
203,39,197197,2,0,L|297:39,1,83.9999907608036,2|0,0:2|0:2,0:1:0:0:
