osu file format v14

[General]
AudioFilename: audio.mp3
AudioLeadIn: 0
PreviewTime: 164058
Countdown: 0
SampleSet: Soft
StackLeniency: 0.4
Mode: 0
LetterboxInBreaks: 0
WidescreenStoryboard: 1

[Editor]
Bookmarks: 18941,41267,52430,63592,85918,91499,97081,119406,130569,164058,174872,186383,197197
DistanceSpacing: 1.2
BeatDivisor: 4
GridSize: 16
TimelineZoom: 2

[Metadata]
Title:Buriki no Dance
TitleUnicode:ブリキノダンス
Artist:96neko
ArtistUnicode:96猫
Creator:Kimchi Sandwich
Version:Hard
Source:
Tags:w_m 日向電工 hinata electric works utaite cover mix wm japanese pop 嘘の火花 (Special Edition) mix M_i_X Uso no Hibana
BeatmapID:2705250
BeatmapSetID:1296562

[Difficulty]
HPDrainRate:4
CircleSize:3.8
OverallDifficulty:6
ApproachRate:8
SliderMultiplier:1.3
SliderTickRate:1

[Events]
//Background and Video events
0,0,"BG.png",0,0
//Break Periods
2,86117,90749
2,164258,171680
//Storyboard Layer 0 (Background)
//Storyboard Layer 1 (Fail)
//Storyboard Layer 2 (Pass)
//Storyboard Layer 3 (Foreground)
//Storyboard Layer 4 (Overlay)
//Storyboard Sound Samples

[TimingPoints]
1500,348.837209302326,4,2,1,60,1,0
3593,-133.333333333333,4,2,1,60,0,0
5686,-100,4,2,1,60,0,0
7779,348.837209302326,4,2,1,50,1,0
18941,-100,4,2,1,35,0,0
30104,-100,4,2,1,45,0,0
41267,-100,4,2,1,35,0,0
52430,-100,4,2,1,50,0,0
63244,-83.3333333333333,4,2,1,50,0,1
63592,-83.3333333333333,4,2,1,65,0,1
85918,-83.3333333333333,4,2,1,30,0,0
91499,-100,4,2,1,45,0,0
97081,-100,4,2,1,35,0,0
106848,-100,4,2,1,40,0,0
108244,-100,4,2,1,35,0,0
119406,-133.333333333333,4,2,1,50,0,0
129174,-200,4,2,1,50,0,0
129872,-100,4,2,1,50,0,0
130220,-100,4,2,1,60,0,0
130569,-83.3333333333333,4,2,1,65,0,1
152895,-100,4,2,1,55,0,0
153244,-105.263157894737,4,2,1,55,0,0
153592,-111.111111111111,4,2,1,55,0,0
153941,-117.647058823529,4,2,1,55,0,0
154290,-125,4,2,1,55,0,0
154639,-133.333333333333,4,2,1,55,0,0
154988,-142.857142857143,4,2,1,55,0,0
155337,-153.846153846154,4,2,1,55,0,0
155685,-166.666666666667,4,2,1,55,0,0
156034,-153.846153846154,4,2,1,55,0,0
156383,-142.857142857143,4,2,1,55,0,0
156732,-133.333333333333,4,2,1,55,0,0
157779,-111.111111111111,4,2,1,55,0,0
158476,-100,4,2,1,55,0,0
158825,-105.263157894737,4,2,1,55,0,0
159173,-111.111111111111,4,2,1,55,0,0
159522,-117.647058823529,4,2,1,55,0,0
159871,-125,4,2,1,55,0,0
160220,-133.333333333333,4,2,1,55,0,0
160569,-142.857142857143,4,2,1,55,0,0
160918,-153.846153846154,4,2,1,55,0,0
161266,-166.666666666667,4,2,1,55,0,0
161616,-153.846153846154,4,2,1,55,0,0
161965,-142.857142857143,4,2,1,55,0,0
162313,-133.333333333333,4,2,1,55,0,0
162662,-125,4,2,1,55,0,0
163011,-117.647058823529,4,2,1,55,0,0
163361,-111.111111111111,4,2,1,55,0,0
164058,-100,4,2,1,40,0,0
172430,-200,4,2,1,40,0,0
173127,-200,4,2,1,50,0,0
173302,-200,4,2,1,55,0,0
173476,-200,4,2,1,60,0,0
174174,-100,4,2,1,60,0,0
175220,-83.3333333333333,4,2,1,50,0,0
175569,-83.3333333333333,4,2,1,70,0,1
184988,-100,4,2,1,70,0,0
186383,-100,4,2,1,50,0,0
194755,-100,4,2,1,30,0,0
195627,-125,4,2,1,30,0,0

[Colours]
Combo1 : 185,150,245
Combo2 : 250,85,85
Combo3 : 100,130,190
Combo4 : 250,170,200

[HitObjects]
481,310,1500,5,14,0:0:0:0:
481,310,1848,1,8,0:0:0:0:
481,310,2197,1,8,0:0:0:0:
481,310,2546,1,8,0:0:0:0:
481,310,2895,1,8,0:0:0:0:
481,310,3244,1,8,0:0:0:0:
481,310,3593,6,0,L|385:318,1,73.1250027894975,10|10,0:0|0:0,0:0:0:0:
394,318,3941,2,0,L|330:312,1,48.750001859665,10|10,0:0|0:0,0:0:0:0:
272,299,4290,5,10,0:0:0:0:
272,299,4639,1,8,0:0:0:0:
272,299,4988,1,8,0:0:0:0:
272,299,5337,1,8,0:0:0:0:
272,299,5686,6,0,L|208:304,1,65,10|10,0:0|0:0,0:0:0:0:
254,220,6034,2,0,L|318:225,1,65,10|10,0:0|0:0,0:0:0:0:
281,145,6383,1,10,0:0:0:0:
225,91,6558,1,10,0:0:0:0:
225,91,6645,1,8,0:0:0:0:
225,91,6732,2,0,L|222:59,3,32.5,8|8|8|0,0:0|0:0|0:0|3:0,0:0:0:0:
225,91,7779,6,0,P|289:73|360:104,1,130,6|8,3:2|0:0,0:0:0:0:
398,151,8302,2,0,L|461:145,1,65,2|0,0:0|3:0,0:0:0:0:
505,221,8651,2,0,L|440:226,2,65,2|8|2,0:0|0:0|0:0,0:0:0:0:
512,384,9348,1,2,0:0:0:0:
512,384,9523,1,8,0:0:0:0:
512,384,9697,2,0,L|428:376,1,65,2|0,0:0|3:0,0:0:0:0:
369,382,10046,1,2,0:0:0:0:
310,297,10220,2,0,P|300:344|265:377,1,97.5,10|0,0:0|0:0,0:0:0:0:
234,384,10569,6,0,L|170:378,2,65,2|2|8,3:2|0:0|0:0,0:0:0:0:
231,305,11092,2,0,L|225:241,1,65,2|0,0:0|3:0,0:0:0:0:
144,208,11441,2,0,L|149:272,2,65,2|8|2,0:0|0:0|0:0,0:0:0:0:
12,144,12139,1,2,0:0:0:0:
12,144,12313,1,8,0:0:0:0:
12,144,12488,2,0,L|4:230,1,65,2|0,0:0|3:0,0:0:0:0:
0,286,12837,1,2,0:0:0:0:
60,366,13011,2,0,L|28:362,3,32.5,10|8|8|8,0:0|0:0|0:0|0:0,0:0:0:0:
102,369,13360,6,0,P|93:341|83:283,1,65,6|2,3:2|0:0,0:0:0:0:
120,235,13709,1,8,0:0:0:0:
120,235,13883,2,0,L|212:243,1,65,2|0,0:0|3:0,0:0:0:0:
231,167,14232,2,0,L|166:161,2,65,2|8|2,0:0|0:0|0:0,0:0:0:0:
249,0,14930,1,2,0:0:0:0:
249,0,15104,1,8,0:0:0:0:
249,0,15279,2,0,L|156:7,1,65,2|0,0:0|3:0,0:0:0:0:
117,45,15627,1,2,0:0:0:0:
17,27,15802,2,0,P|43:66|46:114,1,97.5,10|0,0:0|0:0,0:0:0:0:
39,143,16151,6,0,P|71:146|106:152,1,65,6|2,3:2|0:0,0:0:0:0:
171,199,16499,1,8,0:0:0:0:
171,199,16674,2,0,L|235:192,1,65,2|0,0:0|3:0,0:0:0:0:
289,266,17023,2,0,L|223:271,2,65,2|8|2,0:0|0:0|0:0,0:0:0:0:
292,95,17720,1,2,0:0:0:0:
292,95,17895,1,8,0:0:0:0:
292,95,18069,2,0,L|356:100,1,65,2|8,0:0|0:0,0:0:0:0:
414,153,18418,1,10,0:0:0:0:
508,97,18592,2,0,L|476:101,3,32.5,10|8|8|8,0:0|0:0|0:0|0:0,0:0:0:0:
490,129,18941,6,0,P|496:182|509:244,1,97.5,6|0,3:2|0:0,0:0:0:0:
509,254,19290,2,0,L|502:318,2,65,10|0|2,0:0|0:0|3:2,0:0:0:0:
430,248,19813,2,0,L|365:253,1,65,2|8,0:0|0:0,0:0:0:0:
337,346,20162,2,0,P|297:298|226:282,1,130,2|0,0:0|0:0,0:0:0:0:
176,334,20685,2,0,L|80:325,1,65,10|0,0:0|0:0,0:0:0:0:
33,320,21034,2,0,L|41:415,2,65,2|2|10,3:2|0:0|0:0,0:0:0:0:
5,145,21732,6,0,L|-1:81,2,43.3333333333333,2|0|0,3:2|0:0|0:0,0:0:0:0:
8,197,22081,2,0,L|103:205,1,65,10|0,0:0|0:0,0:0:0:0:
150,210,22430,2,0,L|152:243,2,32.5,2|0|0,3:2|0:0|0:0,0:0:0:0:
174,136,22779,2,0,L|110:130,1,65,10|0,0:0|0:0,0:0:0:0:
192,60,23127,6,0,P|223:67|251:84,1,65,2|0,3:2|0:0,0:0:0:0:
309,186,23476,2,0,P|278:178|250:162,1,65,10|0,0:0|0:0,0:0:0:0:
329,75,23825,1,2,3:2:0:0:
381,146,23999,1,10,0:0:0:0:
381,146,24087,1,8,0:0:0:0:
381,146,24174,2,0,P|391:199|352:256,1,97.5,6|0,0:0|0:0,0:0:0:0:
356,257,24523,6,0,L|361:320,1,65,2|0,3:2|0:0,0:0:0:0:
285,365,24872,2,0,L|280:302,1,65,10|0,0:0|0:0,0:0:0:0:
285,222,25220,1,2,3:2:0:0:
207,235,25395,2,0,P|211:196|231:164,1,65,2|8,0:0|0:0,0:0:0:0:
259,82,25744,2,0,P|196:97|132:88,1,130,2|0,0:0|0:0,0:0:0:0:
52,78,26267,2,0,L|60:173,1,65,10|0,0:0|0:0,0:0:0:0:
131,169,26616,2,0,L|124:239,2,65,2|2|10,3:2|0:0|0:0,0:0:0:0:
0,384,27313,6,0,L|35:381,3,32.5,2|2|2|2,3:2|0:0|0:0|0:0,0:0:0:0:
24,352,27662,2,0,L|92:359,1,65,10|0,0:0|0:0,0:0:0:0:
158,319,28011,2,0,L|190:323,3,32.5,2|2|2|2,3:2|0:0|0:0|0:0,0:0:0:0:
183,352,28360,2,0,L|249:347,1,65,10|0,0:0|0:0,0:0:0:0:
297,253,28709,6,0,P|311:283|319:315,1,65,2|0,3:2|0:0,0:0:0:0:
370,222,29058,2,0,P|382:193|390:161,1,65,10|0,0:0|0:0,0:0:0:0:
424,292,29407,1,10,0:0:0:0:
424,292,29581,1,0,0:0:0:0:
495,251,29755,1,10,0:0:0:0:
495,251,29929,1,2,0:0:0:0:
479,356,30104,6,0,P|407:377|349:343,1,130,6|8,3:2|0:0,0:0:0:0:
341,278,30627,2,0,L|276:283,1,65,2|0,0:0|3:0,0:0:0:0:
212,329,30976,2,0,L|208:361,2,32.5,2|0|8,0:0|0:0|0:0,0:0:0:0:
205,251,31325,1,2,0:0:0:0:
99,361,31674,5,2,0:0:0:0:
92,283,31848,1,8,0:0:0:0:
32,229,32023,2,0,L|25:143,1,65,2|0,0:0|3:0,0:0:0:0:
65,95,32372,1,2,0:0:0:0:
113,204,32546,2,0,P|155:225|221:219,1,97.5,10|0,0:0|0:0,0:0:0:0:
220,220,32895,6,0,L|225:156,1,65,2|2,3:2|0:0,0:0:0:0:
171,98,33244,1,8,0:0:0:0:
205,27,33418,2,0,L|269:32,1,65,2|0,0:0|3:0,0:0:0:0:
334,78,33767,2,0,L|336:109,2,32.5,2|0|8,0:0|0:0|0:0,0:0:0:0:
342,0,34116,1,2,0:0:0:0:
496,54,34465,1,2,0:0:0:0:
495,54,34639,2,0,L|489:118,2,65,10|2|2,0:0|0:0|3:2,0:0:0:0:
426,9,35162,1,2,0:0:0:0:
407,108,35337,1,10,0:0:0:0:
350,45,35511,1,10,0:0:0:0:
350,45,35598,1,10,0:0:0:0:
350,45,35685,6,0,L|285:50,1,65,6|2,3:2|0:0,0:0:0:0:
214,17,36034,1,8,0:0:0:0:
166,80,36209,2,0,L|159:147,1,65,2|0,0:0|3:0,0:0:0:0:
208,206,36558,2,0,L|258:201,2,32.5,2|0|8,0:0|0:0|0:0,0:0:0:0:
131,218,36906,1,2,0:0:0:0:
237,343,37255,5,2,0:0:0:0:
312,312,37430,1,8,0:0:0:0:
368,371,37604,2,0,L|461:379,1,65,2|0,0:0|3:0,0:0:0:0:
500,336,37953,1,2,0:0:0:0:
394,296,38127,2,0,P|379:245|398:190,1,97.5,10|0,0:0|0:0,0:0:0:0:
395,190,38476,6,0,L|490:181,1,65,2|2,3:2|0:0,0:0:0:0:
505,120,38825,1,8,0:0:0:0:
459,57,38999,2,0,L|394:51,1,65,2|0,0:0|3:0,0:0:0:0:
327,92,39348,2,0,L|329:124,2,32.5,2|0|8,0:0|0:0|0:0,0:0:0:0:
325,13,39697,1,2,0:0:0:0:
168,13,40046,5,2,3:2:0:0:
166,29,40133,1,0,3:0:0:0:
165,46,40220,2,0,L|161:78,4,32.5,10|8|10|8|0,0:0|0:0|0:0|0:0|3:0,0:0:0:0:
86,37,40744,1,2,0:0:0:0:
114,148,40918,2,0,P|66:154|33:194,1,97.5,10|0,0:0|0:0,0:0:0:0:
33,202,41267,6,0,P|23:261|14:308,1,97.5,6|2,3:2|0:0,0:0:0:0:
12,317,41616,2,0,L|77:310,1,65,10|0,0:0|0:0,0:0:0:0:
154,296,41965,1,2,3:2:0:0:
162,373,42139,2,0,L|227:378,1,65,2|8,0:0|0:0,0:0:0:0:
235,276,42488,2,0,P|289:323|353:334,1,130,2|2,0:0|0:0,0:0:0:0:
369,338,42924,1,2,0:0:0:0:
369,338,43011,2,0,L|432:343,1,65,10|0,0:0|0:0,0:0:0:0:
484,283,43360,1,2,3:2:0:0:
446,214,43534,1,2,0:0:0:0:
498,155,43709,2,0,L|492:91,1,65,10|0,0:0|0:0,0:0:0:0:
446,25,44058,6,0,L|414:27,3,32.5,2|2|2|2,3:2|0:0|0:0|0:0,0:0:0:0:
422,56,44407,2,0,L|353:50,1,65,10|0,0:0|0:0,0:0:0:0:
289,90,44756,2,0,L|254:86,3,32.5,2|0|2|2,3:2|0:0|0:0|0:0,0:0:0:0:
264,57,45105,2,0,L|197:62,1,65,10|0,0:0|0:0,0:0:0:0:
96,96,45453,2,0,P|125:109|151:128,1,65,2|0,3:2|0:0,0:0:0:0:
249,171,45802,2,0,P|219:184|193:203,1,65,10|0,0:0|0:0,0:0:0:0:
72,200,46151,1,2,3:2:0:0:
138,258,46325,1,10,0:0:0:0:
138,258,46412,1,10,0:0:0:0:
138,258,46499,2,0,P|142:320|178:356,1,97.5,14|0,0:0|0:0,0:0:0:0:
187,360,46848,6,0,L|251:365,1,65,2|0,3:2|0:0,0:0:0:0:
311,314,47197,2,0,L|375:319,1,65,10|0,0:0|0:0,0:0:0:0:
487,341,47546,1,2,3:2:0:0:
441,278,47720,2,0,P|442:247|460:203,1,65,2|8,0:0|0:0,0:0:0:0:
509,163,48069,2,0,P|496:99|450:39,1,130,2|2,0:0|0:0,0:0:0:0:
443,38,48505,1,2,0:0:0:0:
443,38,48592,2,0,L|378:43,1,65,8|0,0:0|0:0,0:0:0:0:
329,104,48941,1,2,3:2:0:0:
377,165,49116,1,2,0:0:0:0:
329,226,49290,2,0,L|320:321,1,65,10|0,0:0|0:0,0:0:0:0:
259,337,49639,6,0,L|261:371,2,32.5,2|2|0,3:2|0:0|0:0,0:0:0:0:
232,328,49901,1,2,0:0:0:0:
232,328,49988,2,0,L|226:263,1,65,10|0,0:0|0:0,0:0:0:0:
146,234,50337,2,0,L|148:267,2,32.5,2|2|0,3:2|0:0|0:0,0:0:0:0:
120,226,50599,1,2,0:0:0:0:
120,226,50686,2,0,L|114:161,1,65,10|0,0:0|0:0,0:0:0:0:
159,76,51034,6,0,P|127:81|94:84,1,65,2|0,3:2|0:0,0:0:0:0:
2,19,51383,2,0,P|33:12|66:10,1,65,10|0,0:0|0:0,0:0:0:0:
143,0,51732,1,10,0:0:0:0:
217,22,51906,1,0,0:0:0:0:
238,97,52081,2,0,L|243:164,1,65,10|2,0:0|0:0,0:0:0:0:
251,264,52430,1,6,3:2:0:0:
251,264,53476,6,0,P|290:262|326:268,1,65,10|0,0:0|0:0,0:0:0:0:
410,274,53825,2,0,P|387:202|423:145,1,130,10|10,0:0|0:0,0:0:0:0:
473,111,54348,1,0,0:0:0:0:
493,29,54523,2,0,P|460:33|429:34,1,65,10|0,0:0|0:0,0:0:0:0:
406,30,54784,1,10,0:0:0:0:
406,30,54872,2,0,P|373:25|342:24,1,65,10|10,0:0|0:0,0:0:0:0:
264,34,55220,1,10,0:0:0:0:
264,34,56267,6,0,P|260:66|259:98,1,65,10|0,0:0|0:0,0:0:0:0:
256,193,56616,2,0,P|202:157|138:149,1,130,10|10,0:0|0:0,0:0:0:0:
68,185,57139,1,0,0:0:0:0:
28,71,57313,2,0,P|59:78|91:85,1,65,10|0,0:0|0:0,0:0:0:0:
121,71,57575,1,8,0:0:0:0:
121,71,57662,2,0,P|152:63|184:56,1,65,10|10,0:0|0:0,0:0:0:0:
291,40,58011,1,6,3:2:0:0:
291,40,59058,6,0,P|295:79|302:116,1,65,10|0,0:0|0:0,0:0:0:0:
226,132,59406,2,0,P|226:202|222:266,1,130,10|10,0:0|0:0,0:0:0:0:
266,326,59930,1,0,0:0:0:0:
333,365,60104,2,0,P|366:361|398:350,1,65,10|0,0:0|0:0,0:0:0:0:
424,330,60366,1,8,0:0:0:0:
424,330,60453,2,0,P|457:334|489:345,1,65,10|10,0:0|0:0,0:0:0:0:
424,248,60802,6,0,L|437:88,1,130,10|10,0:0|0:0,0:0:0:0:
442,40,61325,1,0,0:0:0:0:
352,110,61499,2,0,L|339:270,1,130,10|14,0:0|0:0,0:0:0:0:
333,317,62023,1,0,0:0:0:0:
264,217,62197,6,0,P|239:195|198:175,1,65,10|10,0:0|0:0,0:0:0:0:
108,153,62546,2,0,P|136:137|160:115,1,65,10|10,0:0|0:0,0:0:0:0:
254,29,62895,1,14,0:0:0:0:
172,33,63069,1,8,0:0:0:0:
172,33,63156,1,8,0:0:0:0:
172,33,63244,2,0,L|134:39,3,38.9999988098145,10|8|10|8,0:0|0:0|0:0|0:0,0:0:0:0:
109,44,63592,5,6,3:2:0:0:
28,16,63767,1,0,0:0:0:0:
28,16,63854,1,2,0:0:0:0:
28,16,63941,2,0,L|19:111,1,77.999997619629,8|2,0:0|3:2,0:0:0:0:
97,127,64290,2,0,P|132:141|164:164,1,77.999997619629,2|0,0:0|3:2,0:0:0:0:
67,207,64639,2,0,P|31:221|0:244,1,77.999997619629,10|0,0:0|0:0,0:0:0:0:
37,384,64988,6,0,P|41:327|84:288,1,116.999996429443,2|2,3:2|0:0,0:0:0:0:
97,286,65337,2,0,L|208:294,1,77.999997619629,8|2,0:0|0:0,0:0:0:0:
237,358,65685,1,2,0:0:0:0:
237,358,65860,1,0,3:2:0:0:
295,293,66034,2,0,L|372:287,1,77.999997619629,10|0,0:0|0:0,0:0:0:0:
462,362,66383,5,2,3:2:0:0:
463,280,66558,1,0,0:0:0:0:
463,280,66645,1,2,0:0:0:0:
463,280,66732,2,0,P|462:231|470:185,1,77.999997619629,8|2,0:0|0:0,0:0:0:0:
495,85,67081,2,0,P|456:117|404:124,2,77.999997619629,2|0|10,3:2|0:0|0:0,0:0:0:0:
498,0,67604,1,0,0:0:0:0:
420,36,67779,6,0,P|384:20|346:9,1,77.999997619629,2|0,3:2|0:0,0:0:0:0:
349,99,68127,1,10,0:0:0:0:
349,99,68302,1,0,0:0:0:0:
251,0,68476,2,0,B|287:71|240:79|277:150,1,155.999995239258,2|10,3:2|0:0,0:0:0:0:
357,183,68999,1,0,0:0:0:0:
227,221,69174,6,0,L|220:298,1,77.999997619629,2|0,3:2|0:0,0:0:0:0:
301,365,69523,2,0,L|308:288,1,77.999997619629,10|0,0:0|0:0,0:0:0:0:
218,384,69872,2,0,P|173:371|141:331,1,77.999997619629,2|2,3:2|0:0,0:0:0:0:
23,322,70220,2,0,P|60:313|89:288,1,77.999997619629,10|0,0:0|0:0,0:0:0:0:
10,158,70569,6,0,P|16:197|20:236,1,77.999997619629,2|0,3:2|0:0,0:0:0:0:
105,206,70918,1,10,0:0:0:0:
105,206,71092,1,0,0:0:0:0:
186,176,71267,2,0,P|200:148|217:87,1,77.999997619629,2|2,3:2|0:0,0:0:0:0:
264,211,71616,2,0,P|278:239|295:300,1,77.999997619629,10|0,0:0|0:0,0:0:0:0:
198,358,71965,5,2,3:2:0:0:
290,375,72139,1,0,0:0:0:0:
290,375,72226,1,2,0:0:0:0:
290,375,72313,2,0,L|385:383,1,77.999997619629,8|2,0:0|0:0,0:0:0:0:
450,293,72662,2,0,L|354:301,2,77.999997619629,2|0|10,3:2|0:0|0:0,0:0:0:0:
509,354,73185,1,0,0:0:0:0:
512,235,73360,6,0,P|508:193|490:130,1,77.999997619629,2|0,3:2|0:0,0:0:0:0:
409,118,73709,2,0,P|413:156|422:195,1,77.999997619629,10|0,0:0|0:0,0:0:0:0:
332,81,74058,1,2,3:2:0:0:
302,161,74232,1,10,0:0:0:0:
247,95,74406,2,0,L|242:31,3,38.9999988098145,10|8|8|8,0:0|0:0|0:0|0:0,0:0:0:0:
242,32,74755,6,0,P|194:60|149:66,1,77.999997619629,6|0,3:2|0:0,0:0:0:0:
91,23,75104,2,0,P|87:67|79:104,1,77.999997619629,10|0,0:0|0:0,0:0:0:0:
126,179,75453,2,0,P|87:182|48:189,1,77.999997619629,2|2,3:2|0:0,0:0:0:0:
18,320,75802,2,0,P|57:278|113:267,1,116.999996429443,10|0,0:0|0:0,0:0:0:0:
126,271,76151,5,2,3:2:0:0:
156,360,76325,1,0,0:0:0:0:
156,360,76412,1,2,0:0:0:0:
156,360,76499,2,0,L|251:368,1,77.999997619629,8|2,0:0|0:0,0:0:0:0:
324,373,76848,2,0,P|310:328|303:274,1,77.999997619629,2|0,3:2|0:0,0:0:0:0:
403,206,77197,2,0,P|389:262|398:320,1,116.999996429443,10|0,0:0|0:0,0:0:0:0:
403,334,77546,6,0,L|498:342,1,77.999997619629,2|0,3:2|0:0,0:0:0:0:
479,258,77895,1,10,0:0:0:0:
479,258,78069,1,0,0:0:0:0:
486,172,78244,2,0,P|496:130|509:90,1,77.999997619629,2|0,3:2|0:0,0:0:0:0:
403,0,78592,2,0,P|415:37|424:75,1,77.999997619629,10|0,0:0|0:0,0:0:0:0:
297,107,78941,5,2,3:2:0:0:
297,107,79116,1,2,0:0:0:0:
380,165,79290,1,10,0:0:0:0:
380,165,79465,1,2,0:0:0:0:
227,192,79639,2,0,P|190:134|201:51,1,155.999995239258,2|10,3:2|0:0,0:0:0:0:
284,27,80162,1,0,0:0:0:0:
128,0,80337,6,0,L|50:6,1,77.999997619629,2|0,3:2|0:0,0:0:0:0:
0,95,80685,2,0,L|95:86,1,77.999997619629,10|0,0:0|0:0,0:0:0:0:
150,195,81034,1,2,3:2:0:0:
62,182,81209,1,2,0:0:0:0:
62,182,81383,2,0,P|67:225|79:275,1,77.999997619629,10|0,0:0|0:0,0:0:0:0:
0,384,81732,6,0,P|56:347|122:343,1,116.999996429443,2|0,3:2|0:0,0:0:0:0:
114,342,82081,2,0,L|209:350,1,77.999997619629,10|0,0:0|0:0,0:0:0:0:
285,264,82430,2,0,L|207:269,2,77.999997619629,2|0|10,3:2|0:0|0:0,0:0:0:0:
348,322,82953,1,0,0:0:0:0:
337,191,83127,6,0,P|330:152|314:117,1,77.999997619629,2|0,3:2|0:0,0:0:0:0:
186,109,83476,2,0,P|192:147|208:182,1,77.999997619629,10|0,0:0|0:0,0:0:0:0:
256,46,83825,1,2,3:2:0:0:
256,46,83999,1,0,0:0:0:0:
146,24,84174,1,10,0:0:0:0:
146,24,84348,1,2,0:0:0:0:
19,105,84523,6,0,P|61:112|102:123,1,77.999997619629,0|2,3:2|0:0,0:0:0:0:
231,200,84872,2,0,P|189:207|148:218,1,77.999997619629,8|2,0:0|3:2,0:0:0:0:
59,324,85220,1,8,0:0:0:0:
143,303,85395,1,2,0:0:0:0:
9,253,85569,2,0,L|4:187,4,38.9999988098145,10|8|8|8|6,0:0|0:0|0:0|0:0|3:2,0:0:0:0:
131,85,91499,6,0,P|185:62|253:83,1,130,6|8,3:2|0:0,0:0:0:0:
270,158,92023,2,0,L|333:152,1,65,2|0,0:0|3:0,0:0:0:0:
396,201,92372,2,0,L|427:203,2,32.5,2|0|8,0:0|0:0|0:0,0:0:0:0:
324,231,92720,1,2,0:0:0:0:
390,363,93069,2,0,L|324:358,1,65,2|8,0:0|0:0,0:0:0:0:
252,379,93418,2,0,L|165:386,1,65,2|0,0:0|3:2,0:0:0:0:
114,358,93767,1,2,0:0:0:0:
0,384,93941,2,0,P|30:354|42:292,1,97.5,10|0,0:0|0:0,0:0:0:0:
37,286,94290,6,0,L|42:222,1,65,6|2,3:2|0:0,0:0:0:0:
0,155,94639,1,8,0:0:0:0:
42,89,94813,2,0,L|106:83,1,65,2|0,0:0|3:0,0:0:0:0:
171,127,95162,2,0,L|168:158,2,32.5,2|0|8,0:0|0:0|0:0,0:0:0:0:
179,49,95511,1,2,0:0:0:0:
276,150,95860,2,0,L|281:214,1,65,2|8,0:0|0:0,0:0:0:0:
216,257,96209,2,0,L|210:320,1,65,2|8,0:0|0:0,0:0:0:0:
262,383,96558,1,10,0:0:0:0:
152,374,96732,2,0,L|120:376,3,32.5,10|8|8|8,0:0|0:0|0:0|0:0,0:0:0:0:
128,340,97081,6,0,P|126:304|123:266,1,65,6|2,3:2|0:0,0:0:0:0:
124,252,97342,1,2,0:0:0:0:
124,252,97430,2,0,L|131:180,1,65,10|0,0:0|0:0,0:0:0:0:
126,109,97779,1,2,3:2:0:0:
54,169,97953,2,0,L|46:97,1,65,2|8,0:0|0:0,0:0:0:0:
0,1,98302,2,0,P|60:26|125:29,1,130,2|2,0:0|0:0,0:0:0:0:
157,26,98738,1,2,0:0:0:0:
157,26,98825,2,0,L|220:31,1,65,10|0,0:0|0:0,0:0:0:0:
284,78,99174,1,2,3:2:0:0:
354,45,99348,1,2,0:0:0:0:
421,84,99523,1,10,0:0:0:0:
421,84,99872,6,2,L|452:81,2,32.5,2|0|0,3:2|0:0|0:0,0:0:0:0:
400,114,100134,1,2,0:0:0:0:
400,114,100221,2,0,L|394:179,1,65,10|0,0:0|0:0,0:0:0:0:
344,238,100569,2,0,L|311:241,3,32.5,2|2|2|0,3:2|0:0|0:0|0:0,0:0:0:0:
290,271,100918,2,0,L|284:336,1,65,10|0,0:0|0:0,0:0:0:0:
409,369,101267,6,0,P|377:373|346:380,1,65,2|0,3:2|0:0,0:0:0:0:
448,299,101616,2,0,P|481:304|512:311,1,65,10|0,0:0|0:0,0:0:0:0:
407,233,101965,1,2,3:2:0:0:
489,227,102139,1,10,0:0:0:0:
489,227,102226,1,8,0:0:0:0:
489,227,102313,2,0,P|493:175|501:103,1,97.5,6|0,0:0|0:0,0:0:0:0:
502,102,102662,6,0,L|439:107,1,65,2|0,3:2|0:0,0:0:0:0:
381,53,103011,2,0,L|318:47,1,65,10|0,0:0|0:0,0:0:0:0:
216,40,103360,1,2,3:2:0:0:
262,103,103534,2,0,P|275:140|276:192,1,65,2|8,0:0|0:0,0:0:0:0:
337,273,103883,2,0,P|280:241|217:249,1,130,2|2,0:0|0:0,0:0:0:0:
198,265,104319,1,2,0:0:0:0:
198,265,104406,2,0,L|203:331,1,65,10|0,0:0|0:0,0:0:0:0:
148,384,104755,1,2,3:2:0:0:
77,310,104930,1,2,0:0:0:0:
2,342,105104,1,10,0:0:0:0:
2,342,105453,6,0,L|0:310,3,32.5,2|10|10|10,3:2|0:0|0:0|0:0,0:0:0:0:
2,281,105802,2,0,L|7:217,1,65,10|10,0:0|0:0,0:0:0:0:
83,232,106151,2,0,L|85:200,3,32.5,10|10|10|10,0:0|0:0|0:0|0:0,0:0:0:0:
83,171,106500,2,0,L|78:107,1,65,10|10,0:0|0:0,0:0:0:0:
175,73,106848,6,0,P|168:105|158:136,1,65,14|0,0:0|0:0,0:0:0:0:
279,124,107197,2,0,P|263:96|252:66,1,65,2|0,0:0|0:0,0:0:0:0:
209,0,107546,1,2,0:0:0:0:
209,0,107633,1,0,0:0:0:0:
209,0,107720,1,2,0:0:0:0:
326,41,107895,2,0,P|383:47|441:50,1,97.5,2|0,0:0|0:0,0:0:0:0:
448,49,108244,5,6,3:2:0:0:
413,133,108418,1,2,0:0:0:0:
413,133,108505,1,2,0:0:0:0:
413,133,108592,2,0,P|407:164|403:197,1,65,10|0,0:0|3:2,0:0:0:0:
441,265,108941,1,2,0:0:0:0:
372,331,109116,2,0,P|365:299|362:267,1,65,2|8,3:2|0:0,0:0:0:0:
300,163,109465,2,0,P|289:228|278:299,1,130,2|2,3:2|3:2,0:0:0:0:
286,317,109901,1,2,0:0:0:0:
286,317,109988,2,0,L|292:380,1,65,10|0,0:0|3:2,0:0:0:0:
213,352,110337,1,2,0:0:0:0:
107,379,110511,1,10,0:0:0:0:
146,312,110685,2,0,L|138:227,1,65,14|0,0:0|0:0,0:0:0:0:
170,175,111034,6,0,L|202:177,3,32.5,2|2|2|2,3:2|0:0|0:0|0:0,0:0:0:0:
230,179,111383,1,10,0:0:0:0:
305,105,111558,2,0,L|312:170,1,65,2|0,3:2|0:2,0:0:0:0:
341,255,111906,1,2,3:2:0:0:
341,255,111994,1,2,0:0:0:0:
341,255,112081,2,0,L|335:318,1,65,10|0,0:0|3:2,0:0:0:0:
431,384,112430,6,0,P|420:353|414:322,1,65,2|0,0:0|3:2,0:0:0:0:
512,248,112779,2,0,P|507:279|496:310,1,65,10|0,0:0|3:2,0:0:0:0:
433,246,113127,1,2,0:0:0:0:
474,178,113302,1,10,0:0:0:0:
474,178,113389,1,8,0:0:0:0:
474,178,113476,2,0,P|495:127|499:63,1,97.5,14|0,0:0|0:0,0:0:0:0:
500,55,113825,6,0,L|437:60,1,65,2|0,3:2|0:0,0:0:0:0:
374,12,114174,2,0,L|311:17,1,65,10|2,0:0|3:2,0:0:0:0:
178,14,114523,1,2,0:0:0:0:
242,56,114697,2,0,P|241:91|234:128,1,65,2|8,3:2|0:0,0:0:0:0:
249,210,115046,2,0,P|186:196|123:210,1,130,2|2,3:2|3:2,0:0:0:0:
93,228,115482,1,2,0:0:0:0:
93,228,115569,2,0,L|30:222,1,65,10|0,0:0|3:2,0:0:0:0:
80,147,115918,1,2,0:0:0:0:
10,60,116092,1,10,0:0:0:0:
60,0,116267,1,14,0:0:0:0:
60,0,116616,6,0,L|92:2,3,32.5,2|2|2|2,3:2|0:0|0:0|0:0,0:0:0:0:
100,36,116965,2,0,L|164:30,1,65,10|0,0:0|3:2,0:0:0:0:
203,98,117313,2,0,L|235:95,3,32.5,2|2|2|2,0:0|0:0|3:2|0:0,0:0:0:0:
243,62,117662,2,0,L|307:67,1,65,10|0,0:0|3:2,0:0:0:0:
385,9,118011,6,0,P|386:47|390:86,1,65,2|0,0:0|3:2,0:0:0:0:
468,149,118360,2,0,P|468:116|466:84,1,65,10|0,0:0|3:2,0:0:0:0:
464,227,118709,1,10,0:0:0:0:
397,188,118883,1,10,0:0:0:0:
390,188,118970,1,8,0:0:0:0:
382,189,119058,2,0,L|328:193,3,32.5,2|0|2|0,3:2|3:0|3:2|3:0,0:0:0:0:
320,195,119406,6,0,L|316:253,2,48.750001859665,6|0|10,3:2|0:0|0:0,0:0:0:0:
323,120,119930,2,0,L|292:122,1,24.3750009298325,2|2,0:0|0:0,0:0:0:0:
227,131,120191,2,0,L|203:133,1,24.3750009298325,2|2,0:0|0:0,0:0:0:0:
129,139,120453,2,0,L|135:75,1,48.750001859665,10|0,0:0|0:0,0:0:0:0:
175,2,120802,2,0,P|121:18|78:25,1,97.50000371933,10|10,0:0|0:0,0:0:0:0:
31,85,121325,1,0,0:0:0:0:
31,85,121499,2,0,P|31:112|26:148,1,48.750001859665,10|0,0:0|0:0,0:0:0:0:
44,162,121761,1,10,0:0:0:0:
44,162,121848,2,0,P|44:189|50:225,1,48.750001859665,10|10,0:0|0:0,0:0:0:0:
66,281,122197,6,0,L|3:286,2,48.750001859665,10|0|10,0:0|0:0|0:0,0:0:0:0:
127,322,122720,2,0,L|158:324,1,24.3750009298325,2|2,0:0|0:0,0:0:0:0:
223,333,122981,2,0,L|247:335,1,24.3750009298325,2|2,0:0|0:0,0:0:0:0:
322,339,123244,2,0,L|317:275,1,48.750001859665,10|0,0:0|0:0,0:0:0:0:
282,208,123592,2,0,P|328:216|379:220,1,97.50000371933,10|10,0:0|0:0,0:0:0:0:
453,218,124116,1,0,0:0:0:0:
395,148,124290,2,0,L|391:99,1,48.750001859665,10|8,0:0|0:0,0:0:0:0:
369,29,124639,2,0,L|338:26,3,24.3750009298325,2|0|0|0,3:2|3:0|3:0|3:0,0:0:0:0:
317,23,124988,6,0,L|323:86,2,48.750001859665,6|0|10,3:2|0:0|0:0,0:0:0:0:
245,13,125511,2,0,L|214:10,1,24.3750009298325,2|2,0:0|0:0,0:0:0:0:
148,4,125773,2,0,L|117:1,1,24.3750009298325,2|2,0:0|0:0,0:0:0:0:
51,5,126034,2,0,L|57:68,1,48.750001859665,10|0,0:0|0:0,0:0:0:0:
120,118,126383,2,0,P|70:127|24:142,1,97.50000371933,10|10,0:0|0:0,0:0:0:0:
25,218,126906,1,0,0:0:0:0:
25,218,127081,2,0,P|24:244|21:270,1,48.750001859665,10|0,0:0|0:0,0:0:0:0:
40,291,127342,1,10,0:0:0:0:
40,291,127430,2,0,P|41:317|44:343,1,48.750001859665,10|10,0:0|0:0,0:0:0:0:
101,237,127779,6,0,P|150:229|198:236,1,97.50000371933,10|10,0:0|0:0,0:0:0:0:
248,294,128302,1,0,0:0:0:0:
248,294,128476,2,0,P|297:300|345:292,1,97.50000371933,10|10,0:0|0:0,0:0:0:0:
408,255,128999,1,0,3:2:0:0:
384,354,129174,6,0,B|425:329|425:329|469:353,1,97.5,6|0,3:2|0:0,0:0:0:0:
486,276,129872,2,0,L|491:244,3,32.5,2|0|2|0,0:0|0:0|3:2|3:2,0:0:0:0:
477,209,130220,2,0,L|482:177,3,32.5,10|10|10|10,0:0|0:0|0:0|0:0,0:0:0:0:
472,133,130569,5,6,3:2:0:0:
397,176,130744,1,0,0:0:0:0:
397,176,130831,1,2,0:0:0:0:
397,176,130918,2,0,L|320:182,1,77.999997619629,8|2,0:0|3:2,0:0:0:0:
278,87,131267,2,0,P|257:131|228:163,1,77.999997619629,2|0,0:0|3:2,0:0:0:0:
211,268,131616,2,0,P|190:223|161:191,1,77.999997619629,10|0,0:0|0:0,0:0:0:0:
61,119,131965,6,0,P|117:129|171:107,1,116.999996429443,2|2,3:2|0:0,0:0:0:0:
178,97,132313,2,0,L|171:19,1,77.999997619629,8|2,0:0|0:0,0:0:0:0:
259,6,132662,1,2,0:0:0:0:
259,6,132837,1,0,3:2:0:0:
336,96,133011,2,0,L|343:19,1,77.999997619629,10|0,0:0|0:0,0:0:0:0:
427,2,133360,5,2,3:2:0:0:
497,67,133534,1,0,0:0:0:0:
497,67,133622,1,2,0:0:0:0:
497,67,133709,2,0,P|460:80|424:95,1,77.999997619629,8|2,0:0|0:0,0:0:0:0:
401,193,134058,2,0,P|438:180|474:165,2,77.999997619629,2|0|10,3:2|0:0|0:0,0:0:0:0:
321,225,134581,1,0,0:0:0:0:
385,281,134755,6,0,P|384:320|378:359,1,77.999997619629,2|0,3:2|0:0,0:0:0:0:
302,306,135103,1,10,0:0:0:0:
302,306,135278,1,0,0:0:0:0:
193,215,135453,2,0,B|235:282|188:294|231:362,1,155.999995239258,2|10,3:2|0:0,0:0:0:0:
147,380,135976,1,0,0:0:0:0:
11,328,136151,6,0,L|88:321,1,77.999997619629,2|0,3:2|0:0,0:0:0:0:
111,236,136499,2,0,L|33:242,1,77.999997619629,10|0,0:0|0:0,0:0:0:0:
89,157,136848,2,0,P|78:117|52:76,1,77.999997619629,2|2,3:2|0:0,0:0:0:0:
180,0,137197,2,0,P|160:34|150:72,1,77.999997619629,10|0,0:0|0:0,0:0:0:0:
266,0,137546,5,2,3:2:0:0:
246,88,137720,1,0,0:0:0:0:
246,88,137808,1,2,0:0:0:0:
246,88,137895,2,0,L|341:96,1,77.999997619629,8|2,0:0|0:0,0:0:0:0:
391,41,138244,1,2,3:2:0:0:
391,41,138418,1,0,0:0:0:0:
392,147,138592,2,0,L|398:224,1,77.999997619629,10|0,0:0|0:0,0:0:0:0:
442,345,138941,5,2,3:2:0:0:
489,273,139116,1,0,0:0:0:0:
489,273,139203,1,2,0:0:0:0:
489,273,139290,2,0,L|480:177,1,77.999997619629,8|2,0:0|0:0,0:0:0:0:
482,77,139639,2,0,L|490:-18,2,77.999997619629,2|0|10,3:2|0:0|0:0,0:0:0:0:
418,135,140162,1,0,0:0:0:0:
399,35,140337,6,0,P|369:68|329:91,1,77.999997619629,2|0,3:2|0:0,0:0:0:0:
236,64,140685,2,0,P|262:34|294:13,1,77.999997619629,10|0,0:0|0:0,0:0:0:0:
277,140,141034,1,2,3:2:0:0:
190,136,141209,1,10,0:0:0:0:
230,214,141383,2,0,L|234:277,3,38.9999988098145,10|8|8|8,0:0|0:0|0:0|0:0,0:0:0:0:
236,296,141732,6,0,P|200:281|161:273,1,77.999997619629,6|0,3:2|0:0,0:0:0:0:
69,306,142081,2,0,P|78:268|83:211,1,77.999997619629,10|0,0:0|0:0,0:0:0:0:
153,132,142430,2,0,P|116:144|72:147,1,77.999997619629,2|2,3:2|0:0,0:0:0:0:
1,21,142779,2,0,P|44:58|102:62,1,116.999996429443,10|0,0:0|0:0,0:0:0:0:
128,52,143127,5,2,3:2:0:0:
204,12,143302,1,0,0:0:0:0:
274,82,143476,2,0,P|283:45|294:7,1,77.999997619629,10|0,0:0|0:0,0:0:0:0:
384,11,143825,1,2,3:2:0:0:
384,11,143999,1,2,0:0:0:0:
489,82,144174,2,0,P|480:44|469:6,1,77.999997619629,10|0,0:0|0:0,0:0:0:0:
404,94,144523,5,2,3:2:0:0:
460,158,144697,2,0,L|463:198,2,38.9999988098145,2|2|10,0:0|0:0|0:0,0:0:0:0:
379,194,145046,2,0,L|382:234,2,38.9999988098145,2|2|2,0:0|0:0|3:2,0:0:0:0:
326,130,145395,1,0,0:0:0:0:
303,239,145569,2,0,P|285:204|255:180,1,77.999997619629,10|0,0:0|0:0,0:0:0:0:
223,297,145918,5,2,3:2:0:0:
223,297,146092,1,2,0:0:0:0:
172,207,146267,1,10,0:0:0:0:
172,207,146441,1,2,0:0:0:0:
140,334,146616,2,0,P|195:383|282:366,1,155.999995239258,2|10,3:2|0:0,0:0:0:0:
326,307,147139,1,0,0:0:0:0:
491,327,147313,6,0,L|413:321,1,77.999997619629,2|0,3:2|0:0,0:0:0:0:
363,232,147662,2,0,L|458:241,1,77.999997619629,10|0,0:0|0:0,0:0:0:0:
482,112,148011,1,2,3:2:0:0:
409,155,148185,1,2,0:0:0:0:
409,155,148360,2,0,P|394:118|395:59,1,77.999997619629,10|0,0:0|0:0,0:0:0:0:
503,28,148709,6,0,P|451:5|390:-2,1,116.999996429443,2|0,3:2|0:0,0:0:0:0:
360,0,149058,2,0,L|282:6,1,77.999997619629,10|0,0:0|0:0,0:0:0:0:
151,6,149406,2,0,L|73:0,2,77.999997619629,2|0|10,3:2|0:0|0:0,0:0:0:0:
216,62,149930,1,0,0:0:0:0:
90,84,150104,6,0,P|73:124|64:175,1,77.999997619629,2|0,3:2|0:0,0:0:0:0:
152,231,150453,2,0,P|169:191|178:140,1,77.999997619629,10|0,0:0|0:0,0:0:0:0:
54,257,150802,1,2,3:2:0:0:
54,257,150976,1,0,0:0:0:0:
128,333,151151,1,10,0:0:0:0:
128,333,151325,1,2,0:0:0:0:
261,271,151499,6,0,P|244:302|229:342,1,77.999997619629,0|2,3:2|0:0,0:0:0:0:
392,342,151848,2,0,P|378:305|360:270,1,77.999997619629,8|2,0:0|3:2,0:0:0:0:
264,157,152197,1,8,0:0:0:0:
199,213,152372,1,2,0:0:0:0:
344,187,152546,2,0,L|349:123,3,38.9999988098145,10|10|10|10,0:0|0:0|0:0|0:0,0:0:0:0:
346,118,152895,6,0,L|425:111,1,65,6|2,3:0|0:0,0:0:0:0:
441,114,153156,1,0,0:0:0:0:
441,114,153244,1,8,0:0:0:0:
375,30,153418,2,0,L|313:24,1,61.7499983510972,2|0,0:0|3:0,0:0:0:0:
251,80,153767,1,2,0:0:0:0:
251,80,153854,1,0,0:0:0:0:
251,80,153941,1,8,0:0:0:0:
174,24,154116,6,0,L|118:28,1,55.2500010538101,2|0,0:0|3:0,0:0:0:0:
35,38,154465,2,0,L|37:6,2,26,2|0|8,0:0|0:0|0:0,0:0:0:0:
84,109,154813,2,0,L|78:172,1,48.750001859665,2|0,0:0|3:0,0:0:0:0:
23,223,155162,1,2,0:0:0:0:
25,231,155249,1,0,0:0:0:0:
27,239,155337,2,0,L|-4:241,3,21.1249990329743,10|0|2|0,0:0|0:0|0:0|0:0,0:0:0:0:
18,273,155685,6,0,L|22:320,1,38.9999988098145,0|2,3:0|0:0,0:0:0:0:
29,346,155946,1,0,0:0:0:0:
29,346,156034,1,8,0:0:0:0:
105,293,156209,2,0,L|152:297,1,42.2499980659486,2|0,0:0|3:0,0:0:0:0:
224,254,156557,1,2,0:0:0:0:
224,254,156644,1,0,0:0:0:0:
224,254,156732,2,0,L|287:259,1,48.750001859665,8|2,0:0|0:0,0:0:0:0:
146,188,157081,5,12,0:0:0:0:
231,158,157255,2,0,L|227:113,2,24.3750009298325,10|8|12,0:0|0:0|0:0,0:0:0:0:
148,95,157604,1,10,0:0:0:0:
148,95,157691,1,8,0:0:0:0:
148,95,157779,2,0,L|150:63,3,29.2499991073609,4|8|10|8,3:2|0:0|0:0|0:0,0:0:0:0:
158,34,158127,1,10,0:0:0:0:
158,34,158476,6,0,L|222:28,1,65,6|2,3:0|0:0,0:0:0:0:
254,32,158737,1,0,0:0:0:0:
254,32,158825,1,8,0:0:0:0:
343,21,158999,2,0,L|336:100,1,61.7499983510972,2|0,0:0|3:0,0:0:0:0:
388,164,159348,1,2,0:0:0:0:
388,164,159435,1,0,0:0:0:0:
388,164,159522,1,8,0:0:0:0:
337,230,159697,6,0,L|343:309,1,55.2500010538101,2|0,0:0|3:0,0:0:0:0:
376,372,160046,2,0,L|351:370,2,26,2|0|8,0:0|0:0|0:0,0:0:0:0:
463,384,160395,2,0,L|457:320,1,48.750001859665,2|0,0:0|3:0,0:0:0:0:
500,265,160744,1,2,0:0:0:0:
502,257,160831,1,0,0:0:0:0:
504,249,160919,2,0,L|472:246,3,21.1249990329743,10|0|2|0,0:0|0:0|0:0|0:0,0:0:0:0:
498,218,161267,6,0,L|493:170,1,38.9999988098145,0|2,3:0|0:0,0:0:0:0:
494,149,161529,1,0,0:0:0:0:
494,149,161615,1,8,0:0:0:0:
410,195,161790,2,0,L|367:191,1,42.2499980659486,2|0,0:0|3:0,0:0:0:0:
295,241,162139,1,2,0:0:0:0:
295,241,162226,1,0,0:0:0:0:
295,241,162313,2,0,L|237:236,1,48.750001859665,8|2,0:0|0:0,0:0:0:0:
127,206,162662,6,0,P|150:195|175:186,1,52,0|2,3:0|0:0,0:0:0:0:
293,153,163011,2,0,P|268:140|242:131,1,55.2500010538101,8|2,0:0|0:0,0:0:0:0:
256,19,163360,5,10,0:0:0:0:
184,67,163534,1,10,0:0:0:0:
112,19,163709,1,10,0:0:0:0:
102,21,163796,1,10,0:0:0:0:
92,23,163883,1,10,0:0:0:0:
82,25,163970,1,10,0:0:0:0:
72,27,164058,1,6,3:2:0:0:
164,176,172430,6,0,L|179:180,3,16.25,6|0|0|0,3:2|0:0|0:0|0:0,0:0:0:0:
155,141,172779,2,0,L|170:145,3,16.25,10|0|0|0,0:2|0:0|0:0|0:0,0:0:0:0:
146,106,173127,2,0,L|137:75,2,32.5,10|10|10,0:0|0:0|0:0,0:0:0:0:
286,138,173825,5,10,0:0:0:0:
355,107,173999,1,10,0:0:0:0:
345,29,174174,6,0,L|376:26,3,32.5,10|8|8|8,0:0|0:0|0:0|0:0,0:0:0:0:
420,0,174523,1,10,0:0:0:0:
512,62,174697,1,2,0:0:0:0:
437,75,174872,2,0,L|432:109,3,32.5,6|2|2|2,3:0|0:3|0:3|0:3,0:0:0:0:
421,124,175220,5,2,3:2:0:0:
421,124,175569,6,0,P|383:139|331:164,1,77.999997619629,14|2,0:0|0:0,0:0:0:0:
442,213,175918,1,2,3:2:0:0:
442,213,176092,1,2,0:0:0:0:
331,242,176267,2,0,P|293:227|241:202,1,77.999997619629,10|0,0:0|0:0,0:0:0:0:
410,287,176616,6,0,P|395:361|337:386,1,116.999996429443,2|2,3:2|0:0,0:0:0:0:
335,384,176965,2,0,L|257:377,1,77.999997619629,8|2,0:0|0:0,0:0:0:0:
253,287,177313,1,2,3:2:0:0:
253,287,177488,1,0,0:0:0:0:
171,372,177662,2,0,L|164:294,1,77.999997619629,10|0,0:0|0:0,0:0:0:0:
195,205,178011,6,0,P|156:200|117:200,1,77.999997619629,2|0,3:2|0:0,0:0:0:0:
54,112,178360,2,0,P|92:112|131:107,1,77.999997619629,10|0,0:0|0:0,0:0:0:0:
235,40,178709,2,0,P|223:77|226:116,1,77.999997619629,2|2,3:2|0:0,0:0:0:0:
317,63,179058,2,0,P|358:57|394:54,1,77.999997619629,10|0,0:0|0:0,0:0:0:0:
352,147,179406,5,2,3:2:0:0:
352,147,179581,1,0,0:0:0:0:
419,244,179755,2,0,P|380:238|341:234,1,77.999997619629,10|0,0:0|0:0,0:0:0:0:
473,167,180104,2,0,P|509:219|493:301,1,116.999996429443,2|0,3:2|0:0,0:0:0:0:
499,299,180453,2,0,L|507:394,1,77.999997619629,10|0,0:0|0:0,0:0:0:0:
342,366,180802,6,0,L|420:372,1,77.999997619629,6|0,3:2|0:0,0:0:0:0:
372,285,181150,2,0,L|277:276,1,77.999997619629,10|0,0:0|0:0,0:0:0:0:
188,367,181499,1,2,3:2:0:0:
200,276,181674,1,2,0:0:0:0:
200,276,181761,1,0,0:0:0:0:
200,276,181848,2,0,P|191:230|160:175,1,77.999997619629,10|0,0:0|0:0,0:0:0:0:
14,195,182197,6,0,P|69:211|104:258,1,116.999996429443,2|2,3:2|0:0,0:0:0:0:
107,285,182546,2,0,L|98:380,1,77.999997619629,8|2,0:0|0:0,0:0:0:0:
269,367,182895,2,0,L|189:373,2,77.999997619629,2|0|10,3:2|0:0|0:0,0:0:0:0:
332,297,183418,1,0,0:0:0:0:
415,383,183592,6,0,P|421:344|423:306,1,77.999997619629,2|0,3:2|0:0,0:0:0:0:
503,256,183941,2,0,P|496:217|494:178,1,77.999997619629,10|2,0:0|0:0,0:0:0:0:
342,185,184290,2,0,P|371:211|408:220,1,77.999997619629,0|2,3:2|0:0,0:0:0:0:
499,92,184639,1,8,0:0:0:0:
499,92,184813,1,2,0:0:0:0:
338,90,184988,5,8,0:0:0:0:
420,136,185162,1,10,0:0:0:0:
420,136,185860,5,8,0:0:0:0:
424,213,186034,1,8,0:0:0:0:
196,214,186383,6,0,P|210:154|193:78,1,130,6|8,3:2|0:0,0:0:0:0:
155,21,186906,2,0,L|72:28,1,65,2|0,0:0|3:0,0:0:0:0:
31,78,187255,2,0,L|0:75,2,32.5,2|0|8,0:0|0:0|0:0,0:0:0:0:
104,104,187604,1,2,0:0:0:0:
17,257,187953,1,2,0:0:0:0:
17,257,188127,1,8,0:0:0:0:
17,257,188302,2,0,L|96:263,1,65,2|0,0:0|3:0,0:0:0:0:
156,240,188651,1,2,0:0:0:0:
257,279,188825,2,0,P|235:235|228:185,1,97.5,10|0,0:0|0:0,0:0:0:0:
235,177,189174,6,0,L|228:97,1,65,2|2,3:2|0:0,0:0:0:0:
179,52,189523,1,8,0:0:0:0:
239,3,189697,2,0,L|334:11,1,65,2|0,0:0|3:0,0:0:0:0:
371,47,190046,2,0,L|402:44,2,32.5,2|0|8,0:0|0:0|0:0,0:0:0:0:
304,87,190395,1,2,0:0:0:0:
474,145,190744,1,2,0:0:0:0:
474,145,190918,1,8,0:0:0:0:
474,145,191092,2,0,L|467:224,1,65,2|0,0:0|3:0,0:0:0:0:
417,269,191441,1,2,0:0:0:0:
486,345,191616,2,0,L|483:313,3,32.5,10|8|8|8,0:0|0:0|0:0|0:0,0:0:0:0:
487,377,191965,6,0,P|420:369|352:387,1,130,6|8,3:2|0:0,0:0:0:0:
290,348,192488,2,0,L|225:353,1,65,2|0,0:0|0:0,0:0:0:0:
149,384,192837,2,0,L|117:381,2,32.5,2|0|8,0:0|0:0|0:0,0:0:0:0:
161,307,193185,1,2,0:0:0:0:
51,184,193534,1,2,0:0:0:0:
51,184,193709,1,8,0:0:0:0:
51,184,193883,2,0,L|146:192,1,65,2|0,0:0|3:0,0:0:0:0:
182,230,194232,1,2,0:0:0:0:
182,120,194406,2,0,L|185:152,3,32.5,10|8|8|8,0:0|0:0|0:0|0:0,0:0:0:0:
178,80,194755,5,6,3:2:0:0:
178,80,195279,1,2,0:0:0:0:
299,51,195627,2,0,L|304:-12,2,52,2|2|2,0:0|0:0|0:0,0:0:0:0:
386,141,196325,2,0,L|391:204,2,52,2|2|2,0:0|0:0|0:0,0:0:0:0:
489,56,197023,1,2,0:0:0:0:
402,35,197197,1,2,0:0:0:0:
