osu file format v14

[General]
AudioFilename: audio.mp3
AudioLeadIn: 0
PreviewTime: 164058
Countdown: 0
SampleSet: Soft
StackLeniency: 0.5
Mode: 0
LetterboxInBreaks: 0
WidescreenStoryboard: 1

[Editor]
Bookmarks: 52430,85918,91499,130569,186383,197197
DistanceSpacing: 1.2
BeatDivisor: 4
GridSize: 16
TimelineZoom: 2

[Metadata]
Title:Buriki no Dance
TitleUnicode:ブリキノダンス
Artist:96neko
ArtistUnicode:96猫
Creator:Kimchi Sandwich
Version:Expert
Source:
Tags:w_m 日向電工 hinata electric works utaite cover mix wm japanese pop 嘘の火花 (Special Edition) mix M_i_X Uso no Hibana
BeatmapID:2690060
BeatmapSetID:1296562

[Difficulty]
HPDrainRate:6
CircleSize:4.2
OverallDifficulty:8.8
ApproachRate:9.2
SliderMultiplier:1.7
SliderTickRate:1

[Events]
//Background and Video events
0,0,"BG.png",0,0
//Break Periods
2,86118,90929
//Storyboard Layer 0 (Background)
//Storyboard Layer 1 (Fail)
//Storyboard Layer 2 (Pass)
//Storyboard Layer 3 (Foreground)
//Storyboard Layer 4 (Overlay)
//Storyboard Sound Samples

[TimingPoints]
1500,348.837209302326,4,2,1,60,1,0
7779,348.837209302326,4,2,1,50,1,0
18941,-125,4,2,1,35,0,0
30104,-100,4,2,1,45,0,0
41267,-125,4,2,1,35,0,0
52430,-125,4,2,1,50,0,0
53825,-166.666666666667,4,2,1,50,0,0
63592,-83.3333333333333,4,2,1,65,0,1
85918,-83.3333333333333,4,2,1,30,0,0
91499,-100,4,2,1,45,0,0
97081,-125,4,2,1,35,0,0
106848,-125,4,2,1,40,0,0
108244,-125,4,2,1,35,0,0
119406,-166.666666666667,4,2,1,50,0,0
129174,-499.999999999999,4,2,1,50,0,0
129872,-83.3333333333333,4,2,1,50,0,0
130046,-71.4285714285714,4,2,1,50,0,0
130220,-62.5,4,2,1,60,0,0
130395,-55.5555555555556,4,2,1,60,0,0
130569,-83.3333333333333,4,2,1,65,0,1
152895,-83.3333333333333,4,2,1,55,0,0
153592,-100,4,2,1,55,0,0
154988,-200,4,2,1,55,0,0
159174,-100,4,2,1,55,0,0
160569,-200,4,2,1,55,0,0
162662,-83.3333333333333,4,2,1,55,0,0
163011,-71.4285714285714,4,2,1,55,0,0
164058,-166.666666666667,4,2,1,40,0,0
173127,-166.666666666667,4,2,1,50,0,0
173302,-166.666666666667,4,2,1,55,0,0
173476,-166.666666666667,4,2,1,60,0,0
174872,-100,4,2,1,60,0,0
175220,-71.4285714285715,4,2,1,40,0,0
175569,-71.4285714285715,4,2,1,70,0,1
184988,-71.4285714285714,4,2,1,70,0,0
186383,-100,4,2,1,50,0,0
194755,-100,4,2,1,30,0,0
195627,-166.666666666667,4,2,1,30,0,0

[Colours]
Combo1 : 185,150,245
Combo2 : 250,85,85
Combo3 : 100,130,190
Combo4 : 250,170,200

[HitObjects]
198,384,1500,5,14,0:0:0:0:
199,366,1848,1,8,0:0:0:0:
201,348,2197,1,8,0:0:0:0:
203,329,2546,1,8,0:0:0:0:
205,311,2895,1,8,0:0:0:0:
207,292,3244,1,8,0:0:0:0:
209,274,3593,5,10,0:0:0:0:
338,328,3854,1,10,0:0:0:0:
336,323,3941,1,10,0:0:0:0:
289,261,4116,1,10,0:0:0:0:
325,191,4290,5,10,0:0:0:0:
324,173,4639,1,8,0:0:0:0:
322,155,4988,1,8,0:0:0:0:
320,136,5337,1,8,0:0:0:0:
318,118,5686,5,10,0:0:0:0:
368,50,5860,1,10,0:0:0:0:
403,129,6034,1,10,0:0:0:0:
283,39,6209,1,10,0:0:0:0:
453,60,6383,1,10,0:0:0:0:
351,198,6558,1,10,0:0:0:0:
353,181,6645,1,8,0:0:0:0:
355,164,6732,1,8,0:0:0:0:
357,147,6819,1,8,0:0:0:0:
359,130,6906,1,8,0:0:0:0:
361,113,6994,1,0,3:2:0:0:
269,384,7779,6,0,P|319:335|340:227,1,170,6|8,3:2|0:0,0:0:0:0:
283,119,8302,2,0,P|328:138|394:154,1,85,2|0,0:0|3:0,0:0:0:0:
214,213,8651,5,2,0:0:0:0:
211,200,8738,1,0,0:0:0:0:
208,187,8826,1,8,0:0:0:0:
223,43,8999,2,0,P|178:62|112:78,1,85,2|0,0:0|3:0,0:0:0:0:
46,2,9348,1,2,0:0:0:0:
108,77,9523,1,8,0:0:0:0:
55,162,9697,2,0,L|62:247,1,85,2|0,0:0|3:0,0:0:0:0:
0,86,10046,5,2,0:0:0:0:
154,205,10220,2,0,L|281:193,1,127.5,10|0,0:0|0:0,0:0:0:0:
292,197,10569,5,2,3:2:0:0:
236,102,10744,2,0,L|320:95,1,85,2|8,0:0|0:0,0:0:0:0:
408,190,11092,2,0,P|412:150|424:97,1,85,2|0,0:0|3:0,0:0:0:0:
489,258,11441,5,2,0:0:0:0:
476,261,11528,1,0,0:0:0:0:
463,264,11616,1,8,0:0:0:0:
317,223,11790,2,0,P|325:265|330:307,1,85,2|0,0:0|3:0,0:0:0:0:
424,384,12139,1,2,0:0:0:0:
332,338,12313,1,8,0:0:0:0:
235,377,12488,2,0,L|150:384,1,85,2|0,0:0|3:0,0:0:0:0:
286,245,12837,5,2,0:0:0:0:
122,293,13011,1,10,0:0:0:0:
137,291,13098,1,8,0:0:0:0:
153,290,13185,1,8,0:0:0:0:
169,288,13273,1,8,0:0:0:0:
185,287,13360,6,0,L|194:176,2,85,6|2|8,3:2|0:0|0:0,0:0:0:0:
82,380,13883,2,0,P|41:363|-30:358,1,85,2|0,0:0|3:0,0:0:0:0:
206,380,14232,5,2,0:0:0:0:
193,377,14320,1,0,0:0:0:0:
180,374,14407,1,8,0:0:0:0:
61,265,14581,2,0,P|103:259|142:242,1,85,2|0,0:0|3:0,0:0:0:0:
294,258,14929,1,2,0:0:0:0:
201,191,15104,1,8,0:0:0:0:
324,104,15279,2,0,P|282:98|243:81,1,85,2|0,0:0|3:0,0:0:0:0:
294,258,15627,5,2,0:0:0:0:
69,196,15801,2,0,L|220:181,1,127.5,10|0,0:0|0:0,0:0:0:0:
201,191,16150,5,6,3:2:0:0:
116,96,16325,2,0,L|226:85,1,85,2|8,0:0|0:0,0:0:0:0:
387,4,16673,2,0,P|429:17|480:28,1,85,2|0,0:0|3:0,0:0:0:0:
274,32,17023,5,2,0:0:0:0:
287,35,17111,1,0,0:0:0:0:
300,38,17198,1,8,0:0:0:0:
398,113,17372,2,0,P|356:122|316:135,1,85,2|0,0:0|3:0,0:0:0:0:
171,96,17720,1,2,0:0:0:0:
250,176,17894,1,8,0:0:0:0:
155,272,18069,2,0,P|196:281|236:294,1,85,2|8,0:0|0:0,0:0:0:0:
112,178,18418,5,10,0:0:0:0:
357,225,18592,1,10,0:0:0:0:
359,251,18679,1,8,0:0:0:0:
361,278,18767,1,8,0:0:0:0:
364,305,18854,1,8,0:0:0:0:
366,331,18941,6,0,P|307:354|243:359,1,102,6|0,3:2|0:0,0:0:0:0:
258,358,19290,2,0,L|249:262,1,68,10|0,0:0|0:0,0:0:0:0:
171,256,19639,1,2,3:2:0:0:
277,182,19813,2,0,L|181:173,1,68,2|8,0:0|0:0,0:0:0:0:
94,104,20162,6,0,L|247:90,1,136,2|0,0:0|0:0,0:0:0:0:
100,36,20685,2,0,P|98:83|82:133,1,68,10|0,0:0|0:0,0:0:0:0:
31,159,21034,1,2,3:2:0:0:
29,243,21208,1,2,0:0:0:0:
117,334,21383,2,0,P|115:286|99:236,1,68,10|0,0:0|0:0,0:0:0:0:
178,165,21732,6,0,L|189:101,2,45.3333333333333,2|0|0,3:2|0:0|0:0,0:0:0:0:
193,246,22081,1,10,0:0:0:0:
210,327,22255,1,2,0:0:0:0:
307,222,22430,6,0,L|296:158,2,34,2|0|0,3:2|0:0|0:0,0:0:0:0:
292,303,22779,1,10,0:0:0:0:
275,384,22953,1,2,0:0:0:0:
408,325,23127,5,2,3:2:0:0:
292,303,23302,1,0,0:0:0:0:
423,201,23476,1,10,0:0:0:0:
307,222,23651,1,0,0:0:0:0:
494,277,23825,5,2,3:2:0:0:
508,152,23999,1,10,0:0:0:0:
510,144,24087,1,8,0:0:0:0:
512,136,24174,2,0,P|498:74|498:15,1,102,6|0,0:0|0:0,0:0:0:0:
499,27,24523,6,0,P|465:32|431:35,1,68,2|0,3:2|0:0,0:0:0:0:
401,121,24872,2,0,P|367:115|333:112,1,68,10|0,0:0|0:0,0:0:0:0:
299,195,25220,1,2,3:2:0:0:
293,60,25395,2,0,P|319:80|333:111,1,68,2|8,0:0|0:0,0:0:0:0:
203,65,25744,2,0,P|176:44|162:13,1,68,2|0,0:0|3:0,0:0:0:0:
44,9,26092,5,2,0:0:0:0:
52,13,26180,1,2,0:0:0:0:
61,17,26267,2,0,P|71:64|86:96,1,68,10|0,0:0|0:0,0:0:0:0:
58,169,26616,1,2,3:2:0:0:
89,254,26790,1,2,0:0:0:0:
12,369,26965,2,0,P|52:353|102:344,1,68,10|0,0:0|0:0,0:0:0:0:
172,381,27313,5,2,3:2:0:0:
174,371,27401,1,2,0:0:0:0:
176,361,27488,1,2,0:0:0:0:
178,351,27575,1,2,0:0:0:0:
180,341,27662,1,10,0:0:0:0:
139,264,27837,1,0,0:0:0:0:
265,324,28011,5,2,3:2:0:0:
263,314,28099,1,2,0:0:0:0:
261,304,28186,1,2,0:0:0:0:
259,294,28273,1,2,0:0:0:0:
257,284,28360,1,10,0:0:0:0:
298,207,28535,1,0,0:0:0:0:
384,336,28709,5,2,3:2:0:0:
475,352,28883,1,0,0:0:0:0:
372,249,29058,1,10,0:0:0:0:
482,268,29232,1,0,0:0:0:0:
512,101,29406,5,10,0:0:0:0:
402,82,29580,1,0,0:0:0:0:
505,185,29755,1,10,0:0:0:0:
414,169,29929,1,2,0:0:0:0:
340,0,30104,6,0,P|356:47|308:154,1,170,6|8,3:2|0:0,0:0:0:0:
196,126,30627,2,0,P|217:167|229:224,1,85,2|0,0:0|3:0,0:0:0:0:
109,70,30976,5,2,0:0:0:0:
106,83,31063,1,0,0:0:0:0:
103,96,31151,1,8,0:0:0:0:
125,201,31325,2,0,P|104:242|92:299,1,85,2|0,0:0|3:0,0:0:0:0:
0,349,31674,1,2,0:0:0:0:
90,313,31848,1,8,0:0:0:0:
177,358,32023,2,0,P|219:376|276:385,1,85,2|0,0:0|3:0,0:0:0:0:
217,218,32372,5,2,0:0:0:0:
375,282,32546,2,0,L|247:293,1,127.5,10|0,0:0|0:0,0:0:0:0:
239,297,32895,5,2,3:2:0:0:
305,202,33069,2,0,L|400:193,1,85,2|8,0:0|0:0,0:0:0:0:
502,128,33418,2,0,P|492:169|486:211,1,85,2|0,0:0|3:0,0:0:0:0:
411,60,33767,5,2,0:0:0:0:
414,73,33854,1,0,0:0:0:0:
417,86,33942,1,8,0:0:0:0:
389,193,34116,2,0,P|398:234|404:276,1,85,2|0,0:0|3:0,0:0:0:0:
509,380,34465,6,0,L|514:316,1,42.5,2|0,0:0|0:0,0:0:0:0:
401,284,34639,2,0,L|404:326,1,42.5,10|0,0:0|0:0,0:0:0:0:
293,380,34813,2,0,L|296:337,1,42.5,2|0,0:0|0:0,0:0:0:0:
185,284,34988,2,0,L|188:326,1,42.5,2|0,3:2|0:0,0:0:0:0:
14,384,35162,5,2,0:0:0:0:
122,228,35337,1,10,0:0:0:0:
104,384,35511,5,10,0:0:0:0:
99,360,35598,1,10,0:0:0:0:
94,336,35685,1,6,3:2:0:0:
5,264,35860,2,0,P|24:217|21:156,1,85,2|8,0:0|0:0,0:0:0:0:
113,81,36209,2,0,P|67:86|25:90,1,85,2|0,0:0|3:0,0:0:0:0:
181,169,36558,5,2,0:0:0:0:
184,156,36645,1,0,0:0:0:0:
187,143,36733,1,8,0:0:0:0:
166,0,36906,2,0,P|211:5|254:9,1,85,2|0,0:0|3:0,0:0:0:0:
388,1,37255,1,2,0:0:0:0:
323,81,37430,1,8,0:0:0:0:
365,183,37604,2,0,P|322:183|280:191,1,85,2|0,0:0|3:0,0:0:0:0:
376,372,37953,5,2,0:0:0:0:
219,274,38127,2,0,L|346:285,1,127.5,10|0,0:0|0:0,0:0:0:0:
355,282,38476,5,2,3:2:0:0:
276,377,38651,2,0,L|191:369,1,85,2|8,0:0|0:0,0:0:0:0:
91,278,38999,2,0,P|96:323|100:366,1,85,2|0,0:0|3:0,0:0:0:0:
179,210,39348,5,2,0:0:0:0:
166,207,39435,1,0,0:0:0:0:
153,204,39523,1,8,0:0:0:0:
10,225,39697,2,0,P|15:179|19:136,1,85,2|0,0:0|3:0,0:0:0:0:
3,374,40046,5,10,3:2:0:0:
25,350,40133,1,8,3:2:0:0:
47,326,40220,1,10,0:0:0:0:
69,302,40308,1,8,0:0:0:0:
91,278,40395,1,10,0:0:0:0:
113,254,40482,1,8,0:0:0:0:
135,230,40569,1,0,3:0:0:0:
132,384,40744,5,2,0:0:0:0:
355,366,40918,2,0,P|290:377|227:376,1,127.5,10|0,0:0|0:0,0:0:0:0:
222,371,41267,6,0,P|218:333|209:286,1,68,6|0,3:2|0:0,0:0:0:0:
208,300,41529,1,2,0:0:0:0:
203,296,41616,1,10,0:0:0:0:
113,254,41790,1,0,0:0:0:0:
281,233,41965,1,2,3:2:0:0:
192,191,42139,2,0,P|198:152|216:98,1,68,2|8,0:0|0:0,0:0:0:0:
12,33,42488,6,0,P|75:60|152:50,1,136,2|2,0:0|0:0,0:0:0:0:
147,52,42924,1,2,0:0:0:0:
153,49,43011,1,10,0:0:0:0:
247,20,43185,1,0,0:0:0:0:
271,134,43360,1,2,3:2:0:0:
365,163,43534,1,2,0:0:0:0:
445,67,43709,2,0,P|450:100|458:133,1,68,10|0,0:0|0:0,0:0:0:0:
512,251,44058,5,2,3:2:0:0:
500,254,44146,1,2,0:0:0:0:
488,256,44233,1,2,0:0:0:0:
476,259,44320,1,2,0:0:0:0:
464,261,44407,1,10,0:0:0:0:
371,212,44582,1,0,0:0:0:0:
416,344,44756,5,2,3:2:0:0:
404,342,44842,1,2,0:0:0:0:
392,339,44931,1,2,0:0:0:0:
380,337,45018,1,2,0:0:0:0:
368,335,45105,1,10,0:0:0:0:
276,384,45280,1,0,0:0:0:0:
291,246,45453,5,2,3:2:0:0:
197,308,45627,1,0,0:0:0:0:
107,151,45802,1,10,0:0:0:0:
201,213,45976,1,0,0:0:0:0:
115,349,46151,5,2,3:2:0:0:
21,287,46325,1,10,0:0:0:0:
21,277,46413,1,8,0:0:0:0:
21,267,46500,2,0,P|71:267|121:257,1,102,14|0,0:0|0:0,0:0:0:0:
128,252,46848,6,0,P|133:218|136:184,1,68,2|0,3:2|0:0,0:0:0:0:
222,154,47197,2,0,P|216:120|213:86,1,68,10|0,0:0|0:0,0:0:0:0:
296,52,47545,1,2,3:2:0:0:
438,102,47720,2,0,P|404:100|372:110,1,68,2|8,0:0|0:0,0:0:0:0:
301,212,48069,2,0,P|334:213|366:203,1,68,2|0,0:0|3:0,0:0:0:0:
466,192,48418,5,2,0:0:0:0:
461,199,48505,1,2,0:0:0:0:
456,206,48592,2,0,P|454:250|448:295,1,68,8|0,0:0|0:0,0:0:0:0:
328,353,48941,1,2,3:2:0:0:
237,318,49116,1,2,0:0:0:0:
105,384,49290,2,0,P|107:340|113:295,1,68,10|0,0:0|0:0,0:0:0:0:
195,164,49639,5,2,3:2:0:0:
195,164,49726,1,2,0:0:0:0:
25,203,49901,1,2,0:0:0:0:
25,203,49988,1,10,0:0:0:0:
119,236,50162,1,0,0:0:0:0:
119,92,50337,5,2,3:2:0:0:
119,92,50424,1,2,0:0:0:0:
289,131,50599,1,2,0:0:0:0:
289,131,50686,1,10,0:0:0:0:
195,164,50860,1,0,0:0:0:0:
371,175,51034,5,2,3:2:0:0:
322,269,51209,1,0,0:0:0:0:
463,175,51383,1,10,0:0:0:0:
512,269,51558,1,0,0:0:0:0:
322,269,51732,5,10,0:0:0:0:
416,260,51907,1,0,0:0:0:0:
425,354,52081,1,10,0:0:0:0:
331,363,52255,1,2,0:0:0:0:
512,384,52430,5,6,3:2:0:0:
512,373,52779,1,8,0:0:0:0:
512,362,53127,1,8,0:0:0:0:
331,273,53476,5,10,0:0:0:0:
372,199,53651,1,0,0:0:0:0:
331,125,53825,2,0,P|326:84|326:30,1,76.4999976654053,10|0,0:0|0:0,0:0:0:0:
318,39,54174,1,10,0:0:0:0:
405,78,54348,1,0,0:0:0:0:
486,6,54523,2,0,P|484:38|481:68,1,50.9999984436036,10|0,0:0|0:0,0:0:0:0:
464,133,54784,1,8,0:0:0:0:
467,141,54872,1,10,0:0:0:0:
512,215,55046,1,10,0:0:0:0:
464,315,55220,5,10,0:0:0:0:
453,315,55569,1,8,0:0:0:0:
442,315,55917,1,8,0:0:0:0:
220,303,56266,5,10,0:0:0:0:
144,254,56441,1,0,0:0:0:0:
12,300,56616,2,0,P|55:307|102:331,1,76.4999976654053,10|0,0:0|0:0,0:0:0:0:
98,330,56965,1,10,0:0:0:0:
0,384,57139,1,0,0:0:0:0:
1,215,57313,1,10,0:0:0:0:
144,254,57488,1,0,0:0:0:0:
136,234,57575,1,8,0:0:0:0:
128,214,57662,1,10,0:0:0:0:
191,123,57837,1,10,0:0:0:0:
128,0,58011,5,6,3:2:0:0:
128,11,58360,1,8,0:0:0:0:
128,22,58708,1,8,0:0:0:0:
0,184,59058,5,10,0:0:0:0:
71,129,59232,1,0,0:0:0:0:
184,184,59406,2,0,P|167:141|160:99,1,76.4999976654053,10|0,0:0|0:0,0:0:0:0:
165,103,59755,1,10,0:0:0:0:
254,134,59930,1,0,0:0:0:0:
335,51,60104,2,0,P|331:78|328:112,1,50.9999984436036,10|0,0:0|0:0,0:0:0:0:
320,176,60366,1,8,0:0:0:0:
323,183,60453,1,10,0:0:0:0:
310,263,60627,1,10,0:0:0:0:
401,205,60802,6,0,L|464:199,1,50.9999984436036,10|0,0:0|0:0,0:0:0:0:
440,290,61151,1,10,0:0:0:0:
481,371,61325,1,0,0:0:0:0:
354,323,61499,6,0,L|290:317,1,50.9999984436036,10|0,0:0|0:0,0:0:0:0:
119,286,61848,1,14,0:0:0:0:
198,384,62023,1,0,0:0:0:0:
45,196,62197,5,10,0:0:0:0:
249,265,62372,1,10,0:0:0:0:
4,305,62546,1,10,0:0:0:0:
306,157,62720,1,10,0:0:0:0:
87,45,62895,5,14,0:0:0:0:
194,130,63069,1,8,0:0:0:0:
198,176,63156,1,8,0:0:0:0:
196,224,63243,1,10,0:0:0:0:
184,269,63330,1,8,0:0:0:0:
166,312,63418,1,10,0:0:0:0:
139,351,63505,1,8,0:0:0:0:
106,384,63592,6,0,P|93:334|83:284,1,101.999996887207,6|0,3:2|0:0,0:0:0:0:
86,276,63854,1,2,0:0:0:0:
89,268,63941,1,8,0:0:0:0:
126,184,64116,1,2,3:2:0:0:
0,84,64290,1,2,0:0:0:0:
37,169,64465,1,0,3:2:0:0:
81,28,64639,2,0,P|139:38|204:33,1,101.999996887207,10|0,0:0|0:0,0:0:0:0:
262,143,64988,6,0,P|267:85|278:22,1,101.999996887207,2|0,3:2|0:0,0:0:0:0:
279,35,65249,1,2,0:0:0:0:
285,29,65337,1,8,0:0:0:0:
375,0,65511,1,2,0:0:0:0:
361,137,65685,1,2,0:0:0:0:
468,171,65859,1,0,3:2:0:0:
306,240,66034,2,0,P|245:230|203:220,1,101.999996887207,10|0,0:0|0:0,0:0:0:0:
420,345,66383,6,0,P|414:287|403:224,1,101.999996887207,2|0,3:2|0:0,0:0:0:0:
402,237,66644,1,2,0:0:0:0:
396,231,66732,1,8,0:0:0:0:
324,152,66906,1,2,0:0:0:0:
206,360,67081,5,2,3:2:0:0:
196,250,67255,1,0,0:0:0:0:
306,240,67430,1,10,0:0:0:0:
316,350,67604,1,0,0:0:0:0:
123,158,67779,5,2,3:2:0:0:
306,240,67953,1,2,0:0:0:0:
86,260,68127,1,10,0:0:0:0:
252,146,68302,1,2,0:0:0:0:
106,0,68476,2,0,P|157:39|258:39,1,152.999995330811,2|0,3:2|0:0,0:0:0:0:
253,39,68825,2,0,P|313:20|376:2,1,101.999996887207,10|0,0:0|0:0,0:0:0:0:
512,192,69174,6,0,P|451:173|388:155,1,101.999996887207,6|0,3:2|0:0,0:0:0:0:
333,248,69523,1,10,0:0:0:0:
243,265,69697,1,0,0:0:0:0:
135,163,69872,1,2,3:2:0:0:
245,181,70046,1,2,0:0:0:0:
237,168,70133,1,0,0:0:0:0:
229,155,70220,2,0,L|235:92,1,50.9999984436036,10|0,0:0|0:0,0:0:0:0:
333,248,70395,2,0,L|327:311,1,50.9999984436036,0|0,0:0|0:0,0:0:0:0:
147,363,70569,6,0,P|206:355|271:354,1,101.999996887207,2|0,3:2|0:0,0:0:0:0:
256,358,70831,1,2,0:0:0:0:
263,364,70918,1,8,0:0:0:0:
366,384,71092,1,2,0:0:0:0:
431,278,71267,1,2,3:2:0:0:
328,298,71441,1,0,0:0:0:0:
431,184,71616,2,0,P|404:125|347:90,1,101.999996887207,10|0,0:0|0:0,0:0:0:0:
512,6,71965,6,0,P|462:14|410:19,1,101.999996887207,2|0,3:2|0:0,0:0:0:0:
402,17,72226,1,2,0:0:0:0:
393,16,72313,1,8,0:0:0:0:
292,63,72488,1,2,0:0:0:0:
85,20,72662,5,2,3:2:0:0:
174,0,72837,1,0,0:0:0:0:
226,204,73011,5,10,0:0:0:0:
137,224,73186,1,0,0:0:0:0:
207,384,73360,5,2,3:2:0:0:
22,335,73534,1,2,0:0:0:0:
232,291,73708,1,8,0:0:0:0:
48,244,73883,1,2,0:0:0:0:
273,120,74058,5,0,3:2:0:0:
289,359,74232,1,10,0:0:0:0:
273,120,74406,5,10,0:0:0:0:
263,85,74494,1,8,0:0:0:0:
236,59,74581,1,8,0:0:0:0:
201,51,74668,1,8,0:0:0:0:
166,61,74755,6,0,P|116:61|67:45,1,101.999996887207,6|0,3:2|0:0,0:0:0:0:
57,168,75104,1,10,0:0:0:0:
160,176,75279,1,0,0:0:0:0:
0,316,75453,1,2,3:2:0:0:
99,306,75627,1,2,0:0:0:0:
120,316,75715,1,2,0:0:0:0:
141,326,75802,2,0,L|135:389,1,50.9999984436036,10|0,0:0|0:0,0:0:0:0:
57,168,75976,2,0,L|51:104,1,50.9999984436036
212,259,76151,6,0,P|272:248|327:230,1,101.999996887207,2|0,3:2|0:0,0:0:0:0:
319,228,76412,1,2,0:0:0:0:
324,218,76499,1,8,0:0:0:0:
331,122,76674,1,2,0:0:0:0:
411,240,76848,1,2,3:2:0:0:
507,233,77023,1,0,0:0:0:0:
331,122,77197,2,0,P|271:133|216:151,1,101.999996887207,10|0,0:0|0:0,0:0:0:0:
418,35,77546,6,0,P|420:92|426:145,1,101.999996887207,2|0,3:2|0:0,0:0:0:0:
430,146,77808,1,2,0:0:0:0:
436,155,77895,1,8,0:0:0:0:
507,222,78069,1,2,0:0:0:0:
363,269,78244,5,2,3:2:0:0:
468,312,78418,1,0,0:0:0:0:
304,170,78592,5,10,0:0:0:0:
199,213,78766,1,0,0:0:0:0:
233,28,78941,5,2,3:2:0:0:
116,136,79116,1,2,0:0:0:0:
304,170,79290,1,10,0:0:0:0:
106,4,79465,1,2,0:0:0:0:
358,50,79639,2,0,P|267:54|207:75,1,152.999995330811,2|0,3:2|0:0,0:0:0:0:
202,90,79988,2,0,P|200:140|193:191,1,101.999996887207,10|0,0:0|0:0,0:0:0:0:
1,322,80337,6,0,P|58:312|125:292,1,101.999996887207,6|0,3:2|0:0,0:0:0:0:
105,291,80598,1,2,0:0:0:0:
107,281,80685,1,8,0:0:0:0:
59,199,80860,1,2,0:0:0:0:
215,264,81034,1,2,3:2:0:0:
277,157,81209,1,0,0:0:0:0:
281,131,81296,1,2,0:0:0:0:
285,105,81383,1,10,0:0:0:0:
316,243,81558,1,2,0:0:0:0:
152,119,81732,6,0,P|209:128|277:132,1,101.999996887207,2|0,3:2|0:0,0:0:0:0:
161,17,82081,1,10,0:0:0:0:
52,152,82255,1,2,0:0:0:0:
0,3,82430,2,0,P|72:26|148:25,1,152.999995330811,2|0,3:2|0:0,0:0:0:0:
161,17,82779,2,0,P|157:66|148:142,1,101.999996887207,10|0,0:0|0:0,0:0:0:0:
358,64,83127,6,0,P|307:70|260:89,1,101.999996887207,2|0,3:2|0:0,0:0:0:0:
357,229,83476,1,10,0:0:0:0:
447,206,83651,1,0,0:0:0:0:
281,171,83825,1,2,3:2:0:0:
315,306,84000,1,0,0:0:0:0:
358,64,84174,1,10,0:0:0:0:
154,115,84349,1,2,0:0:0:0:
315,306,84523,5,0,3:2:0:0:
116,243,84697,1,2,0:0:0:0:
240,5,84872,5,8,0:0:0:0:
1,80,85046,1,2,3:2:0:0:
225,247,85220,5,10,0:0:0:0:
107,0,85395,1,2,0:0:0:0:
225,247,85569,5,10,0:0:0:0:
255,220,85656,1,8,0:0:0:0:
271,182,85744,1,8,0:0:0:0:
270,141,85831,1,8,0:0:0:0:
252,105,85918,1,6,3:2:0:0:
388,38,91499,6,0,P|426:55|467:68,2,85,6|2|8,3:2|0:0|0:0,0:0:0:0:
282,84,92023,2,0,L|290:-12,1,85,2|0,0:0|0:0,0:0:0:0:
184,107,92372,5,2,0:0:0:0:
187,120,92460,1,0,0:0:0:0:
190,133,92547,1,8,0:0:0:0:
84,232,92720,2,0,L|91:147,1,85,2|0,0:0|3:0,0:0:0:0:
23,46,93069,1,2,0:0:0:0:
78,136,93244,1,8,0:0:0:0:
0,247,93418,2,0,P|41:238|83:231,1,85,2|0,0:0|3:0,0:0:0:0:
234,263,93767,5,2,0:0:0:0:
80,331,93941,2,0,P|121:339|209:351,1,127.5,10|0,0:0|0:0,0:0:0:0:
213,360,94290,5,6,3:2:0:0:
324,298,94465,2,0,P|338:348|353:386,1,85,2|8,0:0|0:0,0:0:0:0:
510,304,94813,2,0,P|467:300|426:293,1,85,2|0,0:0|3:0,0:0:0:0:
303,201,95162,5,2,0:0:0:0:
290,204,95249,1,0,0:0:0:0:
277,207,95337,1,8,0:0:0:0:
171,100,95511,2,0,P|213:103|255:111,1,85,2|0,0:0|3:0,0:0:0:0:
358,67,95860,1,2,0:0:0:0:
266,108,96034,1,8,0:0:0:0:
113,11,96209,2,0,P|155:7|197:0,1,85,2|8,0:0|0:0,0:0:0:0:
230,206,96558,5,10,0:0:0:0:
0,135,96732,1,10,0:0:0:0:
25,108,96819,1,8,0:0:0:0:
61,97,96906,1,8,0:0:0:0:
97,105,96994,1,8,0:0:0:0:
124,130,97081,6,0,L|130:203,1,68,6|2,3:2|0:0,0:0:0:0:
183,257,97342,1,2,0:0:0:0:
188,264,97430,2,0,L|183:331,1,68,10|0,0:0|0:0,0:0:0:0:
100,296,97779,1,2,3:2:0:0:
263,384,97953,2,0,L|268:317,1,68,2|8,0:0|0:0,0:0:0:0:
341,179,98302,6,0,L|353:322,1,136,2|2,0:0|0:0,0:0:0:0:
434,324,98738,1,2,0:0:0:0:
444,330,98825,2,0,P|468:353|486:383,1,68,10|0,0:0|0:0,0:0:0:0:
438,234,99174,1,2,3:2:0:0:
492,162,99348,1,2,0:0:0:0:
459,45,99523,1,10,0:0:0:0:
459,45,99872,5,2,3:2:0:0:
465,34,99959,1,2,0:0:0:0:
320,75,100133,1,2,0:0:0:0:
326,86,100220,1,10,0:0:0:0:
411,122,100395,1,0,0:0:0:0:
283,194,100569,5,2,3:2:0:0:
277,183,100656,1,2,0:0:0:0:
271,172,100744,1,2,0:0:0:0:
265,161,100831,1,2,0:0:0:0:
259,150,100918,1,10,0:0:0:0:
178,114,101092,1,0,0:0:0:0:
86,257,101267,5,2,3:2:0:0:
180,296,101441,2,0,L|213:293,1,34
84,153,101616,1,10,0:0:0:0:
178,114,101790,1,0,0:0:0:0:
0,208,101965,5,2,3:2:0:0:
0,112,102139,1,10,0:0:0:0:
3,104,102226,1,8,0:0:0:0:
6,96,102313,2,0,P|58:61|109:59,1,102,6|0,0:0|0:0,0:0:0:0:
161,0,102662,6,0,P|183:25|204:52,1,68,2|0,3:2|0:0,0:0:0:0:
284,67,103011,2,0,P|304:93|327:119,1,68,10|0,0:0|0:0,0:0:0:0:
416,139,103360,1,2,3:2:0:0:
503,16,103534,2,0,P|465:33|448:82,1,68,2|8,0:0|0:0,0:0:0:0:
476,210,103883,6,0,P|404:232|341:193,1,136,2|0,0:0|0:0,0:0:0:0:
267,179,104319,1,2,0:0:0:0:
260,176,104406,2,0,L|266:255,1,68,10|0,0:0|0:0,0:0:0:0:
330,313,104755,1,2,3:2:0:0:
450,285,104930,1,2,0:0:0:0:
237,335,105104,2,0,P|185:344|132:358,1,102,10|0,0:0|0:0,0:0:0:0:
155,270,105453,5,2,3:2:0:0:
158,248,105540,1,10,0:0:0:0:
162,226,105627,1,10,0:0:0:0:
166,204,105715,1,10,0:0:0:0:
170,182,105802,1,10,0:0:0:0:
66,234,105976,1,10,0:0:0:0:
89,125,106151,5,10,0:0:0:0:
86,103,106238,1,10,0:0:0:0:
82,81,106325,1,10,0:0:0:0:
78,59,106412,1,10,0:0:0:0:
74,37,106499,1,10,0:0:0:0:
178,89,106674,1,8,0:0:0:0:
403,12,106848,5,14,0:0:0:0:
325,38,107023,1,0,0:0:0:0:
468,135,107197,5,2,0:0:0:0:
354,172,107372,1,0,0:0:0:0:
158,45,107546,5,2,0:0:0:0:
186,59,107633,1,2,0:0:0:0:
214,73,107720,2,0,L|260:60,1,34,2|0,0:0|0:0,0:0:0:0:
72,160,107895,2,0,P|114:168|203:171,1,102,2|0,0:0|0:0,0:0:0:0:
59,249,108244,5,6,3:2:0:0:
153,301,108418,1,2,0:0:0:0:
140,315,108505,1,2,0:0:0:0:
127,329,108592,2,0,P|136:296|144:257,1,68,10|0,0:0|3:2,0:0:0:0:
40,334,108941,1,2,0:0:0:0:
237,257,109116,2,0,P|244:290|252:323,1,68,2|8,3:2|0:0,0:0:0:0:
458,369,109465,6,0,L|322:380,1,136,2|2,3:2|3:2,0:0:0:0:
362,300,109901,1,2,0:0:0:0:
341,285,109988,2,0,L|347:205,1,68,10|0,0:0|3:2,0:0:0:0:
411,157,110337,1,2,0:0:0:0:
369,50,110511,1,10,0:0:0:0:
448,246,110685,2,0,P|481:252|509:271,1,68,14|0,0:0|0:0,0:0:0:0:
503,138,111034,5,2,3:2:0:0:
500,124,111121,1,2,0:0:0:0:
498,111,111208,1,2,0:0:0:0:
495,97,111296,1,2,0:0:0:0:
502,68,111383,1,10,0:0:0:0:
322,103,111558,2,0,P|362:107|417:118,1,68,2|0,3:2|0:0,0:0:0:0:
400,74,111819,5,2,0:0:0:0:
402,61,111906,1,2,3:2:0:0:
405,47,111994,1,2,0:0:0:0:
398,18,112081,1,10,0:0:0:0:
502,68,112255,1,2,3:2:0:0:
470,248,112430,5,2,0:0:0:0:
409,163,112604,2,0,L|472:157,1,34,0|0,3:2|0:0,0:0:0:0:
240,248,112779,1,10,0:0:0:0:
301,163,112953,1,0,3:2:0:0:
409,335,113127,5,2,0:0:0:0:
301,335,113302,1,10,0:0:0:0:
292,340,113389,1,8,0:0:0:0:
283,345,113476,2,0,P|233:334|182:327,1,102,14|0,0:0|0:0,0:0:0:0:
47,377,113825,6,0,P|73:342|98:295,1,68,2|0,3:2|0:0,0:0:0:0:
40,238,114174,2,0,P|66:203|91:156,1,68,10|0,0:0|3:2,0:0:0:0:
33,99,114523,1,2,0:0:0:0:
130,0,114697,2,0,P|119:32|124:75,1,68,2|8,3:2|0:0,0:0:0:0:
265,129,115046,6,0,P|272:195|236:258,1,136,2|2,3:2|3:2,0:0:0:0:
202,323,115482,1,2,0:0:0:0:
194,336,115569,2,0,L|273:329,1,68,10|0,0:0|3:2,0:0:0:0:
143,252,115918,1,2,0:0:0:0:
136,141,116092,1,10,0:0:0:0:
14,58,116267,2,0,P|52:65|87:65,1,68,14|0,0:0|0:0,0:0:0:0:
207,17,116616,5,2,3:2:0:0:
204,31,116703,1,2,0:0:0:0:
202,44,116790,1,2,0:0:0:0:
199,58,116878,1,2,0:0:0:0:
206,87,116965,1,10,0:0:0:0:
159,168,117139,1,0,3:2:0:0:
289,136,117313,5,2,0:0:0:0:
292,150,117400,1,2,0:0:0:0:
294,163,117487,1,2,3:2:0:0:
297,177,117575,1,2,0:0:0:0:
290,206,117662,1,10,0:0:0:0:
337,287,117836,1,0,3:2:0:0:
493,222,118011,5,2,0:0:0:0:
391,199,118185,1,0,3:2:0:0:
391,360,118360,5,10,0:0:0:0:
493,383,118534,1,0,3:2:0:0:
252,280,118709,5,10,0:0:0:0:
386,237,118883,1,10,0:0:0:0:
391,199,118970,1,8,0:0:0:0:
384,163,119058,1,2,3:2:0:0:
381,135,119145,1,0,3:0:0:0:
383,107,119232,1,2,3:2:0:0:
393,82,119319,1,0,3:0:0:0:
408,59,119406,6,0,L|419:-5,2,50.9999984436036,6|0|10,3:2|0:0|0:0,0:0:0:0:
303,86,119930,1,2,0:0:0:0:
288,80,120017,1,2,0:0:0:0:
283,171,120191,1,2,0:0:0:0:
268,177,120278,1,2,0:0:0:0:
158,117,120453,6,0,L|222:117,1,50.9999984436036,10|0,0:0|0:0,0:0:0:0:
85,64,120802,2,0,L|67:164,1,101.999996887207,10|10,0:0|0:0,0:0:0:0:
133,219,121325,1,0,0:0:0:0:
17,270,121499,2,0,L|81:270,1,50.9999984436036,10|0,0:0|0:0,0:0:0:0:
122,317,121761,1,10,0:0:0:0:
131,326,121848,1,10,0:0:0:0:
49,349,122023,1,10,0:0:0:0:
212,349,122197,6,0,L|276:349,2,50.9999984436036,10|0|10,0:0|0:0|0:0,0:0:0:0:
250,266,122721,1,2,0:0:0:0:
247,249,122808,1,2,0:0:0:0:
331,293,122982,1,2,0:0:0:0:
334,276,123069,1,2,0:0:0:0:
419,205,123244,6,0,L|419:256,1,50.9999984436036,10|0,0:0|0:0,0:0:0:0:
500,351,123593,2,0,L|400:334,1,101.999996887207,10|10,0:0|0:0,0:0:0:0:
503,268,124116,1,0,0:0:0:0:
468,141,124290,1,10,0:0:0:0:
512,67,124465,1,8,0:0:0:0:
512,67,124552,1,8,0:0:0:0:
512,67,124639,2,0,L|512:19,2,25.4999992218018,2|0|0,3:2|3:0|3:0,0:0:0:0:
424,217,124988,6,0,L|373:225,2,50.9999984436036,14|0|10,3:2|0:0|0:0,0:0:0:0:
382,306,125512,1,2,0:0:0:0:
385,319,125599,1,2,0:0:0:0:
302,274,125773,1,2,0:0:0:0:
299,287,125860,1,2,0:0:0:0:
247,196,126035,6,0,L|311:196,1,50.9999984436036,10|0,0:0|0:0,0:0:0:0:
179,280,126384,2,0,L|161:179,1,101.999996887207,10|10,0:0|0:0,0:0:0:0:
93,127,126907,1,0,0:0:0:0:
184,27,127081,2,0,L|184:90,1,50.9999984436036,10|0,0:0|0:0,0:0:0:0:
240,134,127343,1,10,0:0:0:0:
235,146,127430,1,10,0:0:0:0:
277,56,127605,1,10,0:0:0:0:
305,206,127779,6,0,P|333:195|366:186,1,50.9999984436036,10|0,0:0|0:0,0:0:0:0:
481,234,128127,1,10,0:0:0:0:
439,144,128302,1,0,0:0:0:0:
411,294,128476,6,0,P|383:283|350:274,1,50.9999984436036,10|0,0:0|0:0,0:0:0:0:
206,358,128825,1,10,0:0:0:0:
254,257,128999,1,0,3:2:0:0:
167,118,129174,6,0,L|137:163,1,51,6|0,3:2|0:0,0:0:0:0:
48,162,129872,6,0,B|45:137|45:137|30:116,1,50.9999984436036,2|0,0:0|0:0,0:0:0:0:
187,64,130046,2,0,B|184:93|184:93|168:117,1,59.4999981842042,2|0,3:2|3:2,0:0:0:0:
312,177,130220,2,0,B|309:141|309:141|290:113,1,68,10|10,0:0|0:0,0:0:0:0:
439,50,130395,2,0,B|435:89|435:89|414:121,1,76.4999976654053,10|10,0:0|0:0,0:0:0:0:
442,334,130569,5,6,3:2:0:0:
327,288,130744,1,0,0:0:0:0:
331,305,130831,1,2,0:0:0:0:
335,322,130918,2,0,P|284:334|233:353,1,101.999996887207,8|2,0:0|3:2,0:0:0:0:
274,185,131267,1,2,0:0:0:0:
169,142,131441,1,0,3:2:0:0:
368,122,131616,2,0,P|418:134|469:153,1,101.999996887207,10|0,0:0|0:0,0:0:0:0:
253,86,131965,6,0,P|272:142|272:198,1,101.999996887207,2|0,3:2|0:0,0:0:0:0:
192,198,132226,1,2,0:0:0:0:
193,209,132313,1,8,0:0:0:0:
230,293,132488,1,2,0:0:0:0:
100,384,132662,1,2,0:0:0:0:
137,300,132837,1,0,3:2:0:0:
352,351,133011,2,0,P|305:371|255:383,1,101.999996887207,10|0,0:0|0:0,0:0:0:0:
447,344,133360,6,0,L|501:358,1,50.9999984436036,2|0,3:2|0:0,0:0:0:0:
390,222,133534,1,0,0:0:0:0:
394,242,133622,1,2,0:0:0:0:
398,262,133709,1,8,0:0:0:0:
511,228,133883,1,2,0:0:0:0:
467,35,134058,5,2,3:2:0:0:
453,153,134232,1,0,0:0:0:0:
332,140,134407,1,10,0:0:0:0:
347,20,134581,1,0,0:0:0:0:
112,75,134755,5,2,3:2:0:0:
243,139,134930,1,2,0:0:0:0:
49,314,135104,1,10,0:0:0:0:
206,237,135279,1,2,0:0:0:0:
23,102,135453,2,0,P|72:158|147:162,1,152.999995330811,2|0,3:2|0:0,0:0:0:0:
206,237,135802,2,0,P|202:293|192:367,1,101.999996887207,10|0,0:0|0:0,0:0:0:0:
405,209,136151,6,0,P|349:213|275:223,1,101.999996887207,2|0,3:2|0:0,0:0:0:0:
196,338,136499,1,10,0:0:0:0:
88,360,136674,1,0,0:0:0:0:
14,233,136848,1,2,3:2:0:0:
122,255,137023,1,2,0:0:0:0:
121,242,137110,1,0,0:0:0:0:
120,229,137197,2,0,P|113:174|98:115,1,101.999996887207,10|0,0:0|0:0,0:0:0:0:
204,287,137546,6,0,L|194:342,1,50.9999984436036,2|0,3:2|0:0,0:0:0:0:
229,174,137720,1,0,0:0:0:0:
225,154,137808,1,2,0:0:0:0:
221,134,137895,1,8,0:0:0:0:
263,36,138069,1,2,0:0:0:0:
112,134,138244,1,2,3:2:0:0:
70,36,138418,1,0,0:0:0:0:
2,229,138592,2,0,P|56:234|114:243,1,101.999996887207,10|0,0:0|0:0,0:0:0:0:
331,181,138941,5,2,3:2:0:0:
226,170,139116,1,0,0:0:0:0:
224,183,139203,1,2,0:0:0:0:
222,196,139290,2,0,P|209:256|194:303,1,101.999996887207,8|2,0:0|0:0,0:0:0:0:
461,365,139639,5,2,3:2:0:0:
366,381,139813,1,0,0:0:0:0:
331,181,139988,5,10,0:0:0:0:
425,165,140162,1,0,0:0:0:0:
332,26,140337,5,2,3:2:0:0:
504,122,140511,1,2,0:0:0:0:
296,322,140685,1,8,0:0:0:0:
502,206,140859,1,2,0:0:0:0:
234,39,141034,5,0,3:2:0:0:
205,275,141209,1,10,0:0:0:0:
234,39,141383,5,10,0:0:0:0:
208,68,141470,1,8,0:0:0:0:
170,80,141558,1,8,0:0:0:0:
132,72,141645,1,8,0:0:0:0:
103,46,141732,6,0,P|121:101|120:161,1,101.999996887207,6|0,3:2|0:0,0:0:0:0:
50,198,141994,1,0,0:0:0:0:
55,210,142081,1,10,0:0:0:0:
138,271,142255,1,0,0:0:0:0:
11,384,142430,1,2,3:2:0:0:
133,374,142604,1,2,0:0:0:0:
151,377,142691,1,0,0:0:0:0:
169,381,142779,2,0,L|234:369,1,50.9999984436036,10|0,0:0|0:0,0:0:0:0:
193,185,142953,2,0,L|127:173,1,50.9999984436036
308,262,143127,5,2,3:2:0:0:
289,150,143302,1,0,0:0:0:0:
498,206,143476,2,0,L|396:197,1,101.999996887207,10|0,0:0|0:0,0:0:0:0:
489,384,143825,1,2,3:2:0:0:
377,365,144000,1,0,0:0:0:0:
498,206,144174,2,0,P|488:120|472:36,1,152.999995330811,10|0,0:0|0:0,0:0:0:0:
391,49,144523,5,2,3:2:0:0:
232,113,144697,1,2,0:0:0:0:
252,88,144784,1,2,0:0:0:0:
273,64,144872,1,10,0:0:0:0:
164,193,145046,1,2,0:0:0:0:
137,226,145133,1,2,0:0:0:0:
108,258,145221,5,2,3:2:0:0:
148,357,145395,1,0,0:0:0:0:
5,223,145569,5,10,0:0:0:0:
45,124,145744,1,0,0:0:0:0:
49,376,145918,6,0,P|96:358|147:356,1,101.999996887207,2|0,3:2|0:0,0:0:0:0:
397,319,146267,2,0,P|346:316|298:299,1,101.999996887207,10|0,0:0|0:0,0:0:0:0:
243,122,146616,1,2,3:2:0:0:
356,174,146790,1,2,0:0:0:0:
481,101,146965,2,0,P|476:183|474:281,1,152.999995330811,10|0,0:0|0:0,0:0:0:0:
484,365,147313,6,0,P|444:332|396:318,1,101.999996887207,2|0,3:2|0:0,0:0:0:0:
327,375,147575,1,2,0:0:0:0:
313,371,147662,1,8,0:0:0:0:
257,272,147837,1,2,0:0:0:0:
102,376,148011,1,2,3:2:0:0:
158,277,148186,1,0,0:0:0:0:
171,309,148273,1,2,0:0:0:0:
184,341,148360,1,10,0:0:0:0:
119,188,148534,1,2,0:0:0:0:
15,359,148709,6,0,P|38:306|56:255,1,101.999996887207,2|0,3:2|0:0,0:0:0:0:
139,85,149058,1,10,0:0:0:0:
40,120,149232,1,0,0:0:0:0:
262,228,149406,2,0,P|194:193|118:187,1,152.999995330811,2|0,3:2|0:0,0:0:0:0:
219,119,149755,2,0,P|222:70|222:6,1,101.999996887207,10|0,0:0|0:0,0:0:0:0:
339,132,150104,5,2,3:2:0:0:
436,150,150279,1,0,0:0:0:0:
449,1,150453,1,10,0:0:0:0:
333,22,150628,1,0,0:0:0:0:
486,233,150802,5,2,3:2:0:0:
512,94,150977,1,0,0:0:0:0:
264,81,151151,1,10,0:0:0:0:
295,247,151326,1,2,0:0:0:0:
48,40,151499,5,0,3:2:0:0:
264,81,151673,1,2,0:0:0:0:
15,301,151848,5,8,0:0:0:0:
295,247,152022,1,2,3:2:0:0:
112,39,152197,5,10,0:0:0:0:
166,319,152371,1,2,0:0:0:0:
112,39,152546,5,10,0:0:0:0:
142,63,152633,1,8,0:0:0:0:
182,68,152721,1,8,0:0:0:0:
218,53,152808,1,8,0:0:0:0:
242,23,152895,5,6,3:2:0:0:
257,42,152982,1,0,0:0:0:0:
267,63,153069,1,2,0:0:0:0:
272,84,153156,1,0,0:0:0:0:
274,104,153244,1,8,0:0:0:0:
272,124,153331,1,0,0:0:0:0:
268,142,153418,1,2,0:0:0:0:
261,159,153505,1,0,0:0:0:0:
251,173,153592,6,0,L|260:221,3,42.5,0|0|2|0,3:0|0:0|0:0|0:0,0:0:0:0:
180,307,153941,2,0,L|191:370,3,42.5,8|0|2|0,0:0|0:0|0:0|0:0,0:0:0:0:
326,384,154290,5,0,3:0:0:0:
336,370,154377,1,0,0:0:0:0:
343,356,154465,1,2,0:0:0:0:
347,343,154552,1,0,0:0:0:0:
349,331,154639,1,8,0:0:0:0:
349,320,154726,1,0,0:0:0:0:
348,311,154813,1,2,0:0:0:0:
347,304,154901,1,0,0:0:0:0:
345,299,154988,6,0,L|349:274,3,21.25,0|0|2|0,3:0|0:0|0:0|0:0,0:0:0:0:
419,198,155337,2,0,L|423:173,3,21.25,10|0|2|0,0:0|0:0|0:0|0:0,0:0:0:0:
323,87,155685,1,0,3:0:0:0:
332,91,155773,1,0,0:0:0:0:
344,92,155860,1,2,0:0:0:0:
358,91,155947,1,0,0:0:0:0:
374,86,156034,1,8,0:0:0:0:
391,78,156122,1,0,0:0:0:0:
405,63,156209,1,2,0:0:0:0:
416,43,156296,1,0,0:0:0:0:
420,19,156383,5,0,3:0:0:0:
438,38,156470,1,0,0:0:0:0:
451,61,156558,1,2,0:0:0:0:
458,86,156645,1,0,0:0:0:0:
458,112,156732,1,10,0:0:0:0:
458,147,156819,1,0,0:0:0:0:
468,181,156906,1,2,0:0:0:0:
486,211,156994,1,0,0:0:0:0:
512,236,157081,1,4,3:2:0:0:
389,317,157255,5,10,0:0:0:0:
430,319,157343,1,8,0:0:0:0:
470,322,157430,1,4,3:2:0:0:
266,309,157604,5,10,0:0:0:0:
307,311,157692,1,8,0:0:0:0:
347,314,157779,1,4,3:2:0:0:
389,317,157866,1,8,0:0:0:0:
430,319,157953,1,10,0:0:0:0:
470,322,158040,1,8,0:0:0:0:
511,325,158127,1,10,0:0:0:0:
247,0,158476,5,6,3:2:0:0:
232,19,158563,1,0,0:0:0:0:
222,40,158650,1,2,0:0:0:0:
217,61,158737,1,0,0:0:0:0:
215,81,158825,1,8,0:0:0:0:
217,101,158912,1,0,0:0:0:0:
221,119,158999,1,2,0:0:0:0:
228,136,159086,1,0,0:0:0:0:
238,150,159174,6,0,L|286:159,3,42.5,0|0|2|0,3:2|0:0|0:0|0:0,0:0:0:0:
124,216,159523,2,0,L|60:228,3,42.5,8|0|2|0,0:0|0:0|0:0|0:0,0:0:0:0:
238,287,159872,5,0,3:2:0:0:
248,301,159959,1,0,0:0:0:0:
255,315,160047,1,2,0:0:0:0:
259,328,160134,1,0,0:0:0:0:
261,340,160221,1,8,0:0:0:0:
261,351,160308,1,0,0:0:0:0:
260,360,160395,1,2,0:0:0:0:
259,367,160483,1,0,0:0:0:0:
256,371,160570,6,0,L|231:375,3,21.25,0|0|2|0,3:2|0:0|0:0|0:0,0:0:0:0:
148,300,160918,2,0,L|127:296,3,21.25,10|0|2|0,0:0|0:0|0:0|0:0,0:0:0:0:
11,308,161267,1,0,3:2:0:0:
15,298,161354,1,0,0:0:0:0:
19,286,161441,1,2,0:0:0:0:
21,272,161529,1,0,0:0:0:0:
22,256,161616,1,8,0:0:0:0:
22,239,161703,1,0,0:0:0:0:
19,220,161790,1,2,0:0:0:0:
13,200,161877,1,0,0:0:0:0:
1,181,161965,5,0,3:2:0:0:
37,186,162052,1,0,0:0:0:0:
71,175,162139,1,2,0:0:0:0:
97,150,162226,1,0,0:0:0:0:
109,116,162313,1,10,0:0:0:0:
140,82,162401,1,0,0:0:0:0:
183,66,162488,1,2,0:0:0:0:
227,68,162575,1,0,0:0:0:0:
267,90,162662,6,0,L|277:150,3,50.9999984436036,2|0|0|0,3:2|0:0|0:0|0:0,0:0:0:0:
409,55,163011,2,0,L|397:118,3,59.4999981842042,10|0|0|0,0:0|0:0|0:0|0:0,0:0:0:0:
256,258,163360,6,0,L|314:247,1,59.4999981842042,10|0,0:0|0:0,0:0:0:0:
451,372,163534,2,0,L|393:383,1,59.4999981842042,10|0,0:0|0:0,0:0:0:0:
138,278,163709,5,10,0:0:0:0:
197,268,163796,1,10,0:0:0:0:
256,258,163883,1,10,0:0:0:0:
315,248,163970,1,10,0:0:0:0:
374,238,164058,1,6,3:2:0:0:
374,238,164406,5,8,0:0:0:0:
448,302,164581,1,10,0:0:0:0:
448,302,164930,5,0,3:2:0:0:
374,366,165104,1,10,0:0:0:0:
374,366,165453,6,0,P|348:368|323:371,1,50.9999984436036,2|2,3:2|3:2,0:0:0:0:
502,378,165802,1,8,0:0:0:0:
448,302,165976,1,10,0:0:0:0:
448,150,166325,5,2,3:2:0:0:
394,226,166499,1,10,0:0:0:0:
318,58,166848,5,2,3:2:0:0:
318,58,167197,5,8,0:0:0:0:
356,142,167372,1,10,0:0:0:0:
356,142,167720,5,0,3:2:0:0:
318,226,167895,1,10,0:0:0:0:
318,226,168244,6,0,P|320:258|325:292,1,50.9999984436036,2|2,3:2|3:2,0:0:0:0:
239,171,168592,1,8,0:0:0:0:
155,210,168767,1,10,0:0:0:0:
79,78,169116,5,2,3:2:0:0:
163,117,169291,1,10,0:0:0:0:
254,328,169639,5,6,3:2:0:0:
254,328,169988,5,8,0:0:0:0:
342,293,170162,1,10,0:0:0:0:
342,293,170511,5,0,3:2:0:0:
430,328,170685,1,10,0:0:0:0:
430,328,171034,6,0,P|435:356|446:390,1,50.9999984436036,2|2,3:2|3:2,0:0:0:0:
460,239,171383,1,8,0:0:0:0:
432,147,171558,1,10,0:0:0:0:
316,187,171906,5,2,3:2:0:0:
344,95,172081,1,10,0:0:0:0:
425,46,172430,5,6,3:2:0:0:
251,117,172779,5,10,0:0:0:0:
77,46,173127,5,10,0:0:0:0:
141,136,173302,1,10,0:0:0:0:
251,117,173476,1,10,0:0:0:0:
77,320,173825,5,10,0:0:0:0:
141,230,174000,1,10,0:0:0:0:
251,249,174174,1,10,0:0:0:0:
281,254,174261,1,8,0:0:0:0:
311,259,174348,1,8,0:0:0:0:
341,264,174435,1,8,0:0:0:0:
371,269,174523,1,10,0:0:0:0:
198,334,174697,5,2,0:0:0:0:
407,364,174872,2,0,L|415:394,6,21.25,6|2|2|2|0|2|2,3:0|3:3|3:3|3:3|3:3|3:3|3:3,3:0:0:0:
375,273,175220,5,2,3:2:0:0:
375,273,175395,1,2,0:0:0:0:
200,65,175569,1,14,0:0:0:0:
315,130,175744,1,2,0:0:0:0:
481,52,175918,6,0,P|498:76|512:102,1,59.4999981842042,2|0,3:2|0:0,0:0:0:0:
375,273,176092,2,0,P|390:245|408:220,1,59.4999981842042,2|0,0:0|0:0,0:0:0:0:
200,65,176267,1,10,0:0:0:0:
204,114,176354,1,0,0:0:0:0:
208,163,176441,1,2,0:0:0:0:
212,212,176529,1,0,0:0:0:0:
216,261,176616,6,0,P|188:323|146:368,1,118.999996368408,2|0,3:2|0:0,0:0:0:0:
69,375,176877,1,2,0:0:0:0:
57,382,176965,1,8,0:0:0:0:
0,269,177139,1,2,0:0:0:0:
182,142,177313,1,2,3:2:0:0:
125,255,177487,1,0,0:0:0:0:
51,83,177662,2,0,P|135:108|255:107,1,178.499994552612,10|0,0:0|0:0,0:0:0:0:
269,46,178011,5,2,3:2:0:0:
404,79,178185,1,0,0:0:0:0:
234,206,178360,1,10,0:0:0:0:
370,173,178534,1,0,0:0:0:0:
125,232,178709,5,2,3:2:0:0:
151,341,178883,1,0,0:0:0:0:
260,315,179058,1,10,0:0:0:0:
234,206,179232,1,0,0:0:0:0:
376,338,179407,5,2,3:2:0:0:
454,165,179581,1,2,0:0:0:0:
485,369,179755,1,10,0:0:0:0:
345,134,179929,1,2,0:0:0:0:
156,329,180104,2,0,P|206:257|290:230,1,178.499994552612,2|0,3:2|0:0,0:0:0:0:
214,155,180453,2,0,P|200:97|193:37,1,118.999996368408,10|0,0:0|0:0,0:0:0:0:
20,299,180802,5,6,3:2:0:0:
156,329,180976,1,0,0:0:0:0:
214,155,181151,1,10,0:0:0:0:
78,185,181325,1,0,0:0:0:0:
335,292,181499,5,2,3:2:0:0:
325,118,181674,1,2,0:0:0:0:
338,148,181761,1,0,0:0:0:0:
351,178,181848,2,0,L|420:190,1,59.4999981842042,10|0,0:0|0:0,0:0:0:0:
248,374,182023,2,0,L|178:386,1,59.4999981842042
510,322,182197,6,0,L|335:292,1,178.499994552612,2|2,3:2|0:0,0:0:0:0:
249,291,182546,1,8,0:0:0:0:
153,222,182720,1,2,0:0:0:0:
0,315,182895,2,0,P|31:245|16:146,1,178.499994552612,2|0,3:2|0:0,0:0:0:0:
109,141,183244,2,0,P|168:133|226:120,1,118.999996368408,10|0,0:0|0:0,0:0:0:0:
420,14,183592,5,2,3:2:0:0:
359,134,183767,1,0,0:0:0:0:
420,254,183941,1,10,0:0:0:0:
481,134,184116,1,2,0:0:0:0:
263,313,184290,5,0,3:2:0:0:
419,374,184465,1,2,0:0:0:0:
255,196,184639,5,8,0:0:0:0:
68,268,184814,1,2,0:0:0:0:
201,80,184988,5,8,0:0:0:0:
122,384,185162,1,10,0:0:0:0:
235,251,185860,5,8,0:0:0:0:
83,211,186034,1,8,0:0:0:0:
83,211,186383,6,0,P|47:125|62:43,1,170,6|8,3:2|0:0,0:0:0:0:
191,9,186906,2,0,P|167:46|151:94,1,85,2|0,0:0|3:0,0:0:0:0:
307,15,187255,5,2,0:0:0:0:
304,28,187343,1,0,0:0:0:0:
301,41,187430,1,8,0:0:0:0:
248,133,187604,2,0,P|271:170|287:218,1,85,2|0,0:0|3:0,0:0:0:0:
199,289,187953,1,2,0:0:0:0:
288,239,188127,1,8,0:0:0:0:
377,289,188302,2,0,P|391:249|413:213,1,85,2|0,0:0|3:0,0:0:0:0:
288,339,188651,5,2,0:0:0:0:
336,151,188825,2,0,L|176:137,1,127.5,10|0,0:0|0:0,0:0:0:0:
201,144,189174,5,2,3:2:0:0:
259,47,189348,2,0,L|174:39,1,85,2|8,0:0|0:0,0:0:0:0:
43,77,189697,2,0,P|64:40|77:0,1,85,2|0,0:0|0:0,0:0:0:0:
16,185,190046,5,2,0:0:0:0:
28,182,190134,1,0,0:0:0:0:
41,179,190221,1,8,0:0:0:0:
174,253,190395,2,0,P|152:216|139:175,1,85,2|0,0:0|0:0,0:0:0:0:
43,77,190744,1,2,0:0:0:0:
132,145,190918,1,8,0:0:0:0:
220,76,191092,2,0,P|242:113|255:154,1,85,2|0,0:0|3:0,0:0:0:0:
131,8,191441,5,2,0:0:0:0:
331,41,191616,1,10,0:0:0:0:
362,60,191703,1,8,0:0:0:0:
379,91,191790,1,8,0:0:0:0:
378,127,191877,1,8,0:0:0:0:
359,158,191965,6,0,L|351:244,2,85,6|2|8,3:2|0:0|0:0,0:0:0:0:
474,109,192488,2,0,P|491:70|506:30,1,85,2|0,0:0|0:0,0:0:0:0:
506,209,192837,5,2,0:0:0:0:
509,221,192925,1,0,0:0:0:0:
512,234,193012,1,8,0:0:0:0:
458,364,193185,2,0,P|440:325|425:285,1,85,2|0,0:0|3:0,0:0:0:0:
412,173,193534,1,2,0:0:0:0:
411,274,193709,1,8,0:0:0:0:
301,365,193883,2,0,L|308:280,1,85,2|0,0:0|3:0,0:0:0:0:
155,384,194232,5,2,0:0:0:0:
218,193,194406,1,10,0:0:0:0:
220,221,194494,1,8,0:0:0:0:
212,248,194581,1,8,0:0:0:0:
195,271,194668,1,8,0:0:0:0:
171,287,194755,1,6,3:2:0:0:
171,287,195279,5,2,0:0:0:0:
171,287,195627,6,0,L|139:289,2,25.4999992218018,2|0|2,0:0|0:0|0:0,0:0:0:0:
91,226,195976,1,2,0:0:0:0:
16,307,196325,5,2,0:0:0:0:
60,227,196499,1,2,0:0:0:0:
16,147,196674,1,2,0:0:0:0:
104,307,197023,5,2,0:0:0:0:
16,147,197198,1,2,0:0:0:0:
