osu file format v14

[General]
AudioFilename: audio.mp3
AudioLeadIn: 0
PreviewTime: 46494
Countdown: 0
SampleSet: Soft
StackLeniency: 0.7
Mode: 0
LetterboxInBreaks: 0
WidescreenStoryboard: 1

[Editor]
DistanceSpacing: 0.9
BeatDivisor: 4
GridSize: 8
TimelineZoom: 1.8

[Metadata]
Title:Aimai Elegy
TitleUnicode:愛迷エレジー
Artist:96neko
ArtistUnicode:96猫
Creator:Lasse
Version:Normal
Source:
Tags:DECO*27 deco27 love-lost utaite cover memoReal
BeatmapID:1267738
BeatmapSetID:596833

[Difficulty]
HPDrainRate:3
CircleSize:3
OverallDifficulty:4
ApproachRate:5
SliderMultiplier:1
SliderTickRate:1

[Events]
//Background and Video events
0,0,"bg.jpg",0,0
//Break Periods
2,39837,40722
2,75700,79037
2,99159,100165
//Storyboard Layer 0 (Background)
//Storyboard Layer 1 (Fail)
//Storyboard Layer 2 (Pass)
//Storyboard Layer 3 (Foreground)
//Storyboard Sound Samples

[TimingPoints]
780,285.714285714286,4,2,1,70,1,0
18494,-100,4,2,1,65,0,0
18637,-100,4,2,1,45,0,0
18780,-100,4,2,1,60,0,0
18922,-100,4,2,1,55,0,0
19065,-111.111111111111,4,2,1,50,0,0
28208,-111.111111111111,4,2,1,60,0,0
37351,-111.111111111111,4,2,1,70,0,0
37422,-100,4,2,1,50,0,0
39637,-100,4,2,1,60,0,0
46494,-111.111111111111,4,2,1,60,0,0
55637,-111.111111111111,4,2,1,70,0,0
62494,-111.111111111111,4,2,1,72,0,0
63065,-111.111111111111,4,2,1,74,0,0
63637,-111.111111111111,4,2,1,76,0,0
64208,-111.111111111111,4,2,1,76,0,0
64351,-111.111111111111,4,2,1,70,0,0
64494,-111.111111111111,4,2,1,50,0,0
64637,-111.111111111111,4,2,1,30,0,0
64780,-100,4,2,1,75,0,1
67280,-100,4,2,99,5,0,1
67351,-100,4,2,1,75,0,1
69565,-100,4,2,99,5,0,1
69637,-100,4,2,1,75,0,1
71851,-100,4,2,99,5,0,1
71922,-100,4,2,1,75,0,1
73922,451.127819548872,7,2,1,50,1,0
73922,-111.111111111111,7,2,1,50,0,0
74034,-111.111111111111,7,2,1,25,0,0
75049,-111.111111111111,7,2,1,40,0,0
75162,-111.111111111111,7,2,1,25,0,0
75500,-111.111111111111,7,2,1,25,0,0
76177,-111.111111111111,7,2,1,40,0,0
76628,-111.111111111111,7,2,1,50,0,0
80237,-111.111111111111,7,2,1,60,0,0
80576,-111.111111111111,7,2,3,60,0,0
80914,-111.111111111111,7,2,1,60,0,0
82155,-111.111111111111,7,2,3,60,0,0
82493,-111.111111111111,7,2,1,60,0,0
83734,-111.111111111111,7,2,3,60,0,0
84072,-111.111111111111,7,2,1,60,0,0
86553,-100,7,2,1,70,0,0
86891,-100,7,2,3,70,0,0
87230,-100,7,2,1,70,0,0
88470,-100,7,2,3,70,0,0
88809,-100,7,2,1,70,0,0
89711,-100,7,2,3,70,0,0
89824,-100,7,2,1,70,0,0
90049,-100,7,2,3,70,0,0
90162,-100,7,2,1,70,0,0
91628,-100,7,2,3,70,0,0
91967,-100,7,2,1,70,0,0
92869,-100,7,2,1,65,0,0
94448,-100,7,2,3,65,0,0
94786,-100,7,2,1,65,0,0
98621,-100,7,2,1,70,0,0
101365,285.714285714286,4,2,2,50,1,0
101365,-125,4,2,2,50,0,0
109793,-125,4,2,1,35,0,0
109936,-125,4,2,1,50,0,0
110007,-125,4,2,99,5,0,0
110079,-125,4,2,1,52,0,0
110150,-125,4,2,99,5,0,0
110222,-125,4,2,1,54,0,0
110293,-125,4,2,99,5,0,0
110365,-125,4,2,1,56,0,0
110436,-125,4,2,99,5,0,0
110507,-111.111111111111,4,2,1,60,0,0
110722,-111.111111111111,4,2,99,5,0,0
110793,-111.111111111111,4,2,1,60,0,0
118507,-111.111111111111,4,2,1,70,0,0
119079,-111.111111111111,4,2,1,60,0,0
119365,-111.111111111111,4,2,1,30,0,0
119650,-111.111111111111,4,2,1,65,0,0
124222,-111.111111111111,4,2,3,65,0,0
124436,-111.111111111111,4,2,99,5,0,0
124507,-111.111111111111,4,2,1,70,0,0
124650,-111.111111111111,4,2,1,65,0,0
125365,-111.111111111111,4,2,1,65,0,0
125579,-111.111111111111,4,2,99,5,0,0
125650,-111.111111111111,4,2,1,70,0,0
125793,-111.111111111111,4,2,1,65,0,0
128079,-111.111111111111,4,2,1,50,0,0
128650,-111.111111111111,4,2,99,20,0,0
128793,-111.111111111111,4,2,1,70,0,0
135865,-111.111111111111,4,2,99,5,0,0
135936,-111.111111111111,4,2,1,70,0,0
136793,-111.111111111111,4,2,1,73,0,0
136936,-111.111111111111,4,2,1,50,0,0
137079,-111.111111111111,4,2,1,76,0,0
137222,-111.111111111111,4,2,1,50,0,0
137365,-111.111111111111,4,2,1,79,0,0
137507,-111.111111111111,4,2,1,50,0,0
137650,-111.111111111111,4,2,1,82,0,0
137793,-111.111111111111,4,2,1,70,0,0
137936,-100,4,2,1,75,0,1
140436,-100,4,2,99,5,0,1
140507,-100,4,2,1,75,0,1
142722,-100,4,2,99,5,0,1
142793,-100,4,2,1,80,0,1
145007,-100,4,2,99,5,0,1
145079,-100,4,2,1,75,0,1
145936,-100,4,2,1,75,0,1
146650,-100,4,2,1,75,0,0
147079,-100,4,2,1,77,0,1
147293,-100,4,2,99,5,0,1
147365,-100,4,2,1,77,0,1
149579,-100,4,2,99,5,0,1
149650,-100,4,2,1,77,0,1
150650,-100,4,2,1,60,0,1
150793,-100,4,2,1,77,0,1
151650,-100,4,2,1,80,0,1
151865,-100,4,2,99,5,0,1
151936,-100,4,2,1,80,0,1
154150,-100,4,2,99,5,0,1
154222,-100,4,2,1,80,0,1
155793,-100,4,2,1,80,0,0
156222,-100,4,2,1,81,0,1
156436,-100,4,2,99,81,0,1
156507,-100,4,2,1,81,0,1
157365,-100,4,2,1,81,0,1
160650,-100,4,2,1,82,0,0
160793,-100,4,2,1,83,0,1
163079,-100,4,2,1,84,0,1
163650,-100,4,2,1,85,0,1
164222,-100,4,2,1,86,0,1
164793,-100,4,2,1,87,0,1
165365,-100,4,2,1,70,0,0
165793,451.127819548872,7,2,1,60,1,0

[Colours]
Combo1 : 185,187,249
Combo2 : 119,206,249
Combo3 : 186,209,245
Combo4 : 81,168,255

[HitObjects]
71,188,780,6,0,P|62:90|56:35,2,150,6|2|10,0:3|0:2|0:2,0:0:0:0:
79,287,1922,1,2,0:2:0:0:
183,179,2351,1,2,0:3:0:0:
292,286,2780,1,10,0:2:0:0:
363,216,3065,6,0,L|517:209,2,150,10|2|10,0:3|0:2|0:2,0:0:0:0:
277,164,4208,2,0,B|236:127|234:73|234:73|176:43|121:83,1,200,2|10,0:0|0:3,0:0:0:0:
61,130,5065,1,14,0:2:0:0:
80,228,5351,6,0,B|86:327|86:327|37:370,2,150,14|2|10,0:3|0:2|0:2,0:0:0:0:
154,160,6494,1,2,0:2:0:0:
295,208,6922,1,2,0:2:0:0:
428,142,7351,1,10,0:2:0:0:
492,218,7637,6,0,L|507:374,2,150,10|2|10,0:3|0:2|0:2,0:0:0:0:
395,246,8780,2,0,P|345:248|298:232,1,100,2|10,0:2|0:2,0:0:0:0:
225,164,9351,2,0,P|177:148|128:150,1,100,10|10,0:3|0:2,0:0:0:0:
49,212,9922,6,0,L|34:368,2,150,6|2|10,0:3|0:2|0:2,0:0:0:0:
24,114,11065,1,2,0:2:0:0:
143,22,11494,1,2,0:2:0:0:
235,141,11922,1,10,0:2:0:0:
311,76,12208,6,0,B|339:68|369:78|369:78|384:91|399:98|399:98|426:81|458:81,2,150,10|2|10,0:3|0:2|0:2,0:0:0:0:
235,141,13351,2,0,P|180:131|126:126,2,100,2|10|10,0:2|0:2|0:3,0:0:0:0:
294,221,14208,1,6,0:2:0:0:
373,282,14494,6,0,B|403:279|431:292|431:292|448:287|448:287|477:306|524:295,2,150,14|2|10,0:3|0:2|0:2,0:0:0:0:
312,361,15637,1,2,0:2:0:0:
207,253,16065,1,2,0:2:0:0:
71,319,16494,1,10,0:2:0:0:
15,235,16780,2,0,B|12:212|1:195|1:195|6:164|25:146|25:146|19:127|25:83,2,150,10|2|10,0:3|0:2|0:2,0:0:0:0:
108,199,17922,2,0,P|156:185|208:190,1,100,2|12,0:2|0:2,0:0:0:0:
297,228,18494,1,10,0:3:0:0:
461,155,19065,6,0,B|457:105|464:65|464:65|425:29|367:42,1,179.999994506836,12|10,0:3|0:3,0:0:0:0:
310,95,19922,1,10,0:3:0:0:
227,59,20208,2,0,B|145:22|145:22|88:26|67:68,1,179.999994506836,10|10,0:3|0:3,0:0:0:0:
46,240,21351,6,0,L|39:335,2,89.9999972534181,10|10|10,0:3|0:3|0:3,0:0:0:0:
128,206,22208,1,10,0:3:0:0:
199,261,22494,2,0,P|240:277|299:258,1,89.9999972534181,10|10,0:3|0:3,0:0:0:0:
359,218,23065,2,0,L|366:122,1,89.9999972534181,10|10,0:3|0:3,0:0:0:0:
319,50,23637,6,0,B|357:80|408:67|408:67|456:62|484:97,1,179.999994506836,8|10,0:3|0:3,0:0:0:0:
509,183,24494,1,10,0:3:0:0:
485,270,24780,2,0,B|456:305|408:300|408:300|357:287|319:317,1,179.999994506836,10|8,0:3|0:3,0:0:0:0:
142,350,25922,6,0,B|109:324|57:326|57:326|26:286|52:226,1,179.999994506836,10|10,0:3|0:3,0:0:0:0:
107,174,26780,1,10,0:3:0:0:
195,191,27065,2,0,P|246:188|288:186,1,89.9999972534181,10|10,0:3|0:3,0:0:0:0:
369,216,27637,2,0,P|413:213|458:211,1,89.9999972534181,10|10,0:3|0:2,0:2:0:0:
494,128,28208,6,0,B|516:88|493:40|493:40|453:15|399:32,1,179.999994506836,14|10,0:3|0:3,0:0:0:0:
354,102,29065,1,10,0:2:0:0:
266,78,29351,2,0,B|223:65|182:93|182:93|133:100|97:67,1,179.999994506836,10|10,0:3|0:3,0:0:0:0:
1,219,30494,6,0,P|46:211|111:214,1,89.9999972534181,10|10,0:3|0:2,0:0:0:0:
179,221,31065,1,10,0:3:0:0:
262,253,31351,1,10,0:2:0:0:
334,306,31637,2,0,L|444:311,2,89.9999972534181,10|10|10,0:3|0:2|0:3,0:0:0:0:
265,364,32494,1,10,0:2:0:0:
187,318,32780,6,0,B|143:303|100:326|100:326|57:320|34:269,1,179.999994506836,10|10,0:3|0:3,0:0:0:0:
0,186,33637,1,10,0:2:0:0:
34,103,33922,2,0,B|56:52|99:46|99:46|142:69|186:54,1,179.999994506836,10|10,0:3|0:3,0:0:0:0:
333,157,35065,6,0,P|383:148|441:147,1,89.9999972534181,10|10,0:3|0:2,0:0:0:0:
491,204,35637,2,0,L|493:305,1,89.9999972534181,10|10,0:3|0:2,0:0:0:0:
429,357,36208,2,0,P|384:354|339:346,1,89.9999972534181,10|10,0:3|0:2,0:0:0:0:
282,276,36780,1,10,0:3:0:0:
192,266,37065,1,10,0:2:0:0:
121,322,37351,5,14,0:3:0:0:
256,192,37494,12,10,39637,0:3:0:0:
458,190,41922,6,0,P|467:92|473:37,2,150,14|2|10,0:3|0:2|0:2,0:0:0:0:
452,289,43065,1,2,0:2:0:0:
328,203,43494,1,2,0:2:0:0:
242,327,43922,1,10,0:2:0:0:
155,277,44208,6,0,B|122:267|88:275|88:275|66:270|66:270|34:280|7:270,2,150,10|2|10,0:3|0:2|0:2,0:0:0:0:
226,207,45351,2,0,B|272:169|268:120|268:120|320:97|366:126,1,200,2|10,0:2|0:3,0:0:0:0:
477,264,46494,6,0,P|481:226|491:171,2,89.9999972534181,14|10|10,0:3|0:0|0:3,0:0:0:0:
427,338,47351,1,10,0:2:0:0:
336,341,47637,2,0,L|225:331,1,89.9999972534181,10|10,0:3|0:0,0:0:0:0:
160,359,48208,1,10,0:3:0:0:
22,242,48780,6,0,B|47:204|37:155|37:155|65:118|117:129,1,179.999994506836,10|8,0:3|0:3,0:0:0:0:
193,177,49637,1,10,0:0:0:0:
268,224,49922,2,0,P|318:236|364:219,1,89.9999972534181,10|10,0:3|0:0,0:0:0:0:
429,175,50494,1,10,0:3:0:0:
423,84,50780,1,10,0:0:0:0:
341,44,51065,6,0,B|299:17|253:33|253:33|264:81|235:131,1,179.999994506836,10|10,0:3|0:3,0:0:0:0:
204,202,51922,1,10,0:0:0:0:
168,284,52208,2,0,B|132:301|80:295|80:295|91:247|67:207,1,179.999994506836,10|10,0:3|0:3,0:0:0:0:
32,31,53351,6,0,B|74:51|119:31|119:31|128:76|174:97,1,179.999994506836,2|10,0:3|0:3,0:0:0:0:
256,134,54208,1,10,0:2:0:0:
338,97,54494,2,0,L|345:5,2,89.9999972534181,10|10|10,0:3|0:2|0:3,0:0:0:0:
410,150,55351,1,14,0:2:0:0:
448,231,55637,6,0,L|441:320,2,89.9999972534181,14|10|2,0:3|0:2|0:3,0:0:0:0:
500,158,56494,1,10,0:0:0:0:
463,75,56780,2,0,B|431:40|385:38|385:38|340:64|292:43,1,179.999994506836,10|2,0:3|0:3,0:0:0:0:
106,43,57922,6,0,B|73:77|74:123|74:123|103:166|88:210,1,179.999994506836,10|2,0:3|0:3,0:0:0:0:
57,295,58780,1,10,0:2:0:0:
123,355,59065,2,0,P|166:366|208:353,1,89.9999972534181,10|8,0:3|0:0,0:0:0:0:
285,305,59637,2,0,P|327:291|370:303,1,89.9999972534181,2|10,0:3|0:2,0:0:0:0:
434,361,60208,6,0,B|413:318|440:275|440:275|453:212|421:175,1,179.999994506836,10|2,0:3|0:3,0:0:0:0:
347,153,61065,1,10,0:2:0:0:
270,200,61351,2,0,B|191:241|191:241|111:187,1,179.999994506836,10|2,0:3|0:3,0:0:0:0:
231,52,62494,6,0,B|272:39|272:39|330:59,1,89.9999972534181,10|12,0:3|0:0,0:0:0:0:
369,126,63065,2,0,L|375:219,1,89.9999972534181,8|12,0:3|0:2,0:0:0:0:
321,288,63637,2,0,P|281:278|232:281,2,89.9999972534181,14|10|12,0:3|0:3|0:2,0:0:0:0:
493,186,64780,6,0,B|481:145|481:145|511:91|498:31,2,150,6|2|10,0:3|0:2|0:2,0:0:0:0:
488,285,65922,1,2,0:2:0:0:
338,270,66351,1,2,0:2:0:0:
256,143,66780,1,10,0:2:0:0:
185,213,67065,6,0,L|30:203,2,150,2|2|10,0:3|0:2|0:2,0:0:0:0:
256,283,68208,1,2,0:2:0:0:
357,172,68637,1,2,0:2:0:0:
256,62,69065,1,14,0:2:0:0:
172,116,69351,6,0,L|17:106,2,150,2|2|10,0:2|0:2|0:2,0:0:0:0:
256,169,70494,1,2,0:2:0:0:
365,66,70922,1,2,0:2:0:0:
496,137,71351,1,10,0:2:0:0:
465,232,71637,6,0,B|477:279|477:279|455:329|491:382,2,150,2|2|10,0:2|0:2|0:2,0:0:0:0:
370,201,72780,1,2,0:2:0:0:
256,299,73208,1,2,0:2:0:0:
142,201,73637,1,10,0:2:0:0:
47,232,73922,5,14,0:3:0:0:
256,192,74034,12,2,75500,0:0:0:0:
160,241,80237,6,0,B|89:241,2,67.4999979400635,14|14|10,0:3|0:3|0:3,0:0:0:0:
256,290,81365,1,2,0:2:0:0:
352,241,81816,2,0,B|422:241,2,67.4999979400635,14|14|10,0:3|0:3|0:3,0:0:0:0:
256,192,82944,1,10,0:3:0:0:
160,143,83395,6,0,B|89:143,2,67.4999979400635,14|14|10,0:3|0:3|0:3,0:0:0:0:
256,94,84523,1,2,0:2:0:0:
352,143,84974,2,0,B|422:143,2,67.4999979400635,10|10|10,0:2|0:2|0:2,0:0:0:0:
256,192,86102,1,2,0:2:0:0:
160,241,86553,6,2,B|97:283|97:283|36:241,1,150,14|10,0:3|0:3,0:1:0:0:
99,150,87681,1,2,0:2:0:0:
195,96,88132,2,2,B|232:80|232:80|256:56|256:56|280:80|280:80|318:96,1,150,14|10,0:3|0:3,0:1:0:0:
413,150,89260,1,10,0:3:0:0:
477,240,89711,6,2,L|477:321,2,75,14|14|10,0:3|0:3|0:3,0:1:0:0:
413,150,90839,1,10,0:3:0:0:
327,220,91290,2,2,P|291:228|255:219,2,75,14|14|2,0:3|0:3|0:2,0:1:0:0:
413,150,92418,1,10,0:3:0:0:
342,64,92869,6,0,B|306:56|271:79|271:79|227:82|194:51,1,150,14|10,0:3|0:3,0:0:0:0:
91,69,93997,1,8,0:3:0:0:
25,157,94448,2,0,L|25:254,2,75,14|10|10,0:3|0:3|0:3,0:0:0:0:
0,107,95350,1,10,0:2:0:0:
157,56,96027,6,0,L|254:56,2,75,14|10|10,0:3|0:3|0:3,0:0:0:0:
107,31,96929,1,14,0:2:0:0:
22,172,97606,2,0,L|22:269,2,75,10|8|2,0:3|0:2|0:2,0:0:0:0:
100,131,98621,2,0,P|136:128|187:134,1,75,2|10,0:3|0:3,0:0:0:0:
448,357,101365,6,0,B|443:315|470:282|470:282|451:247|458:202,1,160,14|2,0:3|0:3,0:0:0:0:
498,126,102222,1,10,0:2:0:0:
440,59,102507,2,0,B|397:52|362:71|362:71|329:44|287:49,1,160,10|2,0:3|0:2,0:0:0:0:
120,104,103650,6,0,P|82:100|37:96,2,80,2|10|2,0:2|0:2|0:2,0:0:0:0:
192,153,104507,1,10,0:2:0:0:
229,232,104793,2,0,P|233:271|236:311,1,80,10|10,0:3|0:2,0:0:0:0:
311,358,105365,2,0,P|350:354|390:350,1,80,2|10,0:2|0:2,0:0:0:0:
458,294,105936,6,0,B|468:215|468:215|445:177|396:188,1,160,10|2,0:3|0:2,0:0:0:0:
312,203,106793,1,10,0:2:0:0:
253,268,107079,2,0,B|173:278|173:278|135:255|146:206,1,160,10|2,0:3|0:2,0:0:0:0:
284,99,108222,6,0,L|373:92,2,80,10|10|2,0:3|0:2|0:2,0:0:0:0:
203,63,109079,1,10,0:2:0:0:
129,111,109365,2,0,L|40:118,1,80,10|10,0:3|0:2,0:0:0:0:
3,192,109936,2,0,L|9:272,1,80,10|10,0:2|0:2,0:0:0:0:
49,362,110507,6,0,B|81:317|121:311|121:311|169:334|227:319,1,179.999994506836,14|2,0:3|0:2,0:0:0:0:
255,245,111365,1,10,0:2:0:0:
301,168,111650,2,0,B|340:156|388:179|388:179|428:173|460:128,1,179.999994506836,10|2,0:3|0:2,0:0:0:0:
299,47,112793,6,0,P|258:44|203:39,2,89.9999972534181,10|10|2,0:3|0:2|0:2,0:0:0:0:
385,20,113650,1,10,0:2:0:0:
457,73,113936,2,0,L|462:170,1,89.9999972534181,10|10,0:3|0:2,0:0:0:0:
439,250,114507,2,0,L|444:347,1,89.9999972534181,2|10,0:2|0:2,0:0:0:0:
355,358,115079,6,0,B|318:326|273:326|273:326|232:351|187:330,1,179.999994506836,10|2,0:3|0:2,0:0:0:0:
115,274,115936,1,10,0:2:0:0:
187,220,116222,2,0,B|232:199|273:224|273:224|318:224|355:192,1,179.999994506836,10|2,0:3|0:2,0:0:0:0:
253,42,117365,5,10,0:3:0:0:
188,104,117650,2,0,L|87:104,1,89.9999972534181,14|2,0:2|0:2,0:0:0:0:
33,166,118222,1,14,0:2:0:0:
70,247,118507,2,0,P|80:296|57:342,2,89.9999972534181,10|10|14,0:2|0:2|0:2,0:0:0:0:
176,96,119650,6,0,B|224:96|256:64|256:64|288:96|344:96,1,179.999994506836,14|2,0:3|0:2,0:0:0:0:
425,70,120507,1,10,0:2:0:0:
493,128,120793,2,0,L|512:315,1,179.999994506836,10|2,0:3|0:2,0:0:0:0:
338,358,121936,5,10,0:3:0:0:
256,320,122222,1,8,0:2:0:0:
174,358,122507,2,0,B|83:362|83:362|43:342,1,134.999995880127,2|2,0:2|0:2,0:0:0:0:
2,261,123222,1,2,0:2:0:0:
44,182,123507,2,0,B|83:162|83:162|174:166,1,134.999995880127,10|10,0:3|0:2,0:0:0:0:
238,229,124222,5,10,0:3:0:0:
324,205,124507,1,14,0:2:0:0:
122,24,125365,1,10,0:3:0:0:
36,48,125650,1,14,0:2:0:0:
16,317,126507,6,0,P|63:302|123:304,1,89.9999972534181,10|10,0:3|0:2,0:0:0:0:
182,344,127079,2,0,P|249:358|317:336,1,134.999995880127,2|2,0:2|0:2,0:0:0:0:
370,271,127793,1,2,0:2:0:0:
453,304,128079,1,10,0:3:0:0:
479,82,128793,6,0,B|432:75|396:43|396:43|343:37|322:79,1,179.999994506836,14|2,0:3|0:2,0:0:0:0:
289,161,129650,1,10,0:2:0:0:
254,244,129936,2,0,B|176:280|176:280|120:285|90:249,1,179.999994506836,10|2,0:3|0:2,0:0:0:0:
41,173,130793,1,10,0:2:0:0:
90,98,131079,6,0,P|132:85|177:90,1,89.9999972534181,10|10,0:3|0:2,0:0:0:0:
252,139,131650,2,0,B|299:142|336:120|336:120|362:117|401:131,1,134.999995880127,2|2,0:2|0:2,0:0:0:0:
446,189,132365,1,2,0:2:0:0:
382,252,132650,2,0,B|335:255|298:233|298:233|272:230|251:238,1,134.999995880127,10|10,0:3|0:2,0:0:0:0:
184,298,133365,6,0,B|143:306|105:339|105:339|56:338|29:295,1,179.999994506836,10|2,0:3|0:2,0:0:0:0:
0,210,134222,1,10,0:2:0:0:
30,125,134507,2,0,B|56:82|105:81|105:81|143:114|184:122,1,179.999994506836,10|2,0:3|0:2,0:0:0:0:
256,69,135365,1,10,0:2:0:0:
329,122,135650,5,10,0:3:0:0:
402,70,135936,2,0,B|443:58|443:58|493:77,1,89.9999972534181,14|2,0:2|0:2,0:0:0:0:
508,162,136507,1,12,0:2:0:0:
444,225,136793,2,2,P|434:261|431:321,1,89.9999972534181,10|10,0:1|0:1,0:1:0:0:
351,361,137365,2,2,L|253:350,1,89.9999972534181,10|10,0:1|0:1,0:1:0:0:
193,277,137936,6,0,B|190:255|195:235|195:235|178:210|178:210|196:179|186:132,2,150,6|2|10,0:3|0:2|0:2,0:0:0:0:
122,348,139079,1,2,0:2:0:0:
0,261,139507,1,2,0:2:0:0:
45,119,139936,1,10,0:2:0:0:
133,73,140222,6,0,B|207:60|204:96|288:73,2,150,2|2|10,0:3|0:2|0:2,0:0:0:0:
50,20,141365,1,2,0:2:0:0:
2,161,141793,1,2,0:2:0:0:
121,250,142222,1,14,0:2:0:0:
205,197,142507,6,0,B|210:149|210:149|199:107|199:107|207:44,2,150,2|2|10,0:2|0:2|0:2,0:0:0:0:
258,281,143650,1,2,0:2:0:0:
407,279,144079,1,2,0:2:0:0:
479,148,144507,1,10,0:2:0:0:
403,82,144793,6,0,B|325:61|328:97|254:84,2,150,2|2|10,0:2|0:2|0:2,0:0:0:0:
487,28,145936,1,10,0:2:0:0:
497,177,146365,1,2,0:2:0:0:
487,326,146793,1,10,0:2:0:0:
395,265,147079,6,0,B|317:244|320:280|246:267,2,150,14|2|10,0:3|0:2|0:2,0:0:0:0:
481,197,148222,1,6,0:2:0:0:
393,56,148650,1,2,0:2:0:0:
256,149,149079,1,10,0:2:0:0:
161,92,149365,6,0,B|96:69|96:69|45:70|17:99,2,150,14|2|10,0:3|0:2|0:2,0:0:0:0:
256,36,150507,1,6,0:2:0:0:
314,190,150936,1,10,0:3:0:0:
256,348,151365,1,10,0:3:0:0:
161,292,151650,6,0,B|66:260|66:260|35:266|12:293,2,150,14|2|14,0:3|0:2|0:2,0:0:0:0:
226,203,152793,1,6,0:2:0:0:
322,336,153222,1,2,0:2:0:0:
475,274,153650,1,14,0:2:0:0:
418,179,153936,6,0,B|413:131|413:131|424:89|424:89|416:26,2,150,14|2|14,0:3|0:2|0:2,0:0:0:0:
319,228,155079,1,6,0:2:0:0:
256,75,155507,1,2,0:2:0:0:
103,138,155936,1,10,0:2:0:0:
169,225,156222,6,0,L|183:348,1,100,6|8,0:3|0:2,0:0:0:0:
282,365,156793,2,0,P|339:349|400:342,1,100,8|8,0:2|0:2,0:0:0:0:
489,355,157365,1,10,0:2:0:0:
500,245,157650,1,10,0:2:0:0:
390,234,157936,2,0,P|340:226|292:212,1,100,10|10,0:2|0:2,0:0:0:0:
191,168,158507,6,0,B|132:129|64:151|64:151|33:132|32:95,1,200,14|8,0:3|0:2,0:0:0:0:
119,26,159365,1,8,0:2:0:0:
220,68,159650,2,0,L|326:77,1,100,8|8,0:2|0:2,0:0:0:0:
411,137,160222,2,0,P|420:186|408:236,1,100,8|8,0:2|0:0,0:0:0:0:
354,329,160793,5,14,0:3:0:0:
249,294,161079,2,0,L|149:285,1,100,14|10,0:2|0:2,0:0:0:0:
50,333,161650,1,10,0:0:0:0:
21,226,161936,2,0,B|15:123|15:123|36:65|106:72,1,200,8|8,0:0|0:0,0:0:0:0:
180,132,162793,1,10,0:2:0:0:
272,73,163079,6,0,P|322:59|386:62,1,100,14|8,0:0|0:2,0:0:0:0:
456,127,163650,2,0,P|470:177|467:241,1,100,8|8,0:2|0:2,0:0:0:0:
402,311,164222,2,0,P|352:325|288:322,1,100,8|8,0:2|0:2,0:0:0:0:
218,257,164793,2,0,B|192:214|192:214|143:186|81:210|81:210,1,150,14|10,0:2|0:2,0:0:0:0:
5,363,165793,5,14,0:3:0:0:
