osu file format v14

[General]
AudioFilename: audio.mp3
AudioLeadIn: 0
PreviewTime: 46494
Countdown: 0
SampleSet: Soft
StackLeniency: 0.7
Mode: 0
LetterboxInBreaks: 0
WidescreenStoryboard: 1

[Editor]
DistanceSpacing: 0.9
BeatDivisor: 4
GridSize: 32
TimelineZoom: 1.8

[Metadata]
Title:Aimai Elegy
TitleUnicode:愛迷エレジー
Artist:96neko
ArtistUnicode:96猫
Creator:Lasse
Version:Advanced
Source:
Tags:DECO*27 deco27 love-lost utaite cover memoReal
BeatmapID:1266211
BeatmapSetID:596833

[Difficulty]
HPDrainRate:4
CircleSize:3.2
OverallDifficulty:5
ApproachRate:6.5
SliderMultiplier:1.2
SliderTickRate:1

[Events]
//Background and Video events
0,0,"bg.jpg",0,0
//Break Periods
2,39837,40947
2,75700,79262
2,99159,100390
//Storyboard Layer 0 (Background)
//Storyboard Layer 1 (Fail)
//Storyboard Layer 2 (Pass)
//Storyboard Layer 3 (Foreground)
//Storyboard Sound Samples

[TimingPoints]
780,285.714285714286,4,2,1,70,1,0
18494,-114.942528735632,4,2,1,65,0,0
18637,-114.942528735632,4,2,1,45,0,0
18780,-114.942528735632,4,2,1,60,0,0
18922,-114.942528735632,4,2,1,55,0,0
19065,-125,4,2,1,50,0,0
28208,-117.647058823529,4,2,1,60,0,0
37351,-117.647058823529,4,2,1,70,0,0
37422,-100,4,2,1,50,0,0
39637,-100,4,2,1,60,0,0
46494,-111.111111111111,4,2,1,60,0,0
55637,-102.040816326531,4,2,1,70,0,0
62494,-100,4,2,1,72,0,0
63065,-100,4,2,1,74,0,0
63637,-100,4,2,1,76,0,0
64208,-100,4,2,1,76,0,0
64351,-100,4,2,1,70,0,0
64494,-111.111111111111,4,2,1,50,0,0
64637,-111.111111111111,4,2,1,30,0,0
64780,-90.9090909090909,4,2,1,75,0,1
67280,-90.9090909090909,4,2,99,5,0,1
67351,-90.9090909090909,4,2,1,75,0,1
69565,-90.9090909090909,4,2,99,5,0,1
69637,-90.9090909090909,4,2,1,75,0,1
71851,-90.9090909090909,4,2,99,5,0,1
71922,-90.9090909090909,4,2,1,75,0,1
73922,451.127819548872,7,2,1,50,1,0
73922,-111.111111111111,7,2,1,50,0,0
75500,-111.111111111111,7,2,1,20,0,0
80237,-111.111111111111,7,2,1,60,0,0
80576,-111.111111111111,7,2,3,60,0,0
80914,-111.111111111111,7,2,1,60,0,0
82155,-111.111111111111,7,2,3,60,0,0
82493,-111.111111111111,7,2,1,60,0,0
83734,-111.111111111111,7,2,3,60,0,0
84072,-111.111111111111,7,2,1,60,0,0
86553,-100,7,2,1,70,0,0
86891,-100,7,2,3,70,0,0
87230,-100,7,2,1,70,0,0
88470,-100,7,2,3,70,0,0
88809,-100,7,2,1,70,0,0
89711,-100,7,2,3,70,0,0
89824,-100,7,2,1,70,0,0
90049,-100,7,2,3,70,0,0
90162,-100,7,2,1,70,0,0
91628,-100,7,2,3,70,0,0
91967,-100,7,2,1,70,0,0
92869,-100,7,2,1,65,0,0
94448,-100,7,2,3,65,0,0
94786,-100,7,2,1,65,0,0
98621,-100,7,2,1,70,0,0
101365,285.714285714286,4,2,2,50,1,0
101365,-125,4,2,2,50,0,0
109793,-125,4,2,1,35,0,0
109936,-125,4,2,1,50,0,0
110007,-125,4,2,99,5,0,0
110079,-125,4,2,1,52,0,0
110150,-125,4,2,99,5,0,0
110222,-125,4,2,1,54,0,0
110293,-125,4,2,99,5,0,0
110365,-125,4,2,1,56,0,0
110436,-125,4,2,99,5,0,0
110507,-117.647058823529,4,2,1,60,0,0
110722,-117.647058823529,4,2,99,5,0,0
110793,-117.647058823529,4,2,1,60,0,0
118507,-117.64705882353,4,2,1,70,0,0
119079,-117.647058823529,4,2,1,60,0,0
119365,-117.647058823529,4,2,1,30,0,0
119650,-111.111111111111,4,2,1,65,0,0
124222,-111.111111111111,4,2,1,65,0,0
124436,-111.111111111111,4,2,99,5,0,0
124507,-111.111111111111,4,2,1,70,0,0
124650,-111.111111111111,4,2,1,65,0,0
125365,-111.111111111111,4,2,1,65,0,0
125579,-111.111111111111,4,2,99,5,0,0
125650,-111.111111111111,4,2,1,70,0,0
125793,-111.111111111111,4,2,1,65,0,0
128079,-111.111111111111,4,2,1,50,0,0
128650,-111.111111111111,4,2,99,20,0,0
128793,-100,4,2,1,70,0,0
135865,-100,4,2,99,5,0,0
135936,-100,4,2,1,70,0,0
136793,-100,4,2,1,73,0,0
136936,-100,4,2,1,50,0,0
137079,-100,4,2,1,76,0,0
137222,-100,4,2,1,50,0,0
137365,-100,4,2,1,79,0,0
137507,-100,4,2,1,50,0,0
137650,-100,4,2,1,82,0,0
137793,-100,4,2,1,70,0,0
137936,-90.9090909090909,4,2,1,75,0,1
140436,-90.9090909090909,4,2,99,5,0,1
140507,-90.9090909090909,4,2,1,75,0,1
142722,-90.9090909090909,4,2,99,5,0,1
142793,-90.9090909090909,4,2,1,80,0,1
145007,-90.9090909090909,4,2,99,5,0,1
145079,-90.9090909090909,4,2,1,75,0,1
145936,-90.9090909090909,4,2,1,75,0,1
146650,-90.9090909090909,4,2,1,75,0,0
147079,-90.9090909090909,4,2,1,77,0,1
147293,-90.9090909090909,4,2,99,5,0,1
147365,-90.9090909090909,4,2,1,77,0,1
149579,-90.9090909090909,4,2,99,5,0,1
149650,-90.9090909090909,4,2,1,77,0,1
150650,-90.9090909090909,4,2,1,60,0,1
150793,-90.9090909090909,4,2,1,77,0,1
151650,-90.9090909090909,4,2,1,80,0,1
151865,-90.9090909090909,4,2,99,5,0,1
151936,-90.9090909090909,4,2,1,80,0,1
154150,-90.9090909090909,4,2,99,5,0,1
154222,-90.9090909090909,4,2,1,80,0,1
155793,-90.9090909090909,4,2,1,80,0,0
156222,-83.3333333333333,4,2,1,81,0,1
156436,-83.3333333333333,4,2,99,81,0,1
156507,-83.3333333333333,4,2,1,81,0,1
157365,-83.3333333333333,4,2,1,81,0,1
160650,-83.3333333333333,4,2,1,82,0,0
160793,-83.3333333333333,4,2,1,83,0,1
163079,-83.3333333333333,4,2,1,84,0,1
163650,-83.3333333333333,4,2,1,85,0,1
164222,-83.3333333333333,4,2,1,86,0,1
164793,-83.3333333333333,4,2,1,87,0,1
165365,-100,4,2,1,70,0,0
165793,451.127819548872,7,2,1,60,1,0

[Colours]
Combo1 : 185,187,249
Combo2 : 119,206,249
Combo3 : 186,209,245
Combo4 : 81,168,255

[HitObjects]
185,350,494,5,0,0:2:0:0:
280,277,780,6,0,B|309:222|309:222|269:150,1,120,6|8,0:3|0:2,0:0:0:0:
225,148,1208,2,0,L|97:135,1,120,2|8,0:2|0:3,0:0:0:0:
69,184,1637,1,10,0:2:0:0:
160,264,1922,2,0,L|288:277,1,120,2|8,0:2|0:2,0:0:0:0:
316,324,2351,1,2,0:3:0:0:
481,253,2780,1,10,0:2:0:0:
456,135,3065,6,0,P|473:96|486:80,2,60,10|0|8,0:3|0:2|0:2,0:0:0:0:
398,153,3494,2,0,P|336:154|279:124,1,120,2|8,0:2|0:3,0:0:0:0:
249,80,3922,1,10,0:2:0:0:
167,168,4208,2,0,L|159:313,2,120,2|8|10,0:0|0:0|0:3,0:0:0:0:
132,53,5065,1,14,0:2:0:0:
249,80,5351,6,0,P|303:77|371:71,1,120,14|8,0:3|0:2,0:0:0:0:
420,102,5780,2,0,P|423:156|429:224,1,120,2|8,0:2|0:3,0:0:0:0:
468,266,6208,1,10,0:2:0:0:
384,352,6494,2,0,P|324:346|264:343,1,120,2|8,0:2|0:2,0:0:0:0:
206,358,6922,1,2,0:2:0:0:
53,262,7351,1,10,0:2:0:0:
138,177,7637,6,0,L|122:104,2,60,10|0|8,0:3|0:2|0:2,0:0:0:0:
189,209,8065,2,0,B|231:195|231:195|266:208|305:195,1,120,2|8,0:2|0:3,0:0:0:0:
354,161,8494,1,10,0:2:0:0:
302,52,8780,2,0,B|262:39|227:52|227:52|185:38,1,120,2|10,0:2|0:2,0:0:0:0:
116,136,9351,2,0,B|76:148|41:135|41:135|0:149,1,120,10|10,0:3|0:2,0:0:0:0:
76,241,9922,6,0,B|91:298|66:304|84:361,1,120,6|8,0:3|0:2,0:0:0:0:
143,366,10351,2,0,P|208:350|269:347,1,120,2|8,0:2|0:3,0:0:0:0:
320,354,10780,1,10,0:2:0:0:
425,297,11065,2,0,L|433:150,1,120,2|8,0:2|0:2,0:0:0:0:
466,127,11494,1,2,0:2:0:0:
316,25,11922,1,10,0:2:0:0:
210,81,12208,6,0,L|134:72,2,60,10|0|8,0:3|0:2|0:2,0:0:0:0:
248,127,12637,2,0,L|256:274,1,120,2|8,0:2|0:3,0:0:0:0:
260,306,13065,1,10,0:2:0:0:
370,353,13351,2,0,P|436:334|498:332,2,120,2|10|10,0:2|0:2|0:3,0:0:0:0:
260,306,14208,1,6,0:2:0:0:
153,361,14494,6,0,L|143:225,1,120,14|8,0:3|0:2,0:0:0:0:
160,183,14922,2,0,P|96:195|34:159,1,120,2|8,0:2|0:3,0:0:0:0:
16,121,15351,1,10,0:2:0:0:
114,52,15637,2,0,P|174:46|234:43,1,120,2|8,0:2|0:2,0:0:0:0:
287,69,16065,1,2,0:2:0:0:
345,239,16494,1,10,0:2:0:0:
443,170,16780,6,0,L|451:103,2,60,10|0|8,0:3|0:2|0:2,0:0:0:0:
472,222,17208,2,0,B|487:274|487:274|492:314|470:353,1,120,2|8,0:2|0:3,0:0:0:0:
424,366,17637,1,10,0:2:0:0:
312,322,17922,1,2,0:2:0:0:
193,339,18208,1,12,0:2:0:0:
75,295,18494,2,0,P|52:290|14:284,2,52.2000004380798,10|8|8,0:3|0:3|0:3,0:0:0:0:
167,229,19065,6,0,L|169:113,1,96,12|8,0:3|0:3,0:0:0:0:
181,81,19494,2,0,L|182:26,1,48,2|10,0:3|0:3,0:0:0:0:
281,69,19922,2,0,P|306:69|342:66,1,48,10|2,0:3|0:3,0:0:0:0:
372,36,20208,2,0,L|485:41,1,96,10|8,0:3|0:3,0:0:0:0:
500,89,20637,1,2,0:3:0:0:
500,89,20780,2,0,L|502:203,1,96,10|8,0:3|0:3,0:0:0:0:
401,219,21351,6,0,P|360:216|300:215,2,96,10|10|10,0:3|0:3|0:3,0:0:0:0:
484,284,22208,2,0,P|480:315|472:345,1,48,10|2,0:3|0:3,0:0:0:0:
428,355,22494,2,0,P|380:353|332:349,1,96,10|10,0:3|0:3,0:0:0:0:
255,277,23065,1,10,0:3:0:0:
163,328,23351,1,10,0:3:0:0:
100,242,23637,6,0,L|93:131,1,96,8|8,0:3|0:3,0:0:0:0:
76,96,24065,2,0,L|73:40,1,48,2|10,0:3|0:3,0:0:0:0:
179,38,24494,2,0,P|202:41|226:41,1,48,10|2,0:3|0:3,0:0:0:0:
267,77,24780,2,0,L|274:188,1,96,10|8,0:3|0:3,0:0:0:0:
283,224,25208,1,2,0:3:0:0:
283,224,25351,2,0,P|334:208|394:211,1,96,8|8,0:3|0:3,0:0:0:0:
477,179,25922,6,0,P|492:133|494:86,1,96,10|8,0:3|0:3,0:0:0:0:
472,37,26351,2,0,L|408:32,1,48,2|10,0:3|0:3,0:0:0:0:
337,95,26780,2,0,L|282:91,1,48,10|2,0:3|0:3,0:0:0:0:
242,115,27065,1,10,0:3:0:0:
166,42,27351,2,0,P|113:28|71:37,1,96,10|10,0:3|0:3,0:0:0:0:
0,112,27922,1,10,0:2:0:0:
28,213,28208,6,0,L|40:338,1,102.000001945496,14|8,0:3|0:2,0:0:0:0:
81,359,28637,1,10,0:3:0:0:
81,359,28780,1,10,0:3:0:0:
169,290,29065,2,0,L|172:228,1,51.0000009727478,10|2,0:2|0:2,0:0:0:0:
212,199,29351,2,0,P|252:178|325:183,1,102.000001945496,10|8,0:3|0:2,0:0:0:0:
366,198,29780,1,10,0:3:0:0:
366,198,29922,2,0,L|379:310,1,102.000001945496,10|8,0:3|0:2,0:0:0:0:
283,361,30494,5,10,0:3:0:0:
200,285,30780,2,0,P|171:276|134:277,1,51.0000009727478,10|10,0:2|0:3,0:0:0:0:
103,305,31065,1,10,0:3:0:0:
10,241,31351,2,0,P|1:212|1:174,1,51.0000009727478,10|2,0:2|0:3,0:0:0:0:
12,136,31637,1,10,0:3:0:0:
75,43,31922,1,10,0:2:0:0:
186,22,32208,1,10,0:3:0:0:
279,85,32494,1,10,0:2:0:0:
300,195,32780,6,0,B|299:237|299:237|306:261|306:261|305:295,1,102.000001945496,10|8,0:3|0:2,0:0:0:0:
347,341,33208,1,10,0:3:0:0:
347,341,33351,1,10,0:3:0:0:
433,268,33637,2,0,P|433:239|436:211,1,51.0000009727478,10|2,0:2|0:3,0:0:0:0:
433,161,33922,2,0,B|432:119|432:119|439:95|439:95|438:60,1,102.000001945496,10|8,0:3|0:2,0:0:0:0:
396,31,34351,1,10,0:3:0:0:
396,31,34494,2,0,L|294:26,1,102.000001945496,10|8,0:3|0:2,0:0:0:0:
196,81,35065,5,10,0:3:0:0:
225,189,35351,2,0,P|228:215|228:252,1,51.0000009727478,10|10,0:2|0:3,0:0:0:0:
212,293,35637,1,10,0:3:0:0:
108,338,35922,2,0,P|83:336|58:335,1,51.0000009727478,10|2,0:2|0:3,0:0:0:0:
10,352,36208,1,10,0:3:0:0:
0,233,36494,1,10,0:2:0:0:
77,151,36780,2,0,L|91:97,1,51.0000009727478,10|10,0:3|0:3,0:0:0:0:
133,65,37065,2,2,L|193:39,1,51.0000009727478,10|0,0:2|0:3,0:1:0:0:
236,40,37351,5,14,0:3:0:0:
256,192,37422,12,10,39637,0:3:0:0:
445,49,41922,6,0,L|435:185,1,120,14|8,0:3|0:2,0:0:0:0:
459,224,42351,2,0,P|395:212|333:248,1,120,2|8,0:2|0:3,0:0:0:0:
309,280,42780,1,10,0:2:0:0:
200,228,43065,6,0,L|190:92,1,120,2|8,0:2|0:2,0:0:0:0:
178,49,43494,1,2,0:2:0:0:
24,143,43922,1,10,0:2:0:0:
40,261,44208,6,0,L|32:328,2,60,10|0|8,0:3|0:2|0:2,0:0:0:0:
89,226,44637,2,0,P|151:207|215:244,1,120,2|8,0:2|0:3,0:0:0:0:
231,277,45065,1,10,0:2:0:0:
323,353,45351,6,0,P|382:344|454:336,1,120,2|8,0:2|0:2,0:0:0:0:
500,232,45922,2,0,P|440:224|381:216,1,120,10|8,0:3|0:3,0:0:0:0:
314,126,46494,6,0,P|270:103|210:114,1,107.999996704102,14|10,0:3|0:0,0:0:0:0:
184,156,46922,1,2,0:3:0:0:
184,156,47065,2,0,L|170:269,1,107.999996704102,10|10,0:3|0:2,0:0:0:0:
152,370,47637,1,10,0:3:0:0:
45,352,47922,1,10,0:0:0:0:
63,245,48208,2,0,L|77:132,1,107.999996704102,10|8,0:3|0:0,0:0:0:0:
141,51,48780,6,0,P|198:62|255:39,1,107.999996704102,10|8,0:3|0:0,0:0:0:0:
294,25,49208,1,2,0:3:0:0:
294,25,49351,1,8,0:3:0:0:
395,62,49637,2,0,P|422:67|454:66,1,53.9999983520508,10|2,0:0|0:3,0:0:0:0:
487,104,49922,2,0,P|474:168|491:226,1,107.999996704102,10|10,0:3|0:0,0:0:0:0:
501,315,50494,1,10,0:3:0:0:
405,366,50780,1,10,0:0:0:0:
326,290,51065,6,0,P|275:270|222:273,1,107.999996704102,10|8,0:3|0:0,0:0:0:0:
174,298,51494,1,2,0:3:0:0:
174,298,51637,1,10,0:3:0:0:
70,267,51922,2,0,P|68:236|64:204,1,53.9999983520508,10|2,0:0|0:3,0:0:0:0:
53,160,52208,2,0,P|51:106|51:52,1,107.999996704102,10|8,0:3|0:0,0:0:0:0:
102,27,52637,1,2,0:3:0:0:
102,27,52780,2,0,L|224:33,1,107.999996704102,10|8,0:3|0:0,0:0:0:0:
261,127,53351,6,0,P|259:180|259:234,1,107.999996704102,2|8,0:3|0:0,0:0:0:0:
278,292,53780,1,2,0:3:0:0:
278,292,53922,1,10,0:3:0:0:
368,351,54208,2,0,P|400:346|421:343,1,53.9999983520508,10|2,0:2|0:3,0:0:0:0:
474,352,54494,5,10,0:3:0:0:
505,248,54780,1,10,0:2:0:0:
454,153,55065,2,0,P|447:120|444:98,1,53.9999983520508,10|10,0:3|0:3,0:0:0:0:
468,51,55351,1,14,0:2:0:0:
354,18,55637,5,14,0:3:0:0:
260,90,55922,2,0,P|231:90|203:81,1,58.7999994616699,10|10,0:2|0:3,0:0:0:0:
150,55,56208,1,2,0:3:0:0:
56,126,56494,2,0,P|46:153|47:183,1,58.7999994616699,10|2,0:0|0:3,0:0:0:0:
82,230,56780,2,0,B|89:286|62:295|87:359,1,117.59999892334,10|8,0:3|0:0,0:0:0:0:
143,369,57208,1,10,0:3:0:0:
143,369,57351,2,0,P|204:351|270:357,1,117.59999892334,2|8,0:3|0:2,0:0:0:0:
372,379,57922,6,0,P|378:323|390:241,1,117.59999892334,10|8,0:3|0:0,0:0:0:0:
436,230,58351,1,10,0:3:0:0:
436,230,58494,1,2,0:3:0:0:
500,131,58780,2,0,P|464:126|442:120,1,58.7999994616699,10|2,0:2|0:3,0:0:0:0:
396,82,59065,2,0,P|347:61|272:64,1,117.59999892334,10|8,0:3|0:0,0:0:0:0:
195,139,59637,1,2,0:3:0:0:
243,248,59922,1,10,0:2:0:0:
154,327,60208,5,10,0:3:0:0:
51,266,60494,2,0,P|47:239|54:201,1,58.7999994616699,10|10,0:0|0:3,0:0:0:0:
79,155,60780,1,2,0:3:0:0:
195,139,61065,2,0,P|224:143|252:138,1,58.7999994616699,10|2,0:2|0:3,0:0:0:0:
303,107,61351,2,0,P|363:94|427:105,1,117.59999892334,10|8,0:3|0:0,0:0:0:0:
459,152,61780,1,10,0:3:0:0:
459,152,61922,2,0,L|462:277,1,117.59999892334,2|8,0:3|0:0,0:0:0:0:
366,343,62494,6,0,L|295:330,1,60,10|2,0:3|0:3,0:0:0:0:
249,352,62780,1,12,0:0:0:0:
150,284,63065,2,0,L|137:213,1,60,8|2,0:3|0:3,0:0:0:0:
159,167,63351,1,12,0:2:0:0:
247,68,63637,5,14,0:3:0:0:
288,193,63922,1,10,0:3:0:0:
376,95,64208,1,12,0:2:0:0:
376,95,64351,2,2,P|381:54|380:31,2,60,2|2|2,0:3|0:3|0:3,0:1:0:0:
399,149,64780,6,0,B|401:203|428:227|428:227|417:288,1,132.00000402832,6|10,0:3|0:2,0:0:0:0:
415,332,65208,1,2,0:2:0:0:
283,347,65494,1,2,0:2:0:0:
283,347,65637,2,0,P|251:336|219:331,1,66.0000020141602,10|10,0:2|0:3,0:0:0:0:
161,345,65922,6,0,P|108:362|17:326,1,132.00000402832,2|10,0:2|0:2,0:0:0:0:
1,293,66351,1,2,0:2:0:0:
30,164,66637,2,0,L|19:95,2,66.0000020141602,10|10|10,0:3|0:2|0:3,0:0:0:0:
80,196,67065,6,0,P|142:178|204:198,1,132.00000402832,2|10,0:3|0:2,0:0:0:0:
239,246,67494,1,2,0:2:0:0:
372,279,67780,1,10,0:3:0:0:
372,279,67922,2,0,P|416:273|445:272,1,66.0000020141602,10|10,0:2|0:3,0:0:0:0:
493,293,68208,6,0,P|489:227|488:161,1,132.00000402832,2|10,0:2|0:2,0:0:0:0:
505,103,68637,1,2,0:2:0:0:
398,26,68922,1,10,0:3:0:0:
346,57,69065,2,0,P|318:56|281:47,1,66.0000020141602,14|10,0:2|0:3,0:0:0:0:
224,26,69351,6,0,B|154:10|164:49|94:37,1,132.00000402832,2|10,0:2|0:2,0:0:0:0:
36,22,69780,1,2,0:2:0:0:
0,151,70065,1,8,0:3:0:0:
0,151,70208,2,0,P|7:181|12:223,1,66.0000020141602,10|10,0:2|0:3,0:0:0:0:
20,274,70494,6,0,B|73:316|73:316|124:277,1,132.00000402832,2|8,0:2|0:2,0:0:0:0:
149,222,70922,1,2,0:2:0:0:
253,141,71208,2,0,L|261:74,2,66.0000020141602,10|10|10,0:3|0:2|0:3,0:0:0:0:
274,196,71637,6,0,P|344:182|414:212,1,132.00000402832,2|10,0:2|0:2,0:0:0:0:
428,253,72065,1,2,0:2:0:0:
333,344,72351,1,10,0:3:0:0:
333,344,72494,2,0,P|294:338|260:337,1,66.0000020141602,10|10,0:2|0:3,0:0:0:0:
211,358,72780,5,2,0:2:0:0:
87,330,73065,1,8,0:2:0:0:
87,330,73208,1,2,0:2:0:0:
48,203,73494,2,0,L|54:123,2,66.0000020141602,10|10|10,0:3|0:2|0:3,0:0:0:0:
9,252,73922,5,14,0:3:0:0:
256,192,74034,12,2,75500,0:0:0:0:
290,335,80237,6,0,B|251:348|251:348|206:328,2,80.9999975280763,14|14|10,0:3|0:3|0:3,0:0:0:0:
362,226,81365,2,0,L|365:161,1,53.9999983520508,2|10,0:2|0:2,0:0:0:0:
400,118,81816,2,0,B|436:101|436:101|475:114,2,80.9999975280763,14|14|10,0:3|0:3|0:3,0:0:0:0:
278,156,82944,1,10,0:3:0:0:
214,167,83170,1,10,0:2:0:0:
152,143,83395,6,0,L|142:55,2,80.9999975280763,14|14|10,0:3|0:3|0:3,0:0:0:0:
198,264,84523,2,0,P|222:250|262:244,1,53.9999983520508,2|10,0:2|0:2,0:0:0:0:
307,269,84974,2,0,L|395:279,2,80.9999975280763,10|10|10,0:2|0:2|0:2,0:0:0:0:
210,355,86102,1,2,0:2:0:0:
145,356,86328,1,10,0:2:0:0:
88,323,86553,6,2,B|57:319|57:319|26:329|26:329|-23:327,2,90,14|14|10,0:3|0:3|0:3,0:1:0:0:
183,231,87681,2,0,P|189:198|173:150,1,60,2|10,0:2|0:2,0:0:0:0:
144,119,88132,2,2,B|140:88|140:88|150:57|150:57|148:8,2,90,14|14|10,0:3|0:3|0:3,0:1:0:0:
270,81,89260,2,2,P|297:69|327:65,1,60,10|10,0:3|0:2,0:1:0:0:
392,74,89711,5,14,0:3:0:0:
465,139,90049,1,14,0:3:0:0:
420,227,90388,2,0,P|409:281|411:309,1,60,10|14,0:3|0:2,0:1:0:0:
371,339,90839,2,2,L|296:334,1,60,10|8,0:3|0:2,0:1:0:0:
250,361,91290,1,14,0:3:0:0:
175,296,91628,1,14,0:3:0:0:
77,315,91967,2,0,P|43:314|12:294,1,60,2|12,0:2|0:2,0:0:0:0:
8,237,92418,2,0,L|3:173,1,60,10|10,0:3|0:2,0:0:0:0:
22,114,92869,5,14,0:3:0:0:
104,58,93207,1,10,0:3:0:0:
191,104,93546,2,0,P|223:103|267:83,1,60,10|14,0:3|0:2,0:0:0:0:
303,55,93997,2,0,P|331:45|361:45,1,60,8|14,0:3|0:2,0:0:0:0:
414,84,94448,2,0,L|513:67,2,90,14|10|10,0:3|0:3|0:3,0:0:0:0:
391,146,95350,1,10,0:2:0:0:
429,237,95688,1,2,0:2:0:0:
354,302,96027,6,0,L|248:295,2,90,14|10|10,0:3|0:3|0:3,0:0:0:0:
406,342,96929,1,14,0:2:0:0:
489,289,97267,1,2,0:2:0:0:
464,194,97606,2,0,L|468:101,2,90,10|8|2,0:3|0:2|0:2,0:0:0:0:
366,212,98621,2,0,P|330:198|253:191,1,90,2|10,0:3|0:3,0:0:0:0:
71,355,101365,6,0,L|63:243,1,96,14|8,0:3|0:2,0:0:0:0:
63,211,101793,1,10,0:3:0:0:
63,211,101936,1,2,0:3:0:0:
167,220,102222,2,0,P|191:219|218:211,1,48,10|2,0:2|0:2,0:0:0:0:
238,165,102507,2,0,L|246:53,1,96,10|8,0:3|0:2,0:0:0:0:
281,30,102936,1,10,0:3:0:0:
281,30,103079,1,2,0:2:0:0:
356,104,103365,2,0,L|359:151,1,48,10|8,0:0|0:0,0:0:0:0:
390,194,103650,6,0,P|426:182|486:180,2,96,2|10|2,0:2|0:2|0:2,0:0:0:0:
311,264,104507,2,0,L|258:259,1,48,10|2,0:2|0:2,0:0:0:0:
215,236,104793,2,0,P|200:177|206:129,2,96,10|10|2,0:3|0:2|0:2,0:0:0:0:
191,338,105650,2,0,P|160:329|138:324,1,48,10|8,0:2|0:2,0:0:0:0:
95,346,105936,6,0,P|46:355|1:312,1,96,10|8,0:3|0:2,0:0:0:0:
12,281,106365,1,10,0:3:0:0:
12,281,106507,1,2,0:2:0:0:
57,184,106793,2,0,P|64:162|67:138,1,48,10|2,0:2|0:2,0:0:0:0:
109,105,107079,2,0,P|154:96|194:121,1,96,10|8,0:3|0:2,0:0:0:0:
230,169,107507,1,10,0:3:0:0:
230,169,107650,2,0,P|269:194|315:185,1,96,2|8,0:2|0:2,0:0:0:0:
387,106,108222,5,10,0:3:0:0:
302,42,108507,2,0,L|246:33,1,48,10|10,0:2|0:3,0:0:0:0:
205,55,108793,1,2,0:2:0:0:
104,21,109079,2,0,L|48:30,1,48,10|2,0:2|0:2,0:0:0:0:
17,64,109365,1,10,0:3:0:0:
68,155,109650,1,10,0:2:0:0:
24,251,109936,2,0,B|24:272|31:286|31:286|22:297|22:297|24:311|24:311|18:330|25:358,1,96,10|10,0:2|0:2,0:0:0:0:
130,363,110507,6,0,P|159:347|246:345,1,102.000001945496,14|8,0:3|0:2,0:0:0:0:
336,363,111079,1,2,0:2:0:0:
433,306,111365,2,0,P|435:279|433:252,1,51.0000009727478,10|2,0:2|0:2,0:0:0:0:
420,200,111650,2,0,P|374:178|323:177,1,102.000001945496,10|8,0:3|0:2,0:0:0:0:
284,217,112079,1,10,0:3:0:0:
284,217,112222,2,0,L|165:206,1,102.000001945496,2|8,0:2|0:2,0:0:0:0:
122,112,112793,5,10,0:3:0:0:
208,40,113079,2,0,L|258:35,1,51.0000009727478,10|10,0:2|0:3,0:0:0:0:
313,48,113365,1,2,0:2:0:0:
422,26,113650,2,0,L|472:30,1,51.0000009727478,10|2,0:2|0:2,0:0:0:0:
502,78,113936,2,0,P|487:118|494:194,1,102.000001945496,10|10,0:3|0:2,0:0:0:0:
509,286,114507,1,2,0:2:0:0:
410,339,114793,1,10,0:2:0:0:
329,261,115079,6,0,P|276:235|217:254,1,102.000001945496,10|8,0:3|0:2,0:0:0:0:
205,289,115507,1,10,0:3:0:0:
205,289,115650,1,2,0:2:0:0:
150,190,115936,2,0,P|146:159|144:131,1,51.0000009727478,10|2,0:2|0:2,0:0:0:0:
132,83,116222,6,0,P|87:58|37:63,1,102.000001945496,10|8,0:3|0:2,0:0:0:0:
0,105,116650,1,10,0:3:0:0:
0,105,116793,2,0,L|-9:224,1,102.000001945496,2|8,0:2|0:2,0:0:0:0:
2,318,117365,5,10,0:3:0:0:
109,286,117650,2,0,P|140:280|163:280,1,51.0000009727478,14|10,0:2|0:3,0:0:0:0:
198,320,117936,1,2,0:2:0:0:
304,356,118222,2,0,P|329:355|354:349,1,51.0000009727478,14|2,0:2|0:2,0:0:0:0:
402,320,118507,1,10,0:2:0:0:
341,225,118793,1,10,0:2:0:0:
413,138,119079,2,0,L|422:29,1,102.000001945496,14|2,0:2|0:2,0:0:0:0:
321,100,119650,6,0,P|269:61|209:78,1,107.999996704102,14|10,0:3|0:2,0:0:0:0:
194,115,120079,1,10,0:3:0:0:
194,115,120222,1,2,0:2:0:0:
86,66,120507,2,0,L|29:58,1,53.9999983520508,10|2,0:2|0:2,0:0:0:0:
0,108,120793,2,0,P|11:138|10:234,1,107.999996704102,10|8,0:3|0:0,0:0:0:0:
8,272,121222,1,10,0:3:0:0:
8,271,121365,2,0,L|1:343,1,53.9999983520508,2|10,0:2|0:3,0:0:0:0:
118,354,121793,1,2,0:2:0:0:
118,354,121936,5,10,0:3:0:0:
228,309,122222,2,0,P|254:301|281:299,1,53.9999983520508,8|10,0:2|0:3,0:0:0:0:
328,333,122507,2,0,P|354:338|381:338,1,53.9999983520508,2|10,0:2|0:3,0:0:0:0:
476,266,122936,1,2,0:2:0:0:
405,171,123222,1,2,0:2:0:0:
477,78,123507,1,10,0:3:0:0:
477,78,123650,2,0,P|412:78|355:50,1,107.999996704102,2|10,0:2|0:2,0:0:0:0:
263,15,124222,5,10,0:3:0:0:
215,123,124507,2,0,B|209:187,1,53.9999983520508,14|10,0:2|0:3,0:0:0:0:
173,224,124793,2,0,P|143:216|108:215,1,53.9999983520508,2|10,0:2|0:3,0:0:0:0:
18,276,125222,1,2,0:2:0:0:
18,276,125365,1,10,0:3:0:0:
4,158,125650,2,0,B|-2:94,1,53.9999983520508,14|10,0:2|0:3,0:0:0:0:
28,51,125936,2,0,P|58:43|93:42,1,53.9999983520508,2|10,0:2|0:3,0:0:0:0:
196,69,126365,1,2,0:2:0:0:
196,69,126507,5,10,0:3:0:0:
288,143,126793,2,0,P|314:147|341:147,1,53.9999983520508,10|10,0:2|0:3,0:0:0:0:
386,107,127079,2,0,P|412:102|439:102,1,53.9999983520508,2|10,0:2|0:3,0:0:0:0:
485,199,127507,2,0,P|481:225|479:252,1,53.9999983520508,2|8,0:2|0:3,0:0:0:0:
504,301,127793,1,2,0:2:0:0:
412,358,128079,1,10,0:3:0:0:
115,325,128793,6,0,P|134:281|114:199,1,120,14|8,0:3|0:2,0:0:0:0:
77,171,129222,1,10,0:3:0:0:
77,171,129365,2,0,P|56:115|67:57,1,120,2|10,0:2|0:2,0:0:0:0:
179,106,129936,2,0,L|309:94,1,120,10|8,0:3|0:2,0:0:0:0:
351,64,130365,1,10,0:3:0:0:
351,64,130507,2,0,B|405:42|405:42|472:80,1,120,2|10,0:2|0:2,0:0:0:0:
503,184,131079,5,10,0:3:0:0:
402,249,131365,2,0,P|363:239|333:240,1,60,10|10,0:2|0:3,0:0:0:0:
291,268,131650,2,0,P|261:266|232:257,1,60,2|10,0:2|0:3,0:0:0:0:
158,162,132079,1,2,0:2:0:0:
45,204,132365,1,2,0:2:0:0:
50,324,132650,1,10,0:3:0:0:
50,324,132793,2,0,B|105:338|110:303|169:321,1,120,2|10,0:2|0:2,0:0:0:0:
283,353,133365,6,0,L|422:339,1,120,10|8,0:3|0:2,0:0:0:0:
449,303,133793,1,10,0:3:0:0:
449,303,133936,2,0,P|470:247|459:189,1,120,2|10,0:2|0:2,0:0:0:0:
346,238,134507,2,0,L|207:224,1,120,10|8,0:3|0:2,0:0:0:0:
174,250,134936,1,10,0:3:0:0:
174,250,135079,2,0,B|120:272|120:272|53:234,1,120,2|10,0:2|0:2,0:0:0:0:
12,133,135650,5,10,0:3:0:0:
131,121,135936,2,0,P|162:112|197:98,1,60,14|10,0:2|0:3,0:0:0:0:
242,76,136222,2,0,P|273:83|310:89,1,60,2|10,0:2|0:3,0:0:0:0:
360,77,136507,1,12,0:2:0:0:
460,142,136793,6,2,B|477:182|477:182|464:212|464:212|475:268,1,120,10|10,0:1|0:1,0:1:0:0:
415,361,137365,1,10,0:1:0:0:
297,340,137650,1,10,0:1:0:0:
280,221,137936,6,0,B|269:177|269:177|284:126|258:89,1,132.00000402832,6|10,0:3|0:2,0:0:0:0:
220,49,138365,1,2,0:2:0:0:
135,150,138650,1,2,0:2:0:0:
135,150,138793,2,0,L|129:218,1,66.0000020141602,10|10,0:2|0:3,0:0:0:0:
145,272,139079,6,0,P|79:294|15:263,1,132.00000402832,2|10,0:2|0:2,0:0:0:0:
11,212,139507,1,2,0:2:0:0:
47,86,139793,2,0,L|35:19,2,66.0000020141602,10|10|10,0:3|0:2|0:3,0:0:0:0:
97,118,140222,6,0,P|157:90|221:99,1,132.00000402832,2|10,0:3|0:2,0:0:0:0:
255,147,140650,1,2,0:2:0:0:
352,246,140936,1,10,0:3:0:0:
352,246,141079,2,0,P|396:243|424:233,1,66.0000020141602,10|10,0:2|0:3,0:0:0:0:
466,203,141365,6,0,L|475:61,1,132.00000402832,2|10,0:2|0:2,0:0:0:0:
448,17,141793,1,2,0:2:0:0:
328,71,142079,1,10,0:3:0:0:
281,34,142222,2,0,P|249:25|216:24,1,66.0000020141602,14|10,0:2|0:3,0:0:0:0:
174,66,142507,6,0,B|198:133|158:128|178:195,1,132.00000402832,2|10,0:2|0:2,0:0:0:0:
157,251,142936,1,2,0:2:0:0:
35,296,143222,1,8,0:3:0:0:
35,296,143365,2,0,P|29:254|29:221,1,66.0000020141602,10|10,0:2|0:3,0:0:0:0:
41,172,143650,6,0,B|65:105|25:110|45:43,1,132.00000402832,2|8,0:2|0:2,0:0:0:0:
101,22,144079,1,2,0:2:0:0:
217,83,144365,2,0,L|288:74,2,66.0000020141602,10|10|10,0:3|0:2|0:3,0:0:0:0:
176,126,144793,6,0,B|149:167|149:167|144:211|176:245,1,132.00000402832,2|10,0:2|0:2,0:0:0:0:
222,279,145222,1,2,0:2:0:0:
328,202,145507,1,10,0:3:0:0:
328,202,145650,2,0,P|360:196|393:194,1,66.0000020141602,10|10,0:2|0:3,0:0:0:0:
447,221,145936,5,10,0:2:0:0:
413,352,146222,1,8,0:2:0:0:
413,352,146365,2,0,P|353:335|261:342,1,132.00000402832,2|10,0:2|0:3,0:0:0:0:
226,352,146793,2,0,P|186:353|152:341,1,66.0000020141602,10|10,0:2|0:2,0:0:0:0:
112,310,147079,6,0,L|107:167,1,132.00000402832,14|14,0:3|0:2,0:0:0:0:
84,123,147507,1,2,0:2:0:0:
205,66,147793,1,10,0:3:0:0:
205,66,147936,2,0,P|245:69|283:56,1,66.0000020141602,10|10,0:2|0:3,0:0:0:0:
321,32,148222,6,0,P|384:20|441:51,1,132.00000402832,6|10,0:2|0:2,0:0:0:0:
463,106,148650,1,2,0:2:0:0:
428,219,148936,2,0,L|438:292,2,66.0000020141602,10|10|10,0:3|0:2|0:3,0:0:0:0:
380,182,149365,6,0,P|316:169|259:200,1,132.00000402832,14|8,0:3|0:2,0:0:0:0:
241,256,149793,1,2,0:2:0:0:
140,343,150079,1,10,0:3:0:0:
140,343,150222,2,0,P|108:334|75:333,1,66.0000020141602,10|10,0:2|0:3,0:0:0:0:
22,360,150507,6,0,L|14:217,1,132.00000402832,6|2,0:2|0:2,0:0:0:0:
8,168,150936,1,10,0:3:0:0:
80,58,151222,1,10,0:3:0:0:
80,58,151365,2,0,P|112:67|145:68,1,66.0000020141602,10|10,0:3|0:2,0:0:0:0:
199,44,151650,6,0,P|251:28|325:47,1,132.00000402832,14|14,0:3|0:2,0:0:0:0:
356,97,152079,1,2,0:2:0:0:
266,193,152365,1,10,0:3:0:0:
266,193,152507,2,0,P|260:235|260:268,1,66.0000020141602,14|10,0:2|0:3,0:0:0:0:
281,313,152793,6,0,B|348:296|345:335|415:322,1,132.00000402832,6|14,0:2|0:2,0:0:0:0:
460,289,153222,1,2,0:2:0:0:
428,161,153507,2,0,L|444:86,2,66.0000020141602,10|14|10,0:3|0:2|0:3,0:0:0:0:
383,200,153936,6,0,P|328:208|256:158,1,132.00000402832,14|14,0:3|0:2,0:0:0:0:
229,122,154365,1,2,0:2:0:0:
123,57,154650,1,10,0:3:0:0:
123,57,154793,2,0,P|91:51|49:59,1,66.0000020141602,14|10,0:2|0:3,0:0:0:0:
17,99,155079,5,6,0:2:0:0:
59,229,155365,1,14,0:2:0:0:
59,229,155507,2,0,B|78:251|87:274|87:274|71:319|92:360,1,132.00000402832,2|10,0:2|0:2,0:0:0:0:
148,362,155936,2,0,P|186:352|228:354,1,66.0000020141602,10|10,0:2|0:2,0:0:0:0:
276,354,156222,6,0,B|305:342|334:348|334:348|376:370|416:348,1,143.999995605469,6|8,0:3|0:2,0:0:0:0:
415,205,156793,2,0,B|375:184|333:206|333:206|304:212|275:200,1,143.999995605469,8|8,0:2|0:2,0:0:0:0:
218,67,157365,5,10,0:2:0:0:
75,83,157650,1,10,0:2:0:0:
46,223,157936,1,10,0:2:0:0:
170,293,158222,1,10,0:2:0:0:
275,200,158507,6,0,B|314:179|356:201|356:201|385:207|414:195,1,143.999995605469,14|8,0:3|0:2,0:0:0:0:
478,225,158936,1,10,0:3:0:0:
478,225,159079,2,0,B|507:266|507:266|517:319|487:356,1,143.999995605469,8|8,0:2|0:2,0:0:0:0:
353,302,159650,5,8,0:2:0:0:
222,358,159936,1,8,0:2:0:0:
89,305,160222,1,8,0:2:0:0:
32,174,160507,2,0,L|29:99,1,71.9999978027344,8|8,0:0|0:3,0:0:0:0:
53,42,160793,5,14,0:3:0:0:
190,18,161079,2,0,P|230:21|271:27,1,71.9999978027344,14|2,0:2|0:2,0:0:0:0:
319,57,161365,1,10,0:2:0:0:
458,24,161650,1,10,0:0:0:0:
491,163,161936,6,0,L|498:315,1,143.999995605469,8|8,0:0|0:0,0:0:0:0:
359,347,162507,2,0,L|352:195,1,143.999995605469,8|10,0:0|0:2,0:0:0:0:
313,150,162936,1,14,0:3:0:0:
263,108,163079,6,0,P|190:85|112:103,1,143.999995605469,14|8,0:0|0:2,0:0:0:0:
77,140,163507,1,8,0:3:0:0:
77,140,163650,1,8,0:2:0:0:
31,276,163936,2,0,P|68:273|116:270,1,71.9999978027344,8|8,0:2|0:3,0:0:0:0:
149,315,164222,6,0,P|216:339|286:328,1,143.999995605469,8|8,0:2|0:2,0:0:0:0:
327,277,164650,1,10,0:3:0:0:
376,234,164793,2,0,L|378:149,2,71.9999978027344,14|10|10,0:2|0:2|0:3,0:0:0:0:
426,275,165222,1,10,0:2:0:0:
256,96,165793,5,14,0:3:0:0:
