osu file format v14

[General]
AudioFilename: 06. Kagen no Tsuki.mp3
AudioLeadIn: 1000
PreviewTime: 75503
Countdown: 0
SampleSet: Soft
StackLeniency: 0.5
Mode: 0
LetterboxInBreaks: 0
WidescreenStoryboard: 0

[Editor]
DistanceSpacing: 1
BeatDivisor: 4
GridSize: 4
TimelineZoom: 1

[Metadata]
Title:Kagen no Tsuki
TitleUnicode:下弦の月
Artist:96Neko x KurousaP
ArtistUnicode:96猫×黒うさP
Creator:jonathanlfj
Version:Normal
Source:
Tags:waning moon Giralda Trust Raose captin1 月と星の虚構空間 WhiteFlame Tsuki to Hoshi no Kyokou Kuukan 一斗まる
BeatmapID:862367
BeatmapSetID:393343

[Difficulty]
HPDrainRate:3.5
CircleSize:3.3
OverallDifficulty:3.3
ApproachRate:4
SliderMultiplier:1.3
SliderTickRate:2

[Events]
//Background and Video events
0,0,"51728829_p0.jpg",0,0
Video,-750,"asdf.avi"
//Break Periods
2,2008,4727
2,97551,106466
2,191464,200379
//Storyboard Layer 0 (Background)
//Storyboard Layer 1 (Fail)
//Storyboard Layer 2 (Pass)
//Storyboard Layer 3 (Foreground)
//Storyboard Sound Samples

[TimingPoints]
830,652.173913043478,4,3,1,50,1,0
830,-83.3333333333333,4,3,1,50,0,0
8656,-71.4285714285714,4,2,1,60,0,0
11264,-71.4285714285714,4,2,1,70,0,0
34743,-83.3333333333333,4,2,1,60,0,0
76482,-66.6666666666667,4,2,1,80,0,1
97351,-71.4285714285714,4,2,1,70,0,0
107786,-76.9230769230769,4,2,1,60,0,0
149525,-66.6666666666667,4,2,1,80,0,1
170395,-71.4285714285714,4,2,1,70,0,0
191264,-83.3333333333333,4,2,1,50,0,0
208221,-74.0740740740741,4,2,1,70,0,0
209525,-66.6666666666667,4,2,1,80,0,1
229090,-71.4285714285714,4,2,1,70,0,0
233003,-71.4285714285714,4,2,1,70,0,0
253873,-76.9230769230769,4,2,1,60,0,0
256645,-83.3333333333333,4,2,1,20,0,0
264634,-83.3333333333333,4,2,1,5,0,0

[Colours]
Combo1 : 255,254,230
Combo2 : 196,146,250
Combo3 : 226,75,105
Combo4 : 122,134,241

[HitObjects]
220,80,830,54,0,L|236:160,1,77.999997619629
276,224,1482,2,0,L|260:304,1,77.999997619629,0|2,0:0|0:0,0:0:0:0:
144,184,6047,6,0,L|228:172,1,77.999997619629,0|0,0:0|0:0,0:0:0:0:
292,208,6699,2,0,L|380:228,1,77.999997619629,0|2,0:0|0:0,0:0:0:0:
56,296,8656,6,0,P|24:204|36:108,1,181.999994445801,8|8,1:0|1:0,0:0:0:0:
88,52,9634,1,0,0:0:0:0:
172,88,9960,2,0,P|219:95|276:92,2,90.9999972229005,8|8|10,0:0|1:0|0:0,0:0:0:0:
316,200,11264,6,0,P|368:132|368:36,1,181.999994445801,4|8,0:0|1:0,0:0:0:0:
460,36,12243,1,2,0:0:0:0:
456,128,12569,2,0,P|464:168|488:220,2,90.9999972229005,2|8|8,1:2|0:0|1:0,0:0:0:0:
300,224,13873,6,0,B|300:272|264:304|264:304|272:328|264:352,2,136.499995834351,10|2|0,0:0|0:0|0:0,0:0:0:0:
208,228,15177,2,0,P|156:224|108:200,1,90.9999972229005,2|10,1:2|0:0,0:0:0:0:
84,124,15829,2,0,P|108:72|140:48,1,90.9999972229005,8|2,1:0|0:0,0:0:0:0:
224,52,16482,6,0,P|288:72|408:44,1,181.999994445801,10|8,0:0|1:0,0:0:0:0:
464,112,17460,1,2,0:0:0:0:
392,168,17786,2,0,P|376:224|376:264,1,90.9999972229005,2|8,1:2|0:0,0:0:0:0:
420,336,18438,2,0,P|376:344|308:320,1,90.9999972229005,8|2,1:0|0:0,0:0:0:0:
284,256,19090,6,0,L|140:272,2,136.499995834351,10|2|2,0:0|0:0|0:0,0:0:0:0:
332,176,20395,2,0,B|336:132|336:132|316:72,1,90.9999972229005,0|10,1:0|0:0,0:0:0:0:
248,32,21047,1,8,1:0:0:0:
168,76,21373,1,8,0:3:0:0:
180,168,21699,6,0,P|108:144|84:40,1,181.999994445801,12|8,0:0|1:0,0:0:0:0:
168,76,22677,1,2,0:0:0:0:
252,112,23003,2,0,P|312:112|372:8,1,181.999994445801,2|8,1:2|1:0,0:0:0:0:
284,28,23982,1,2,0:0:0:0:
252,112,24308,6,0,P|241:172|248:264,2,136.499995834351,10|2|2,0:0|0:0|0:0,0:0:0:0:
192,44,25612,2,0,L|92:32,1,90.9999972229005,2|10,1:2|0:0,0:0:0:0:
36,100,26264,2,0,L|56:204,1,90.9999972229005,8|10,1:0|0:0,0:0:0:0:
104,264,26916,6,0,P|104:308|88:368,2,90.9999972229005,10|10|8,0:0|0:0|1:0,0:0:0:0:
144,180,27895,1,2,0:0:0:0:
196,256,28221,2,0,B|240:272|288:260|288:260|332:248|376:268,1,181.999994445801,2|8,1:2|1:0,0:0:0:0:
436,336,29199,1,2,0:0:0:0:
464,248,29525,6,0,P|464:176|440:64,1,181.999994445801,10|8,0:0|1:0,0:0:0:0:
372,8,30503,1,2,0:0:0:0:
292,52,30829,2,0,P|240:60|184:56,1,90.9999972229005,10|8,0:0|0:0,0:0:0:0:
144,132,31482,2,0,L|152:228,1,90.9999972229005,8|0,1:0|1:0,0:0:0:0:
212,288,32134,5,12,0:0:0:0:
212,288,34743,6,0,L|296:280,1,77.999997619629,2|0,0:0|0:0,0:0:0:0:
352,232,35395,2,0,L|432:236,1,77.999997619629,2|0,0:0|0:0,0:0:0:0:
472,304,36047,2,0,P|440:232|456:152,1,155.999995239258,2|0,0:0|0:0,0:0:0:0:
396,104,37025,1,0,0:0:0:0:
328,144,37351,6,0,L|248:140,2,77.999997619629,2|0|2,0:0|0:0|0:0,0:0:0:0:
368,212,38329,1,0,0:0:0:0:
316,272,38656,2,0,P|240:288|152:240,1,155.999995239258,2|2,0:0|0:0,0:0:0:0:
124,196,39634,1,2,0:0:0:0:
180,144,39960,6,0,P|180:104|160:60,1,77.999997619629,2|0,0:0|0:0,0:0:0:0:
92,44,40612,2,0,P|92:84|112:128,1,77.999997619629,2|0,0:0|0:0,0:0:0:0:
180,144,41264,2,0,L|340:132,1,155.999995239258,2|0,0:0|0:0,0:0:0:0:
396,184,42243,1,0,0:0:0:0:
344,240,42569,6,0,L|336:332,1,77.999997619629,2|0,0:0|0:0,0:0:0:0:
260,312,43221,2,0,L|266:234,1,77.999997619629,2|0,0:0|0:0,0:0:0:0:
224,168,43873,1,2,0:0:0:0:
148,168,44199,1,0,0:0:0:0:
108,236,44525,2,0,B|104:276|104:276|124:332,1,77.999997619629,2|0,0:0|0:0,0:0:0:0:
180,360,45177,6,0,L|272:356,2,77.999997619629,2|0|2,0:0|0:0|0:0,0:0:0:0:
116,311,46156,1,0,0:0:0:0:
188,280,46482,2,0,P|204:196|184:116,1,155.999995239258,2|0,0:0|0:0,0:0:0:0:
120,92,47460,1,0,0:0:0:0:
48,124,47786,6,0,P|32:208|52:288,1,155.999995239258,2|2,0:0|0:0,0:0:0:0:
116,311,48764,1,0,0:0:0:0:
188,280,49090,2,0,P|232:276|276:284,1,77.999997619629,2|0,0:0|0:0,0:0:0:0:
328,328,49743,2,0,P|368:327|412:320,1,77.999997619629,2|2,0:0|0:0,0:0:0:0:
460,264,50395,5,2,0:0:0:0:
448,188,50721,1,0,0:0:0:0:
376,160,51047,2,0,L|288:172,1,77.999997619629,2|0,0:0|0:0,0:0:0:0:
292,92,51699,2,0,B|388:80|388:80|420:88|440:112,1,155.999995239258,2|0,0:0|0:0,0:0:0:0:
448,188,52677,1,0,0:0:0:0:
388,240,53003,6,0,L|300:252,1,77.999997619629,2|0,0:0|0:0,0:0:0:0:
244,208,53656,2,0,L|152:196,1,77.999997619629,2|0,0:0|0:0,0:0:0:0:
104,248,54308,2,0,P|96:296|104:344,2,77.999997619629,2|0|2,0:0|0:0|0:0,0:0:0:0:
166,197,55286,1,0,0:0:0:0:
228,148,55612,6,0,P|236:100|228:52,1,77.999997619629,12|0,0:0|0:0,0:0:0:0:
296,24,56264,2,0,P|348:40|384:44,1,77.999997619629,0|10,0:0|0:0,0:0:0:0:
404,116,56916,2,0,B|380:152|380:152|388:280,1,155.999995239258,10|8,0:0|1:0,0:0:0:0:
392,344,57895,1,0,0:0:0:0:
324,308,58221,6,0,B|268:303|268:303|220:312|220:312|168:308,1,155.999995239258,10|0,0:0|0:0,0:0:0:0:
92,304,59199,1,8,0:0:0:0:
48,240,59525,2,0,P|40:180|40:148,1,77.999997619629,10|2,0:0|0:0,0:0:0:0:
72,92,60177,1,8,1:0:0:0:
72,92,60503,1,2,0:0:0:0:
144,124,60829,6,0,P|212:136|316:128,1,155.999995239258,10|0,0:0|0:0,0:0:0:0:
372,104,61808,1,8,0:0:0:0:
340,32,62134,2,0,P|276:28|252:32,1,77.999997619629,10|0,0:0|0:0,0:0:0:0:
204,84,62786,2,0,P|196:120|200:164,1,77.999997619629,8|0,1:0|0:0,0:0:0:0:
252,220,63438,6,0,P|168:192|100:204,1,155.999995239258,10|0,0:0|0:0,0:0:0:0:
48,260,64416,1,8,0:0:0:0:
104,316,64743,2,0,B|144:328|180:320|180:320|208:348,2,116.999996429443,8|8|8,0:3|0:3|0:3,0:0:0:0:
48,260,66047,6,0,L|40:172,1,77.999997619629,12|0,0:0|0:0,0:0:0:0:
80,116,66699,1,8,0:0:0:0:
156,108,67025,1,8,0:3:0:0:
212,164,67351,2,0,L|220:256,1,77.999997619629,10|8,0:0|0:3,0:0:0:0:
184,312,68003,2,0,P|220:320|280:292,1,77.999997619629,8|0,1:0|0:0,0:0:0:0:
296,240,68656,6,0,P|368:236|416:304,1,155.999995239258,12|8,0:0|0:0,0:0:0:0:
336,308,69634,1,8,0:3:0:0:
258,309,69960,2,0,P|232:284|216:224,1,77.999997619629,10|8,0:0|0:3,0:0:0:0:
253,176,70612,1,8,1:0:0:0:
330,168,70938,1,8,0:3:0:0:
376,232,71264,6,0,P|408:176|364:96,1,155.999995239258,12|2,0:0|0:0,0:0:0:0:
292,96,72243,2,0,L|200:108,1,77.999997619629,8|12,0:0|0:0,0:0:0:0:
136,240,73221,2,0,L|88:236,2,38.9999988098145,8|0|2,1:0|0:0|1:2,0:0:0:0:
192,292,73873,6,0,P|236:264|340:292,1,155.999995239258,12|0,0:0|0:0,0:0:0:0:
396,240,74851,2,0,P|404:200|404:136,1,77.999997619629,2|0,0:0|0:0,0:0:0:0:
356,104,75503,2,0,P|350:58|352:12,2,77.999997619629,2|2|2,0:0|0:0|0:0,0:0:0:0:
292,148,76482,6,0,P|196:160|112:112,1,195.00000743866,4|8,1:0|1:0,0:0:0:0:
80,24,77460,1,2,0:0:0:0:
20,100,77786,2,0,L|8:196,1,97.50000371933,2|8,1:2|0:0,0:0:0:0:
60,280,78438,1,8,1:0:0:0:
148,236,78764,1,2,0:0:0:0:
216,308,79090,6,0,P|264:308|328:292,1,97.50000371933,10|0,0:0|0:0,0:0:0:0:
360,212,79743,2,0,P|340:296|413:368,1,195.00000743866,8|2,1:0|1:2,0:0:0:0:
436,273,80721,1,8,0:0:0:0:
360,212,81047,2,0,P|312:200|260:208,1,97.50000371933,8|0,1:0|0:0,0:0:0:0:
192,272,81699,6,0,B|140:268|104:240|104:240|88:192|104:140,1,195.00000743866,10|8,0:0|1:0,0:0:0:0:
176,76,82677,1,2,0:0:0:0:
256,132,83003,2,0,P|320:136|360:128,1,97.50000371933,2|8,1:2|0:0,0:0:0:0:
424,196,83656,2,0,L|440:308,1,97.50000371933,8|2,1:0|0:0,0:0:0:0:
344,268,84308,6,0,L|328:380,2,97.50000371933,10|0|8,0:0|0:0|1:0,0:0:0:0:
280,196,85286,1,2,0:0:0:0:
200,248,85612,2,0,B|152:260|152:260|104:252,1,97.50000371933,2|8,1:2|0:0,0:0:0:0:
99,156,86264,2,0,B|146:143|146:143|194:151,1,97.50000371933,8|8,1:0|0:3,0:0:0:0:
280,196,86916,6,0,P|332:104|292:32,1,195.00000743866,6|8,0:0|1:0,0:0:0:0:
196,24,87895,1,2,0:0:0:0:
236,112,88221,2,0,P|304:128|392:36,1,195.00000743866,2|8,1:2|1:0,0:0:0:0:
472,104,89199,1,0,0:0:0:0:
416,184,89525,6,0,P|416:244|424:288,1,97.50000371933,10|0,0:0|0:0,0:0:0:0:
496,344,90177,2,0,B|448:328|400:340|400:340|352:352|304:336,1,195.00000743866,8|2,1:0|1:2,0:0:0:0:
228,272,91156,1,8,0:0:0:0:
248,176,91482,2,0,P|288:200|320:244,1,97.50000371933,8|0,1:0|0:0,0:0:0:0:
228,272,92134,6,0,P|160:220|173:113,1,195.00000743866,10|8,0:0|1:0,0:0:0:0:
256,80,93112,1,2,0:0:0:0:
345,119,93438,2,0,P|360:156|355:212,1,97.50000371933,2|8,1:2|0:0,0:0:0:0:
444,252,94090,2,0,P|456:144|416:52,1,195.00000743866,8|10,1:0|0:0,0:0:0:0:
336,24,95069,5,8,0:0:0:0:
256,80,95395,2,0,P|210:86|148:80,1,97.50000371933,8|2,1:0|0:0,0:0:0:0:
100,160,96047,2,0,L|112:260,1,97.50000371933,0|2,1:0|1:2,0:0:0:0:
196,308,96699,1,8,1:0:0:0:
256,232,97025,2,0,L|324:236,2,48.750001859665,8|8|4,1:0|1:0|1:0,0:0:0:0:
412,124,107786,6,0,L|404:212,1,84.4999961318971,10|8,0:0|0:0,0:0:0:0:
332,252,108438,2,0,L|232:244,1,84.4999961318971,8|0,1:0|0:0,0:0:0:0:
180,192,109090,2,0,P|192:296|140:336,1,168.999992263794,2|8,1:2|1:0,0:0:0:0:
120,252,110069,1,0,0:0:0:0:
100,172,110395,6,0,L|112:68,1,84.4999961318971,10|8,0:0|0:0,0:0:0:0:
184,44,111047,1,8,1:0:0:0:
244,104,111373,1,2,0:0:0:0:
308,48,111699,2,0,B|376:24|452:44|452:44|440:48|428:56,1,168.999992263794,2|8,1:2|1:0,0:0:0:0:
376,116,112677,1,2,0:0:0:0:
388,200,113003,6,0,L|404:300,1,84.4999961318971,10|8,0:0|0:0,0:0:0:0:
324,316,113656,2,0,L|310:232,1,84.4999961318971,8|2,1:0|0:0,0:0:0:0:
232,264,114308,2,0,P|160:256|108:172,1,168.999992263794,2|8,1:2|1:0,0:0:0:0:
124,96,115286,1,0,0:0:0:0:
44,124,115612,6,0,P|28:160|28:212,2,84.4999961318971,10|0|8,0:0|0:0|1:0,0:0:0:0:
124,96,116590,1,0,0:0:0:0:
188,152,116916,2,0,P|232:160|288:156,1,84.4999961318971,2|8,1:2|0:0,0:0:0:0:
340,108,117569,1,8,1:0:0:0:
396,268,118221,6,0,P|356:276|300:272,1,84.4999961318971,10|8,0:0|0:0,0:0:0:0:
244,328,118873,2,0,P|228:284|236:232,1,84.4999961318971,8|0,1:0|0:0,0:0:0:0:
296,192,119525,2,0,P|226:211|124:176,1,168.999992263794,2|8,1:2|1:0,0:0:0:0:
88,116,120503,1,0,0:0:0:0:
144,52,120829,6,0,P|213:32|316:68,1,168.999992263794,10|8,0:0|1:0,0:0:0:0:
352,128,121808,1,0,0:0:0:0:
296,192,122134,2,0,L|289:276,1,84.4999961318971,2|8,1:2|0:0,0:0:0:0:
372,292,122786,2,0,L|378:207,1,84.4999961318971,8|2,1:0|0:0,0:0:0:0:
352,128,123438,5,12,0:0:0:0:
352,128,123764,1,0,0:0:0:0:
296,192,124090,2,0,P|256:201|200:200,1,84.4999961318971,2|0,0:0|0:0,0:0:0:0:
144,152,124743,1,12,0:0:0:0:
144,152,125069,1,0,0:0:0:0:
76,200,125395,2,0,P|68:240|76:296,1,84.4999961318971,2|0,0:0|0:0,0:0:0:0:
132,344,126047,6,0,L|220:320,1,84.4999961318971,14|8,0:0|0:0,0:0:0:0:
298,321,126699,2,0,L|380:344,1,84.4999961318971,8|8,1:0|0:0,0:0:0:0:
456,304,127351,2,0,B|468:264|468:264|444:232|444:232|464:192|448:144,1,168.999992263794,8|8,1:0|0:0,0:0:0:0:
372,184,128329,1,8,0:0:0:0:
296,220,128656,6,0,P|292:160|380:100,1,168.999992263794,2|2,1:2|0:0,0:0:0:0:
348,20,129634,2,0,P|304:32|256:64,2,84.4999961318971,0|2|0,1:0|1:2|1:0,0:0:0:0:
432,40,130612,1,2,0:0:0:0:
432,40,131264,6,0,L|444:216,1,168.999992263794,2|2,1:2|0:0,0:0:0:0:
380,268,132243,2,0,L|372:360,2,84.4999961318971,0|2|0,1:0|1:2|1:0,0:0:0:0:
316,212,133221,1,2,0:3:0:0:
232,228,133547,1,0,0:0:0:0:
188,300,133873,6,0,L|204:124,1,168.999992263794,2|2,1:2|0:0,0:0:0:0:
152,64,134851,2,0,P|128:96|120:152,2,84.4999961318971,0|2|0,1:0|1:2|1:0,0:0:0:0:
236,56,135829,1,2,0:0:0:0:
288,124,136156,1,0,0:0:0:0:
252,200,136482,6,0,P|264:280|336:344,1,168.999992263794,2|2,1:2|0:0,0:0:0:0:
408,356,137460,1,0,1:0:0:0:
483,317,137786,2,0,B|488:276|488:276|511:227,1,84.4999961318971,2|0,1:2|1:0,0:0:0:0:
441,183,138438,2,0,B|434:142|434:142|408:108,1,84.4999961318971,8|8,1:0|0:3,0:0:0:0:
360,177,139090,5,4,1:2:0:0:
456,40,139743,1,10,0:0:0:0:
372,32,140069,2,0,L|280:24,2,84.4999961318971,2|10|0,0:0|1:2|1:0,0:0:0:0:
408,108,141047,2,0,P|386:145|382:196,1,84.4999961318971,8|0,1:0|0:0,0:0:0:0:
464,171,141699,5,12,0:0:0:0:
298,204,142351,1,10,0:0:0:0:
298,204,142677,1,2,0:0:0:0:
225,160,143003,2,0,P|218:123|229:72,1,84.4999961318971,2|0,1:2|1:0,0:0:0:0:
301,36,143656,2,0,P|307:77|299:118,1,84.4999961318971,8|10,1:0|0:0,0:0:0:0:
225,160,144308,6,0,B|163:172|102:137|102:137|78:180,1,168.999992263794,12|0,0:0|0:0,0:0:0:0:
75,257,145286,1,10,0:0:0:0:
131,320,145612,1,12,0:0:0:0:
260,208,146264,2,0,L|304:212,2,42.2499980659486,8|0|2,1:0|0:0|1:2,0:0:0:0:
184,172,146916,6,0,P|172:72|216:24,1,168.999992263794,12|0,0:0|0:0,0:0:0:0:
298,25,147895,2,0,P|328:52|346:92,1,84.4999961318971,2|8,0:0|0:0,0:0:0:0:
324,172,148547,2,0,P|360:172|420:136,1,84.4999961318971,8|8,1:0|0:3,0:0:0:0:
472,200,149199,1,8,1:0:0:0:
424,268,149525,6,0,P|328:284|224:260,1,195.00000743866,4|8,1:0|1:0,0:0:0:0:
168,192,150503,1,2,0:0:0:0:
72,212,150829,2,0,P|52:244|44:308,1,97.50000371933,2|8,1:2|0:0,0:0:0:0:
140,284,151482,1,8,1:0:0:0:
168,192,151808,1,0,0:0:0:0:
100,120,152134,6,0,P|52:108|-12:108,1,97.50000371933,10|0,0:0|0:0,0:0:0:0:
40,16,152786,2,0,B|108:20|168:52|168:52|196:36|228:36,1,195.00000743866,8|2,1:0|1:2,0:0:0:0:
308,88,153764,1,8,0:0:0:0:
220,132,154090,2,0,P|204:164|204:244,1,97.50000371933,8|2,1:0|0:0,0:0:0:0:
264,300,154743,6,0,P|336:280|288:196,1,195.00000743866,10|8,0:0|1:0,0:0:0:0:
199,224,155721,1,2,0:0:0:0:
108,256,156047,2,0,L|92:356,1,97.50000371933,2|8,1:2|0:0,0:0:0:0:
12,300,156699,2,0,L|27:203,1,97.50000371933,8|2,1:0|0:0,0:0:0:0:
116,160,157351,6,0,L|100:63,2,97.50000371933,10|0|8,0:0|0:0|1:0,0:0:0:0:
196,216,158329,1,2,0:0:0:0:
280,268,158656,2,0,B|292:220|292:220|284:160,1,97.50000371933,2|8,1:2|0:0,0:0:0:0:
196,216,159308,2,0,B|184:264|184:264|192:324,1,97.50000371933,8|8,1:0|0:3,0:0:0:0:
272,364,159960,6,0,P|364:320|364:224,1,195.00000743866,12|8,0:0|1:0,0:0:0:0:
288,184,160938,1,2,0:0:0:0:
195,215,161264,2,0,P|193:166|212:122,1,97.50000371933,2|0,1:2|0:0,0:0:0:0:
304,88,161916,2,0,P|349:110|384:160,1,97.50000371933,8|2,1:0|0:0,0:0:0:0:
288,184,162569,5,10,0:0:0:0:
212,122,162895,1,0,0:0:0:0:
224,24,163221,2,0,B|164:32|164:32|100:76|116:152,1,195.00000743866,8|2,1:0|1:2,0:0:0:0:
188,216,164199,1,8,0:0:0:0:
264,156,164525,2,0,P|320:148|380:152,1,97.50000371933,8|0,1:0|0:0,0:0:0:0:
432,216,165177,6,0,B|452:264|432:312|432:312|388:336|336:312,1,195.00000743866,10|8,0:0|1:0,0:0:0:0:
256,260,166156,1,2,0:0:0:0:
172,313,166482,2,0,P|136:324|72:312,1,97.50000371933,2|8,1:2|0:0,0:0:0:0:
124,228,167134,2,0,P|128:116|88:40,1,195.00000743866,8|10,1:0|0:0,0:0:0:0:
20,108,168112,5,8,0:0:0:0:
8,204,168438,2,0,L|24:312,1,97.50000371933,8|2,1:0|0:0,0:0:0:0:
116,328,169090,2,0,P|164:316|224:320,2,97.50000371933,0|2|8,1:0|1:2|1:0,0:0:0:0:
22,300,170069,1,8,1:0:0:0:
96,232,170395,6,0,P|106:190|108:132,1,90.9999972229005,4|8,1:0|0:0,0:0:0:0:
52,72,171047,2,0,P|148:96|200:88,1,136.499995834351,8|10,1:0|0:0,0:0:0:0:
264,44,171862,2,0,P|344:36|404:44,1,136.499995834351,8|8,1:0|1:0,0:0:0:0:
472,100,172677,1,2,0:0:0:0:
420,176,173003,6,0,P|412:220|412:272,2,90.9999972229005,10|8|8,0:0|0:0|1:0,0:0:0:0:
348,120,173982,1,0,0:0:0:0:
284,184,174308,2,0,P|272:264|276:340,2,136.499995834351,2|2|8,0:0|0:0|1:0,0:0:0:0:
216,124,175612,6,0,B|172:112|172:112|120:116,1,90.9999972229005,12|8,0:0|0:0,0:0:0:0:
56,172,176264,2,0,B|44:264|44:264|64:320,1,136.499995834351,8|10,1:0|0:0,0:0:0:0:
136,256,177079,2,0,B|225:271|225:271|280:256,1,136.499995834351,8|8,1:0|1:0,0:0:0:0:
220,180,177895,1,2,0:0:0:0:
292,124,178221,6,0,P|304:84|308:24,1,90.9999972229005,10|8,0:0|0:0,0:0:0:0:
400,24,178873,2,0,P|416:57|428:128,1,90.9999972229005,8|2,1:0|0:0,0:0:0:0:
368,180,179525,2,0,P|364:252|412:304,2,136.499995834351,2|2|8,0:0|0:0|1:0,0:0:0:0:
452,220,180829,6,0,B|412:240|412:240|260:252,1,181.999994445801,4|8,1:0|1:0,0:0:0:0:
204,192,181808,1,8,0:0:0:0:
140,256,182134,2,0,P|116:176|196:100,1,181.999994445801,0|8,0:0|1:0,0:0:0:0:
264,124,183112,6,0,L|324:120,2,45.4999986114502,2|0|12,0:0|0:0|0:0,0:0:0:0:
204,192,183764,1,0,0:0:0:0:
276,244,184090,2,0,L|392:236,1,90.9999972229005,8|2,1:0|0:0,0:0:0:0:
432,176,184743,2,0,P|456:244|448:280,1,90.9999972229005,2|8,1:2|0:0,0:0:0:0:
388,324,185395,2,0,L|384:380,2,45.4999986114502,8|8|2,1:0|0:0|0:0,0:0:0:0:
324,260,186047,5,12,0:0:0:0:
256,320,186373,2,0,P|210:317|171:295,1,90.9999972229005,8|8,0:0|1:0,0:0:0:0:
100,354,187025,2,0,P|80:290|156:206,1,181.999994445801,12|8,0:0|1:0,0:0:0:0:
237,227,188003,2,0,P|234:182|208:138,1,90.9999972229005,8|8,1:0|0:0,0:0:0:0:
124,118,188656,5,8,0:0:0:0:
60,182,188982,2,0,P|68:254|124:296,2,136.499995834351,12|12|12,1:0|1:0|1:0,0:0:0:0:
147,207,190286,1,0,1:0:0:0:
220,152,190612,1,0,1:0:0:0:
288,212,190938,1,0,1:0:0:0:
352,148,191264,5,2,0:3:0:0:
112,284,201699,6,0,B|172:284|224:252|224:252|272:288|272:288|328:276,1,233.999992858887,2|0,0:0|0:0,0:0:0:0:
376,216,203003,2,0,P|372:140|324:60,1,155.999995239258,2|2,0:3|0:0,0:0:0:0:
256,56,203982,1,2,0:0:0:0:
196,108,204308,6,0,P|180:72|184:24,1,77.999997619629,2|0,0:0|0:0,0:0:0:0:
256,56,204960,2,0,P|256:156|200:188,1,155.999995239258,2|2,0:0|0:0,0:0:0:0:
68,228,206264,2,0,P|60:180|68:140,1,77.999997619629,2|0,0:0|0:0,0:0:0:0:
102,83,206916,5,2,0:0:0:0:
256,356,208221,1,0,1:0:0:0:
256,356,208547,1,0,1:0:0:0:
256,268,208873,2,0,L|256:164,1,87.7500003347397,2|2,0:0|0:0,0:0:0:0:
176,140,209525,6,0,P|256:92|336:140,1,195.00000743866,12|8,1:0|1:0,0:0:0:0:
360,232,210503,1,2,0:0:0:0:
300,308,210829,2,0,B|248:320|204:300|204:300|156:280|108:296,1,195.00000743866,2|8,1:2|1:0,0:0:0:0:
36,360,211808,1,2,0:0:0:0:
16,264,212134,6,0,P|20:211|40:160,1,97.50000371933,10|0,0:0|0:0,0:0:0:0:
128,140,212786,2,0,P|228:172|300:104,1,195.00000743866,8|2,1:0|1:2,0:0:0:0:
204,76,213764,1,8,0:0:0:0:
128,140,214090,2,0,P|113:181|116:248,1,97.50000371933,8|2,1:0|0:0,0:0:0:0:
168,316,214743,6,0,B|228:304|228:304|296:320|296:320|360:308,1,195.00000743866,10|8,0:0|1:0,0:0:0:0:
428,240,215721,1,2,0:0:0:0:
348,184,216047,2,0,B|332:136|332:136|340:76,2,97.50000371933,2|8|8,1:2|0:0|1:0,0:0:0:0:
428,240,217025,1,2,0:0:0:0:
496,172,217351,6,0,B|502:125|502:125|486:77,1,97.50000371933,10|0,0:0|0:0,0:0:0:0:
408,20,218003,1,8,1:0:0:0:
338,89,218329,1,2,0:0:0:0:
256,36,218656,2,0,L|148:32,1,97.50000371933,2|8,1:2|0:0,0:0:0:0:
120,120,219308,2,0,L|217:123,1,97.50000371933,8|8,1:0|0:3,0:0:0:0:
300,176,219960,6,0,P|316:284|256:344,1,195.00000743866,12|8,0:0|1:0,0:0:0:0:
188,280,220938,1,2,0:0:0:0:
112,340,221264,2,0,P|96:296|104:228,1,97.50000371933,2|8,1:2|0:0,0:0:0:0:
172,184,221916,1,8,1:0:0:0:
264,220,222243,1,2,0:0:0:0:
336,156,222569,6,0,P|344:132|332:56,1,97.50000371933,10|8,0:0|0:0,0:0:0:0:
248,108,223221,2,0,P|264:220|336:256,1,195.00000743866,8|2,1:0|1:2,0:0:0:0:
416,212,224199,1,8,0:0:0:0:
500,264,224525,2,0,P|508:292|508:320,2,48.750001859665,8|8|10,1:0|0:3|0:0,0:0:0:0:
412,308,225177,6,0,B|380:320|352:348|352:348|296:328|228:332,1,195.00000743866,12|8,0:0|1:0,0:0:0:0:
140,360,226156,1,2,0:0:0:0:
52,320,226482,2,0,P|32:264|32:204,1,97.50000371933,2|8,1:2|0:0,0:0:0:0:
80,144,227134,2,0,P|152:144|220:44,1,195.00000743866,8|10,1:0|0:0,0:0:0:0:
304,100,228112,5,8,0:0:0:0:
256,184,228438,2,0,B|220:260|240:340|240:340|256:308,1,195.00000743866,8|4,1:0|0:0,0:0:0:0:
256,192,229253,12,8,231699,0:0:0:0:
392,56,233003,6,0,L|288:44,1,90.9999972229005,12|8,0:0|0:0,0:0:0:0:
210,45,233656,2,0,L|120:56,1,90.9999972229005,8|2,1:0|0:0,0:0:0:0:
164,136,234308,2,0,B|256:124|256:124|344:136,1,181.999994445801,2|8,1:2|1:0,0:0:0:0:
320,316,235612,6,0,P|256:332|188:316,2,136.499995834351,10|2|0,0:0|0:0|0:0,0:0:0:0:
376,244,236916,1,2,1:2:0:0:
344,160,237243,1,10,0:0:0:0:
256,144,237569,2,0,L|152:160,1,90.9999972229005,8|2,1:0|0:0,0:0:0:0:
120,236,238221,6,0,L|30:222,2,90.9999972229005,10|8|8,0:0|0:0|1:0,0:0:0:0:
192,288,239199,1,2,0:0:0:0:
240,212,239525,2,0,P|324:184|428:212,1,181.999994445801,2|8,1:2|1:0,0:0:0:0:
468,276,240503,1,2,0:0:0:0:
408,344,240829,6,0,B|368:368|320:360|320:360|284:320,2,136.499995834351,10|2|2,0:0|0:0|0:0,0:0:0:0:
468,276,242134,2,0,L|460:164,1,90.9999972229005,0|10,1:0|0:0,0:0:0:0:
388,128,242786,1,8,1:0:0:0:
320,188,243112,1,8,0:3:0:0:
244,140,243438,6,0,P|232:88|236:32,1,90.9999972229005,12|8,0:0|0:0,0:0:0:0:
148,12,244090,2,0,P|104:40|52:52,1,90.9999972229005,8|2,1:0|0:0,0:0:0:0:
40,140,244743,2,0,P|132:152|188:228,1,181.999994445801,2|8,1:2|1:0,0:0:0:0:
184,308,245721,1,2,0:0:0:0:
264,264,246047,6,0,L|408:256,2,136.499995834351,10|2|2,0:0|0:0|0:0,0:0:0:0:
184,308,247351,1,2,1:2:0:0:
124,240,247677,1,10,0:0:0:0:
176,164,248003,2,0,B|276:156,1,90.9999972229005,8|10,1:0|0:0,0:0:0:0:
336,96,248656,6,0,B|344:52|344:52|336:4,2,90.9999972229005,12|10|8,0:0|0:0|1:0,0:0:0:0:
266,156,249634,1,2,0:0:0:0:
196,100,249960,2,0,P|180:180|256:246,1,181.999994445801,8|8,1:2|1:0,0:0:0:0:
332,216,250938,1,2,0:0:0:0:
376,296,251264,6,0,B|396:332|396:332|468:300|480:224,1,181.999994445801,10|8,0:0|1:0,0:0:0:0:
472,136,252243,1,2,0:0:0:0:
415,64,252569,2,0,L|303:48,1,90.9999972229005,2|10,1:2|0:0,0:0:0:0:
234,60,253221,2,0,P|246:96|294:136,1,90.9999972229005,8|8,1:0|1:0,0:0:0:0:
224,200,253873,6,0,B|178:168|155:109|155:109|90:202|128:304|223:358|329:340|378:237|378:237|315:246|266:224,1,675.999969055177,4|2,0:0|0:3,0:0:0:0:
256,192,256645,12,0,264634,0:0:0:0:
