osu file format v14

[General]
AudioFilename: 06. Kagen no Tsuki.mp3
AudioLeadIn: 1000
PreviewTime: 75503
Countdown: 0
SampleSet: Soft
StackLeniency: 0.5
Mode: 0
LetterboxInBreaks: 0
WidescreenStoryboard: 0

[Editor]
DistanceSpacing: 0.5
BeatDivisor: 8
GridSize: 4
TimelineZoom: 1

[Metadata]
Title:Kagen no Tsuki
TitleUnicode:下弦の月
Artist:96Neko x KurousaP
ArtistUnicode:96猫×黒うさP
Creator:jonathanlfj
Version:Countless
Source:
Tags:waning moon Giralda Trust Raose captin1 月と星の虚構空間 WhiteFlame Tsuki to Hoshi no Kyokou Kuukan 一斗まる
BeatmapID:856125
BeatmapSetID:393343

[Difficulty]
HPDrainRate:6.5
CircleSize:4
OverallDifficulty:8
ApproachRate:9
SliderMultiplier:1.8
SliderTickRate:2

[Events]
//Background and Video events
0,0,"51728829_p0.jpg",0,0
Video,-750,"asdf.avi"
//Break Periods
2,2008,5447
2,97551,107186
2,191464,201099
//Storyboard Layer 0 (Background)
//Storyboard Layer 1 (Fail)
//Storyboard Layer 2 (Pass)
//Storyboard Layer 3 (Foreground)
//Storyboard Sound Samples

[TimingPoints]
830,652.173913043478,4,3,1,50,1,0
8656,-62.5,4,2,1,60,0,0
11264,-55.5555555555556,4,2,1,70,0,0
32134,-100,4,2,1,70,0,0
34743,-83.3333333333333,4,2,1,60,0,0
71264,-100,4,2,1,60,0,0
75503,-80,4,2,1,65,0,0
75829,-66.6666666666667,4,2,1,70,0,0
76156,-57.1428571428571,4,2,1,75,0,0
76482,-50,4,2,1,80,0,1
97351,-55.5555555555556,4,2,1,70,0,0
107786,-76.9230769230769,4,2,1,60,0,0
123438,-83.3333333333333,4,2,1,60,0,0
127351,-71.4285714285714,4,2,1,60,0,0
128656,-100,4,2,1,60,0,0
139090,-83.3333333333333,4,2,1,60,0,0
144308,-100,4,2,1,60,0,0
148547,-80,4,2,1,65,0,0
148873,-66.6666666666667,4,2,1,70,0,0
149199,-57.1428571428571,4,2,1,75,0,0
149525,-50,4,2,1,80,0,1
170395,-55.5555555555556,4,2,1,70,0,0
191264,-100,4,2,1,50,0,0
208221,-66.6666666666667,4,2,1,70,0,0
208873,-57.1428571428571,4,2,1,75,0,0
209525,-50,4,2,1,80,0,1
229090,-50,4,2,1,70,0,0
233003,-55.5555555555556,4,2,1,70,0,0
253873,-100,4,2,1,60,0,0
256482,-100,4,2,1,60,0,0
256645,-100,4,2,1,20,0,0
264634,-100,4,2,1,5,0,0

[Colours]
Combo1 : 255,254,230
Combo2 : 196,146,250
Combo3 : 226,75,105
Combo4 : 122,134,241

[HitObjects]
128,128,830,38,0,L|218:121,1,90
384,256,1482,2,0,L|295:264,1,90,0|2,0:0|0:0,0:0:0:0:
160,320,6047,6,0,L|178:232,1,90
352,64,6699,2,0,L|335:153,1,90,0|2,0:0|0:0,0:0:0:0:
64,96,8656,6,0,P|132:56|196:60,1,144,8|8,1:0|0:0,0:0:0:0:
256,140,9145,1,8,0:0:0:0:
399,123,9308,2,0,L|227:143,1,144,8|0,1:0|0:0,0:0:0:0:
188,216,9797,1,8,1:0:0:0:
280,308,9960,2,0,L|288:228,1,72,8|0,0:0|0:0,0:0:0:0:
152,52,10286,2,0,L|160:132,1,72,8|8,1:0|0:0,0:0:0:0:
96,192,10531,1,0,0:0:0:0:
96,192,10612,2,0,B|59:199|59:199|16:200,1,72,10|8,0:0|0:0,0:0:0:0:
264,28,10938,2,0,B|304:32|304:32|348:52,1,72,8|8,1:0|0:0,0:0:0:0:
331,241,11264,6,0,P|227:249|179:201,1,161.999995056153,4|8,0:0|0:0,0:0:0:0:
376,152,11753,1,0,0:0:0:0:
432,264,11916,2,0,P|443:303|444:356,1,80.9999975280763,8|0,1:0|0:0,0:0:0:0:
272,160,12243,2,0,P|277:115|304:72,1,80.9999975280763,2|0,0:0|0:0,0:0:0:0:
488,24,12569,1,2,1:2:0:0:
376,152,12732,1,8,1:0:0:0:
216,28,12895,2,0,P|172:16|112:20,1,80.9999975280763,8|0,0:0|0:0,0:0:0:0:
72,220,13221,2,0,B|120:216|120:216|160:188|164:112,1,161.999995056153,8|0,1:0|0:0,0:0:0:0:
400,336,13873,6,0,B|352:332|352:332|312:304|308:228,1,161.999995056153,10|8,0:0|0:0,0:0:0:0:
412,80,14362,1,2,0:0:0:0:
412,80,14525,2,0,P|446:153|444:240,1,161.999995056153,8|0,1:0|0:0,0:0:0:0:
252,76,15014,1,2,0:0:0:0:
388,56,15177,1,2,1:2:0:0:
292,196,15340,1,8,1:0:0:0:
144,72,15503,2,0,B|240:76,1,80.9999975280763,10|0,0:0|0:0,0:0:0:0:
380,240,15829,2,0,P|312:292|228:272,1,161.999995056153,8|2,1:0|0:0,0:0:0:0:
240,280,16482,5,10,0:0:0:0:
372,72,16808,1,8,0:0:0:0:
480,340,17134,1,8,1:0:0:0:
212,200,17460,1,2,0:0:0:0:
480,52,17786,2,0,B|480:92|480:92|464:132,1,80.9999975280763,2|8,1:2|1:0,0:0:0:0:
292,196,18112,2,0,L|128:204,2,161.999995056153,8|8|2,0:0|1:0|0:0,0:0:0:0:
344,112,18927,1,0,0:0:0:0:
280,36,19090,6,0,B|200:40|200:40|104:20,1,161.999995056153,10|8,0:0|0:0,0:0:0:0:
344,112,19579,1,2,0:0:0:0:
292,196,19743,2,0,L|284:284,1,80.9999975280763,8|0,1:0|0:0,0:0:0:0:
428,172,20069,2,0,P|444:100|396:24,1,161.999995056153,2|0,0:0|1:0,0:0:0:0:
208,156,20558,1,8,1:0:0:0:
280,244,20721,2,0,P|322:251|364:252,1,80.9999975280763,10|0,0:0|0:0,0:0:0:0:
292,96,21047,5,8,1:0:0:0:
140,232,21210,1,8,1:0:0:0:
312,340,21373,1,8,0:3:0:0:
228,172,21536,1,8,0:0:0:0:
44,268,21699,6,0,P|120:328|204:312,1,161.999995056153,12|8,0:0|0:0,0:0:0:0:
256,260,22188,1,0,0:0:0:0:
417,252,22351,2,0,L|249:260,1,161.999995056153,8|2,1:0|0:0,0:0:0:0:
388,160,22840,1,0,0:0:0:0:
360,340,23003,1,2,1:2:0:0:
456,252,23166,1,8,1:0:0:0:
296,160,23329,2,0,P|285:117|284:72,1,80.9999975280763,8|0,0:0|0:0,0:0:0:0:
480,16,23656,2,0,P|477:60|464:112,1,80.9999975280763,8|0,1:0|0:0,0:0:0:0:
180,104,23982,2,0,P|184:56|200:8,1,80.9999975280763,2|0,0:0|0:0,0:0:0:0:
364,208,24308,6,0,P|380:272|348:368,1,161.999995056153,10|8,0:0|0:0,0:0:0:0:
280,152,24797,1,2,0:0:0:0:
188,192,24960,2,0,P|176:236|180:284,1,80.9999975280763,8|0,1:0|0:0,0:0:0:0:
280,152,25286,1,2,0:0:0:0:
100,144,25449,1,0,0:0:0:0:
272,248,25612,2,0,B|312:256|312:256|360:248,1,80.9999975280763,2|8,1:2|1:0,0:0:0:0:
476,116,25938,2,0,B|436:104|436:104|384:100,1,80.9999975280763,10|0,0:0|0:0,0:0:0:0:
172,248,26264,2,0,B|180:336,1,80.9999975280763,8|0,1:0|0:0,0:0:0:0:
292,92,26590,2,0,B|300:4,1,80.9999975280763,10|0,0:0|0:0,0:0:0:0:
272,248,26916,5,10,0:0:0:0:
120,76,27243,1,10,0:0:0:0:
428,148,27569,1,8,1:0:0:0:
204,372,27895,1,2,0:0:0:0:
264,76,28221,1,2,1:2:0:0:
336,140,28384,1,8,1:0:0:0:
244,172,28547,1,8,0:0:0:0:
244,172,28873,5,8,1:0:0:0:
356,48,29036,1,0,0:0:0:0:
320,236,29199,1,2,0:0:0:0:
172,108,29362,1,0,0:0:0:0:
336,140,29525,6,0,P|396:132|448:40,1,161.999995056153,10|8,0:0|0:0,0:0:0:0:
264,76,30014,1,0,0:0:0:0:
212,192,30177,2,0,P|212:236|220:272,1,80.9999975280763,8|0,1:0|0:0,0:0:0:0:
428,304,30503,2,0,P|424:260|412:220,1,80.9999975280763,2|8,0:0|0:0,0:0:0:0:
356,168,30748,1,0,0:0:0:0:
356,168,30829,2,0,P|300:192|212:132,1,161.999995056153,10|8,0:0|0:0,0:0:0:0:
217,145,31482,2,0,L|199:224,1,80.9999975280763,8|8,1:0|0:0,0:0:0:0:
40,104,31808,2,0,L|57:24,1,80.9999975280763,0|8,1:0|1:0,0:0:0:0:
308,124,32134,6,0,B|268:308,1,180,12|0,0:0|0:0,0:0:0:0:
164,144,33112,1,2,0:0:0:0:
352,48,33438,2,0,P|408:76|380:172,1,180,2|0,0:0|0:0,0:0:0:0:
26,204,34743,6,0,L|40:312,1,107.999996704102,2|0,0:0|0:0,0:0:0:0:
272,124,35395,2,0,L|282:16,1,107.999996704102,2|0,0:0|0:0,0:0:0:0:
424,236,36047,2,0,B|376:216|320:232|320:232|264:248|212:228,1,215.999993408203,2|0,0:0|0:0,0:0:0:0:
368,340,37025,1,0,0:0:0:0:
488,144,37351,6,0,P|488:88|472:24,1,107.999996704102,2|0,0:0|0:0,0:0:0:0:
172,216,38003,2,0,P|172:272|188:324,1,107.999996704102,2|0,0:0|0:0,0:0:0:0:
288,128,38656,1,2,0:0:0:0:
32,180,38982,1,0,0:0:0:0:
320,252,39308,1,2,0:0:0:0:
156,20,39634,1,2,0:0:0:0:
112,312,39960,6,0,L|132:192,1,107.999996704102,2|0,0:0|0:0,0:0:0:0:
408,280,40612,2,0,B|356:292|356:292|300:287,1,107.999996704102,2|0,0:0|0:0,0:0:0:0:
100,96,41264,2,0,B|172:104|172:104|228:140|228:140|304:148,1,215.999993408203,2|0,0:0|0:0,0:0:0:0:
268,36,42243,1,0,0:0:0:0:
129,205,42569,6,0,L|133:313,1,107.999996704102,2|0,0:0|0:0,0:0:0:0:
432,128,43221,2,0,L|442:18,1,107.999996704102,2|0,0:0|0:0,0:0:0:0:
220,124,43873,1,2,0:0:0:0:
420,244,44199,1,0,0:0:0:0:
316,32,44525,1,2,0:0:0:0:
304,312,44851,1,0,0:0:0:0:
116,200,45177,5,2,0:0:0:0:
368,140,45503,1,0,0:0:0:0:
192,332,45829,1,2,0:0:0:0:
220,76,46156,1,0,0:0:0:0:
344,304,46482,2,0,P|424:304|520:204,1,215.999993408203,2|0,0:0|0:0,0:0:0:0:
252,208,47460,1,0,0:0:0:0:
96,316,47786,6,0,P|152:316|212:304,1,107.999996704102,2|0,0:0|0:0,0:0:0:0:
28,148,48438,2,0,P|85:151|144:168,1,107.999996704102,2|0,0:0|0:0,0:0:0:0:
284,332,49090,1,2,0:0:0:0:
68,272,49416,1,0,0:0:0:0:
288,160,49743,1,2,0:0:0:0:
420,368,50069,1,2,0:0:0:0:
188,220,50395,6,0,B|176:168|176:168|180:112,1,107.999996704102,2|0,0:0|0:0,0:0:0:0:
452,12,51047,2,0,B|456:64|456:64|444:124,1,107.999996704102,2|0,0:0|0:0,0:0:0:0:
72,84,51699,2,0,P|148:13|250:31,1,215.999993408203,2|0,0:0|0:0,0:0:0:0:
320,160,52677,1,0,0:0:0:0:
188,220,53003,6,0,L|180:112,1,107.999996704102,2|0,0:0|0:0,0:0:0:0:
440,236,53656,2,0,L|448:344,1,107.999996704102,2|0,0:0|0:0,0:0:0:0:
64,344,54308,2,0,L|72:236,1,107.999996704102,2|0,0:0|0:0,0:0:0:0:
332,112,54961,2,0,L|324:220,1,107.999996704102,2|0,0:0|0:0,0:0:0:0:
220,40,55612,5,12,0:0:0:0:
448,180,55938,1,0,0:0:0:0:
188,224,56264,1,0,0:0:0:0:
392,84,56590,1,10,0:0:0:0:
236,324,56916,2,0,L|100:316,1,107.999996704102,10|0,0:0|0:0,0:0:0:0:
400,145,57569,2,0,P|396:199|376:252,1,107.999996704102,8|0,1:0|0:0,0:0:0:0:
96,116,58221,6,0,P|104:244|180:296,1,215.999993408203,10|0,0:0|0:0,0:0:0:0:
432,184,59199,1,8,0:0:0:0:
200,180,59525,1,10,0:0:0:0:
424,316,59851,1,2,0:0:0:0:
316,108,60177,1,8,1:0:0:0:
304,368,60503,1,2,0:0:0:0:
420,76,60829,6,0,P|328:4|236:32,1,215.999993408203,10|0,0:0|0:0,0:0:0:0:
156,152,61808,1,8,0:0:0:0:
307,215,62134,2,0,P|315:163|315:103,1,107.999996704102,10|0,0:0|0:0,0:0:0:0:
204,268,62786,1,8,1:0:0:0:
412,172,63112,1,0,0:0:0:0:
196,152,63438,6,0,B|40:160|40:160|100:180,1,215.999993408203,10|0,0:0|0:0,0:0:0:0:
256,228,64416,1,8,0:0:0:0:
372,128,64743,2,0,B|372:76|372:76|360:20,1,107.999996704102,8|0,0:3|0:0,0:0:0:0:
229,27,65232,2,0,L|219:80,1,53.9999983520508,8|2,0:3|0:3,0:0:0:0:
219,80,65721,1,8,0:3:0:0:
96,28,65884,1,8,0:3:0:0:
320,44,66047,6,0,P|320:92|300:156,1,107.999996704102,12|0,0:0|0:0,0:0:0:0:
44,240,66699,1,8,0:0:0:0:
219,80,67025,1,8,0:3:0:0:
256,172,67188,1,0,0:0:0:0:
156,160,67351,2,0,L|88:152,1,53.9999983520508,10|0,0:0|0:0,0:0:0:0:
320,96,67677,2,0,L|440:88,1,107.999996704102,8|8,0:3|1:0,0:0:0:0:
156,160,68329,1,0,0:0:0:0:
368,296,68656,6,0,B|384:248|384:248|380:184,1,107.999996704102,12|0,0:0|0:0,0:0:0:0:
56,112,69308,2,0,B|48:164|48:164|64:224,1,107.999996704102,8|8,0:0|0:3,0:0:0:0:
144,280,69797,1,0,0:0:0:0:
232,232,69960,2,0,L|244:172,1,53.9999983520508,10|0,0:0|0:0,0:0:0:0:
144,280,70286,1,8,0:3:0:0:
340,228,70612,1,8,1:0:0:0:
152,92,70938,1,8,0:3:0:0:
252,68,71101,1,8,0:3:0:0:
351,48,71264,6,0,L|339:232,1,180,12|2,0:0|0:0,0:0:0:0:
184,340,72243,1,8,0:0:0:0:
56,200,72569,2,0,L|64:108,1,90,12|0,0:0|0:0,0:0:0:0:
351,48,73221,5,8,1:0:0:0:
256,152,73384,1,0,0:0:0:0:
213,18,73547,1,2,1:2:0:0:
351,48,73873,6,0,L|357:238,1,180,12|0,0:0|0:0,0:0:0:0:
172,192,74688,1,0,0:0:0:0:
264,160,74851,2,0,L|268:224,1,45,2|0,0:0|0:0,0:0:0:0:
80,220,75177,2,0,L|76:156,1,45,0|0,0:0|0:0,0:0:0:0:
208,276,75503,6,0,L|144:280,1,56.25,2|0,0:0|0:0,0:0:0:0:
224,72,75829,2,0,L|300:68,1,67.5000025749208,2|0,0:0|0:0,0:0:0:0:
440,212,76156,2,0,L|360:208,1,78.7500007510185,2|0,0:0|0:0,0:0:0:0:
84,312,76482,6,0,P|160:268|260:292,1,180,4|0,1:0|0:0,0:0:0:0:
320,364,76971,1,8,0:0:0:0:
160,228,77134,2,0,P|149:180|152:128,1,90,8|0,1:0|0:0,0:0:0:0:
360,64,77460,2,0,P|356:112|344:164,1,90,2|0,0:0|0:0,0:0:0:0:
248,92,77786,1,2,1:2:0:0:
452,116,77949,1,8,1:0:0:0:
248,92,78112,2,0,B|156:88|156:88|72:128,1,180,8|8,0:0|1:0,0:0:0:0:
308,180,78601,1,0,0:0:0:0:
384,104,78764,2,0,B|388:60|388:60|372:4,1,90,2|0,0:0|0:0,0:0:0:0:
220,240,79090,6,0,P|296:284|392:248,1,180,10|0,0:0|0:0,0:0:0:0:
208,132,79579,1,8,0:0:0:0:
112,252,79743,2,0,P|74:262|4:260,1,90,8|0,1:0|0:0,0:0:0:0:
208,132,80069,1,2,0:0:0:0:
304,228,80232,1,0,0:0:0:0:
304,228,80313,1,0,0:0:0:0:
304,228,80395,2,0,P|318:275|320:324,1,90,2|8,1:2|1:0,0:0:0:0:
432,136,80721,2,0,P|443:94|444:36,1,90,8|0,0:0|0:0,0:0:0:0:
200,180,81047,2,0,P|304:228|368:208,1,180,8|0,1:0|0:0,0:0:0:0:
296,124,81536,1,0,0:0:0:0:
196,228,81699,6,0,B|140:252|140:252|16:236,1,180,10|0,0:0|0:0,0:0:0:0:
128,148,82188,1,8,0:0:0:0:
224,316,82351,2,0,L|320:324,1,90,8|0,1:0|0:0,0:0:0:0:
384,108,82677,2,0,L|288:100,1,90,2|0,0:0|0:0,0:0:0:0:
456,192,83003,1,2,1:2:0:0:
408,20,83166,1,8,1:0:0:0:
332,200,83329,2,0,L|340:292,1,90,8|0,0:0|0:0,0:0:0:0:
144,188,83656,2,0,P|104:96|136:16,1,180,8|2,1:0|0:0,0:0:0:0:
256,192,84145,1,0,0:0:0:0:
348,240,84308,6,0,P|396:172|372:68,1,180,10|0,0:0|0:0,0:0:0:0:
256,192,84797,1,8,0:0:0:0:
192,276,84960,2,0,P|192:320|208:388,1,90,8|0,1:0|0:0,0:0:0:0:
208,100,85286,2,0,P|166:86|112:84,1,90,2|0,0:0|0:0,0:0:0:0:
56,144,85531,1,0,0:0:0:0:
56,144,85612,2,0,B|56:189|56:189|76:236,1,90,2|8,1:2|1:0,0:0:0:0:
420,144,85938,2,0,B|424:100|424:100|416:52,1,90,8|0,0:0|0:0,0:0:0:0:
160,168,86264,5,8,1:0:0:0:
320,104,86427,1,0,1:0:0:0:
180,64,86590,1,8,0:3:0:0:
332,208,86753,1,8,0:3:0:0:
140,272,86916,6,0,P|80:232|64:128,1,180,6|0,0:0|0:0,0:0:0:0:
236,232,87406,1,8,0:0:0:0:
328,288,87569,2,0,P|338:242|340:192,1,90,8|0,1:0|0:0,0:0:0:0:
184,24,87895,2,0,P|190:71|204:120,1,90,2|0,0:0|0:0,0:0:0:0:
336,168,88221,1,2,1:2:0:0:
100,88,88384,2,0,L|-12:108,1,90,8|0,1:0|0:0,0:0:0:0:
204,212,88710,1,8,0:0:0:0:
320,68,88873,2,0,L|504:100,1,180,8|0,1:0|0:0,0:0:0:0:
224,116,89362,1,0,0:0:0:0:
332,216,89525,6,0,P|368:160|348:28,1,180,10|0,0:0|0:0,0:0:0:0:
224,216,90014,1,8,0:0:0:0:
336,320,90177,2,0,P|377:332|432:336,1,90,8|0,1:0|0:0,0:0:0:0:
332,216,90503,1,2,0:0:0:0:
184,340,90666,1,0,0:0:0:0:
184,340,90748,1,0,0:0:0:0:
184,340,90829,1,2,1:2:0:0:
336,320,90993,1,8,1:0:0:0:
232,176,91156,2,0,P|224:128|224:68,1,90,8|0,0:0|0:0,0:0:0:0:
24,272,91482,2,0,P|116:232|192:260,1,180,8|0,1:0|0:0,0:0:0:0:
252,340,91971,1,0,0:0:0:0:
96,212,92134,6,0,B|64:172|64:172|56:96|96:48,1,180,10|0,0:0|0:0,0:0:0:0:
272,72,92623,1,8,0:0:0:0:
184,136,92786,2,0,P|136:144|76:144,1,90,8|0,1:0|0:0,0:0:0:0:
368,120,93112,2,0,P|416:120|480:140,1,90,2|0,0:0|0:0,0:0:0:0:
280,180,93438,1,2,1:2:0:0:
352,16,93601,1,8,1:0:0:0:
404,220,93764,2,0,P|410:267|408:332,1,90,8|0,0:0|0:0,0:0:0:0:
176,208,94090,2,0,P|154:118|196:36,1,180,8|2,1:0|0:0,0:0:0:0:
280,180,94579,1,0,0:0:0:0:
140,312,94743,6,0,P|86:303|48:288,1,90,10|0,0:0|0:0,0:0:0:0:
360,248,95069,2,0,P|408:236|464:240,1,90,8|0,0:0|0:0,0:0:0:0:
256,352,95395,2,0,B|268:304|256:259|256:259|243:214|256:172,1,180,8|2,1:0|0:0,0:0:0:0:
396,52,95884,1,0,0:0:0:0:
396,52,95965,1,0,0:0:0:0:
396,52,96047,2,0,L|384:156,1,90,0|0,1:0|0:0,0:0:0:0:
116,332,96373,2,0,L|128:228,1,90,2|0,1:2|0:0,0:0:0:0:
264,28,96699,2,0,L|276:132,1,90,8|0,1:0|0:0,0:0:0:0:
300,320,97025,5,8,1:0:0:0:
148,116,97188,1,8,1:0:0:0:
400,88,97351,1,4,1:0:0:0:
196,164,107786,6,0,L|216:48,1,116.999994644165,10|8,0:0|0:0,0:0:0:0:
252,244,108438,1,8,1:0:0:0:
36,184,108764,2,0,L|108:176,1,58.4999973220826,0|0,0:0|0:0,0:0:0:0:
288,156,109090,1,2,1:2:0:0:
192,168,109253,1,8,1:0:0:0:
344,76,109416,2,0,P|372:112|380:188,1,116.999994644165,8|8,0:0|1:0,0:0:0:0:
252,312,110069,1,0,0:0:0:0:
100,208,110395,6,0,L|88:124,1,58.4999973220826,10|0,0:0|0:0,0:0:0:0:
76,56,110721,1,8,0:0:0:0:
40,288,111047,2,0,P|100:304|180:276,1,116.999994644165,8|2,1:0|0:0,0:0:0:0:
216,220,111536,1,0,0:0:0:0:
312,244,111699,1,2,1:2:0:0:
248,316,111862,1,8,1:0:0:0:
280,148,112025,2,0,P|272:96|240:36,1,116.999994644165,8|8,0:0|1:0,0:0:0:0:
152,292,112677,1,2,0:0:0:0:
384,316,113003,6,0,B|441:302|441:302|483:253,1,116.999994644165,10|8,0:0|0:0,0:0:0:0:
160,92,113656,2,0,B|152:152|152:152|180:208,1,116.999994644165,8|2,1:0|0:0,0:0:0:0:
344,136,114145,1,0,0:0:0:0:
248,136,114308,1,2,1:2:0:0:
388,52,114471,1,8,1:0:0:0:
407,212,114634,2,0,P|352:231|296:220,1,116.999994644165,8|8,0:0|1:0,0:0:0:0:
152,68,115286,1,0,0:0:0:0:
28,284,115612,6,0,P|84:300|148:284,1,116.999994644165,10|0,0:0|0:0,0:0:0:0:
344,136,116264,1,8,1:0:0:0:
88,208,116590,1,0,0:0:0:0:
140,288,116753,1,0,0:0:0:0:
240,204,116916,2,0,L|172:200,1,58.4999973220826,2|8,1:2|1:0,0:0:0:0:
192,364,117243,2,0,L|260:360,1,58.4999973220826,8|0,0:0|0:0,0:0:0:0:
404,256,117569,2,0,L|408:372,1,116.999994644165,8|0,1:0|0:0,0:0:0:0:
496,144,118221,6,0,L|500:28,1,116.999994644165,10|8,0:0|0:0,0:0:0:0:
216,184,118873,2,0,P|264:208|332:200,1,116.999994644165,8|0,1:0|0:0,0:0:0:0:
284,112,119362,1,0,0:0:0:0:
184,88,119525,1,2,1:2:0:0:
216,184,119688,1,8,1:0:0:0:
248,16,119851,2,0,B|176:4|176:4|132:20,1,116.999994644165,0|8,0:0|1:0,0:0:0:0:
340,56,120503,1,0,0:0:0:0:
260,224,120829,6,0,B|244:168|244:168|264:100,1,116.999994644165,10|0,0:0|0:0,0:0:0:0:
476,224,121482,2,0,B|492:280|492:280|472:348,1,116.999994644165,8|0,1:0|0:0,0:0:0:0:
392,280,121971,1,0,0:0:0:0:
384,180,122134,1,2,1:2:0:0:
476,224,122297,1,8,1:0:0:0:
304,236,122460,2,0,P|292:212|288:160,1,58.4999973220826,8|0,0:0|0:0,0:0:0:0:
399,64,122786,2,0,L|380:202,1,116.999994644165,8|2,1:0|0:0,0:0:0:0:
88,304,123438,5,12,0:0:0:0:
168,200,123764,1,0,0:0:0:0:
296,228,124090,1,2,0:0:0:0:
324,356,124416,1,0,0:0:0:0:
168,200,124743,1,12,0:0:0:0:
304,28,125069,1,0,0:0:0:0:
460,184,125395,1,2,0:0:0:0:
212,316,125721,1,0,0:0:0:0:
60,80,126047,6,0,B|180:88,1,107.999996704102,14|8,0:0|0:0,0:0:0:0:
464,176,126699,2,0,B|344:184,1,107.999996704102,8|8,1:0|0:0,0:0:0:0:
256,192,127188,1,0,0:0:0:0:
268,360,127351,5,8,1:0:0:0:
312,272,127514,1,0,1:0:0:0:
204,112,127677,1,8,0:3:0:0:
212,280,127840,1,8,0:3:0:0:
356,183,128003,1,8,0:0:0:0:
160,200,128166,1,8,0:0:0:0:
412,260,128329,2,0,L|488:252,1,62.9999980773926,8|0,0:0|0:0,0:0:0:0:
300,104,128656,5,2,1:2:0:0:
300,104,129308,1,2,0:0:0:0:
212,280,129634,5,0,1:0:0:0:
232,36,129960,1,2,1:2:0:0:
280,348,130286,1,0,1:0:0:0:
36,148,130612,1,2,0:0:0:0:
36,148,131264,5,2,1:2:0:0:
36,148,131916,1,2,0:0:0:0:
376,136,132243,5,0,1:0:0:0:
104,304,132569,1,2,1:2:0:0:
308,24,132895,1,0,1:0:0:0:
256,368,133221,2,0,L|244:272,1,90,2|0,0:3|0:0,0:0:0:0:
464,48,133873,5,2,1:2:0:0:
464,48,134525,1,2,0:0:0:0:
108,108,134851,5,0,1:0:0:0:
404,276,135177,1,2,1:2:0:0:
48,336,135503,1,0,1:0:0:0:
228,40,135829,2,0,L|237:128,1,90,2|0,0:0|0:0,0:0:0:0:
256,364,136482,5,2,1:2:0:0:
256,364,137134,1,2,0:0:0:0:
304,88,137460,5,0,1:0:0:0:
40,184,137786,1,2,1:2:0:0:
352,252,138112,2,0,L|412:260,1,45,0|0,1:0|0:0,0:0:0:0:
256,240,138438,1,8,1:0:0:0:
200,316,138601,1,0,1:0:0:0:
312,164,138764,1,8,0:3:0:0:
160,224,138927,1,8,0:3:0:0:
352,252,139090,6,0,L|472:268,1,107.999996704102,4|0,1:2|0:0,0:0:0:0:
92,301,139743,2,0,L|199:315,1,107.999996704102,10|2,0:0|0:0,0:0:0:0:
424,164,140395,2,0,L|416:100,1,53.9999983520508,10|0,1:2|0:0,0:0:0:0:
224,44,140721,2,0,L|208:108,1,53.9999983520508,0|0,1:0|0:0,0:0:0:0:
300,260,141047,2,0,B|316:208|316:208|308:144,1,107.999996704102,8|0,1:0|0:0,0:0:0:0:
12,308,141699,6,0,B|80:300|80:300|148:328|148:328|224:320,1,215.999993408203,12|10,0:0|0:0,0:0:0:0:
420,236,142677,1,2,0:0:0:0:
164,168,143003,2,0,L|168:240,1,53.9999983520508,2|0,1:2|0:0,0:0:0:0:
232,96,143329,1,0,1:0:0:0:
132,76,143493,1,0,0:0:0:0:
260,188,143656,1,8,1:0:0:0:
8,284,143982,1,10,0:0:0:0:
300,340,144308,6,0,B|372:340|436:300|436:300|392:292,1,180,12|0,0:0|0:0,0:0:0:0:
216,276,145286,1,10,0:0:0:0:
208,180,145449,1,0,0:0:0:0:
200,84,145612,2,0,L|288:68,1,90,12|0,0:0|0:0,0:0:0:0:
288,68,146264,5,8,1:0:0:0:
108,104,146427,1,0,0:0:0:0:
232,240,146590,1,2,1:2:0:0:
208,140,146916,6,0,P|144:192|144:292,1,180,12|0,0:0|0:0,0:0:0:0:
232,240,147732,1,0,0:0:0:0:
304,172,147895,2,0,L|308:116,1,45,2|0,0:0|0:0,0:0:0:0:
192,40,148221,2,0,L|198:85,1,45,8|0,0:0|0:0,0:0:0:0:
380,240,148547,6,0,L|404:176,1,56.25,8|0,1:0|0:0,0:0:0:0:
112,136,148873,2,0,L|56:172,1,67.5000025749208,8|0,0:3|0:0,0:0:0:0:
356,336,149200,2,0,L|440:324,1,78.7500007510185,8|0,1:0|1:0,0:0:0:0:
235,114,149525,6,0,P|216:201|248:284,1,180,4|0,1:0|0:0,0:0:0:0:
336,96,150014,1,8,0:0:0:0:
176,204,150177,2,0,P|132:212|84:212,1,90,8|0,1:0|0:0,0:0:0:0:
376,236,150503,2,0,P|380:280|376:340,1,90,2|0,0:0|0:0,0:0:0:0:
280,184,150829,1,2,1:2:0:0:
444,160,150993,1,8,1:0:0:0:
244,288,151156,2,0,P|204:264|176:228,1,90,8|0,0:0|0:0,0:0:0:0:
376,48,151482,2,0,P|408:140|372:220,1,180,8|0,1:0|0:0,0:0:0:0:
172,212,151971,1,0,0:0:0:0:
240,120,152134,6,0,L|340:108,1,90,10|0,0:0|0:0,0:0:0:0:
180,320,152460,2,0,L|88:292,1,90,0|8,0:0|0:0,0:0:0:0:
344,200,152786,2,0,P|388:264|380:368,1,180,8|2,1:0|0:0,0:0:0:0:
248,240,153275,1,0,0:0:0:0:
248,240,153357,1,0,0:0:0:0:
248,240,153438,1,2,1:2:0:0:
432,268,153601,1,8,1:0:0:0:
352,84,153764,2,0,L|356:184,1,90,8|0,0:0|0:0,0:0:0:0:
452,40,154090,2,0,B|396:44|396:44|332:32|332:32|268:40,1,180,8|2,1:0|0:0,0:0:0:0:
48,196,154579,1,0,0:0:0:0:
48,196,154743,6,0,B|104:200|104:200|168:188|168:188|232:196,1,180,10|0,0:0|0:0,0:0:0:0:
172,288,155232,1,8,0:0:0:0:
100,100,155395,2,0,B|100:56|100:56|116:0,1,90,8|0,1:0|0:0,0:0:0:0:
316,132,155721,2,0,B|328:176|328:176|332:228,1,90,2|0,0:0|0:0,0:0:0:0:
226,195,156047,1,2,1:2:0:0:
328,44,156210,2,0,B|424:36,1,90,8|8,1:0|0:0,0:0:0:0:
232,92,156536,1,0,0:0:0:0:
144,36,156699,2,0,P|104:104|120:224,1,180,8|2,1:0|0:0,0:0:0:0:
232,92,157188,1,0,0:0:0:0:
332,72,157351,6,0,P|364:164|336:256,1,180,10|0,0:0|0:0,0:0:0:0:
168,328,157840,1,8,0:0:0:0:
76,248,158003,2,0,L|64:136,1,90,8|0,1:0|0:0,0:0:0:0:
256,16,158329,2,0,L|268:116,1,90,2|0,0:0|0:0,0:0:0:0:
328,160,158574,1,0,0:0:0:0:
328,160,158656,2,0,B|373:159|373:159|436:144,1,90,2|8,1:2|1:0,0:0:0:0:
184,260,158982,2,0,B|140:248|140:248|76:252,1,90,8|0,0:0|0:0,0:0:0:0:
312,348,159308,5,8,1:0:0:0:
236,180,159471,1,0,1:0:0:0:
168,352,159634,1,8,0:3:0:0:
348,216,159797,1,8,0:3:0:0:
176,68,159960,6,0,P|92:52|8:104,1,180,12|0,0:0|0:0,0:0:0:0:
108,152,160449,1,8,0:0:0:0:
292,60,160612,2,0,P|360:100|468:80,1,180,8|2,1:0|0:0,0:0:0:0:
200,104,161101,1,0,0:0:0:0:
264,248,161264,2,0,P|279:202|284:148,1,90,2|8,1:2|1:0,0:0:0:0:
92,84,161590,2,0,P|98:131|116:172,1,90,0|8,0:0|0:0,0:0:0:0:
344,292,161916,2,0,B|396:256|412:184|412:184|392:124,1,180,8|2,1:0|0:0,0:0:0:0:
320,64,162406,1,0,0:0:0:0:
148,188,162569,6,0,P|228:220|328:152,1,180,10|0,0:0|0:0,0:0:0:0:
228,116,163058,1,8,0:0:0:0:
144,276,163221,2,0,L|134:365,1,90,8|0,1:0|0:0,0:0:0:0:
64,180,163547,1,2,0:0:0:0:
248,240,163710,1,0,0:0:0:0:
248,240,163791,1,0,0:0:0:0:
248,240,163873,1,2,1:2:0:0:
52,284,164036,1,8,1:0:0:0:
160,148,164199,2,0,B|172:104|172:104|172:48,1,90,8|0,0:0|0:0,0:0:0:0:
404,16,164525,2,0,B|428:100|428:100|412:200,1,180,8|0,1:0|0:0,0:0:0:0:
256,300,165014,1,0,0:0:0:0:
98,191,165177,6,0,B|84:100|84:100|108:16,1,180,10|0,0:0|0:0,0:0:0:0:
208,208,165666,1,8,0:0:0:0:
140,292,165829,2,0,L|52:308,1,90,8|0,1:0|0:0,0:0:0:0:
316,228,166156,2,0,L|408:248,1,90,2|0,0:0|0:0,0:0:0:0:
248,308,166482,1,2,1:2:0:0:
280,124,166645,1,8,1:0:0:0:
118,217,166808,2,0,L|208:208,1,90,8|0,0:0|0:0,0:0:0:0:
372,76,167134,2,0,B|348:36|348:36|276:0|208:40,1,180,8|2,1:0|0:0,0:0:0:0:
172,124,167623,1,0,0:0:0:0:
280,256,167786,6,0,L|292:144,1,90,10|0,0:0|0:0,0:0:0:0:
60,88,168112,2,0,L|72:196,1,90,8|0,0:0|0:0,0:0:0:0:
340,348,168438,2,0,B|375:322|375:322|392:176,1,180,8|2,1:0|0:0,0:0:0:0:
192,48,168927,1,0,0:0:0:0:
192,48,169009,1,0,0:0:0:0:
192,48,169090,2,0,B|180:92|180:92|184:148,1,90,0|0,1:0|0:0,0:0:0:0:
72,344,169416,2,0,B|76:300|76:300|64:252,1,90,2|0,1:2|0:0,0:0:0:0:
276,296,169742,2,0,B|388:288,1,90,8|0,1:0|0:0,0:0:0:0:
176,272,170069,1,8,1:0:0:0:
424,356,170232,1,8,1:0:0:0:
248,200,170395,6,0,L|232:376,2,161.999995056153,4|8|8,1:0|0:0|1:0,0:0:0:0:
340,136,171210,1,2,0:0:0:0:
420,208,171373,1,0,0:0:0:0:
248,200,171536,2,0,P|232:120|280:40,1,161.999995056153,10|8,0:0|1:0,0:0:0:0:
328,264,172025,1,8,0:0:0:0:
144,172,172188,1,0,0:0:0:0:
340,136,172351,2,0,P|380:137|420:144,1,80.9999975280763,8|0,1:0|0:0,0:0:0:0:
248,200,172677,1,2,0:0:0:0:
248,200,172840,1,0,0:0:0:0:
164,132,173003,6,0,P|83:113|11:141,1,161.999995056153,10|8,0:0|0:0,0:0:0:0:
152,232,173493,1,0,0:0:0:0:
264,96,173656,2,0,P|277:56|284:8,1,80.9999975280763,8|0,1:0|0:0,0:0:0:0:
320,256,173982,2,0,P|328:304|344:352,1,80.9999975280763,0|8,0:0|0:0,0:0:0:0:
380,168,174308,5,2,0:0:0:0:
280,264,174471,1,8,1:0:0:0:
440,268,174634,1,0,0:0:0:0:
352,96,174797,5,2,0:0:0:0:
284,236,174960,1,8,1:0:0:0:
456,152,175123,1,8,0:0:0:0:
252,68,175286,2,0,L|240:156,1,80.9999975280763,8|0,1:0|0:0,0:0:0:0:
328,340,175612,6,0,P|396:348|468:288,2,161.999995056153,12|8|8,0:0|0:0|1:0,0:0:0:0:
268,256,176427,1,10,0:0:0:0:
372,244,176590,1,0,0:0:0:0:
224,352,176753,2,0,P|180:308|176:208,1,161.999995056153,10|8,0:0|1:0,0:0:0:0:
268,256,177243,1,10,0:0:0:0:
80,280,177406,1,0,0:0:0:0:
180,131,177569,2,0,B|172:235,1,80.9999975280763,8|0,1:0|0:0,0:0:0:0:
192,24,177895,1,2,0:0:0:0:
192,24,178058,1,0,0:0:0:0:
335,121,178221,6,0,P|263:145|151:113,1,161.999995056153,10|8,0:0|0:0,0:0:0:0:
96,68,178710,1,0,0:0:0:0:
256,12,178873,2,0,B|344:20,1,80.9999975280763,8|0,1:0|0:0,0:0:0:0:
212,224,179199,2,0,B|120:216,1,80.9999975280763,2|8,0:0|0:0,0:0:0:0:
28,148,179525,5,2,0:0:0:0:
179,130,179688,1,8,1:0:0:0:
120,270,179851,1,8,0:0:0:0:
169,106,180014,5,2,0:0:0:0:
13,173,180177,1,8,1:0:0:0:
148,273,180340,1,8,0:0:0:0:
280,136,180503,2,0,L|272:56,1,80.9999975280763,8|0,1:0|0:0,0:0:0:0:
260,240,180829,6,0,B|316:236|316:236|364:212|364:212|415:204,2,161.999995056153,4|8|8,1:0|0:0|1:0,0:0:0:0:
184,172,181645,1,2,0:0:0:0:
280,136,181808,1,8,0:0:0:0:
112,100,181971,2,0,P|82:173|116:248,1,161.999995056153,8|8,0:0|1:0,0:0:0:0:
316,232,182460,1,8,0:0:0:0:
184,172,182623,1,0,0:0:0:0:
208,348,182786,2,0,L|220:260,1,80.9999975280763,8|0,1:0|0:0,0:0:0:0:
252,48,183112,1,2,0:0:0:0:
252,48,183275,1,0,0:0:0:0:
164,104,183438,6,0,P|232:148|332:116,1,161.999995056153,12|0,0:0|0:0,0:0:0:0:
344,232,183927,1,0,0:0:0:0:
160,256,184090,2,0,P|96:236|-4:272,1,161.999995056153,8|2,1:0|0:0,0:0:0:0:
224,184,184579,1,8,1:0:0:0:
276,340,184743,2,0,B|288:304|288:304|292:248,1,80.9999975280763,2|8,1:2|0:3,0:0:0:0:
176,24,185069,2,0,B|164:60|164:60|160:116,1,80.9999975280763,8|8,0:0|0:0,0:0:0:0:
292,240,185395,5,8,1:0:0:0:
264,80,185558,1,8,0:0:0:0:
184,244,185721,1,2,0:0:0:0:
368,300,185884,1,8,0:0:0:0:
236,164,186047,6,0,B|176:140|104:148|104:148|132:160,1,161.999995056153,12|8,0:0|0:0,0:0:0:0:
292,240,186536,1,2,0:0:0:0:
364,132,186699,2,0,P|364:92|351:45,1,80.9999975280763,8|8,1:0|0:0,0:0:0:0:
212,304,187025,2,0,B|256:348|324:340|324:340|352:312|352:312|392:320|432:308,1,242.999992584229,12|8,0:0|0:0,0:0:0:0:
236,164,187677,2,0,P|196:156|152:160,1,80.9999975280763,8|0,1:0|0:0,0:0:0:0:
344,40,188003,2,0,P|392:112|492:120,1,161.999995056153,8|8,1:0|0:0,0:0:0:0:
448,24,188493,1,8,1:0:0:0:
284,152,188656,1,8,0:0:0:0:
284,152,188982,6,0,B|288:228|288:228|320:316,1,161.999995056153,12|8,1:0|0:0,0:0:0:0:
156,176,189471,2,0,B|156:120|156:120|180:76|180:76|180:20,1,161.999995056153,12|0,1:0|0:0,0:0:0:0:
48,240,189960,2,0,B|52:278|52:278|44:336,1,80.9999975280763,12|0,1:0|0:0,0:0:0:0:
12,92,190286,1,0,1:0:0:0:
184,328,190612,1,0,1:0:0:0:
312,44,190938,1,0,1:0:0:0:
484,360,191264,5,2,0:3:0:0:
208,92,201699,6,0,L|236:188,1,90,2|0,0:0|0:0,0:0:0:0:
128,256,202188,2,0,L|140:152,1,90,2|0,0:0|0:0,0:0:0:0:
324,96,202677,2,0,L|316:152,1,45,0|2,0:0|0:0,0:0:0:0:
296,284,203003,1,2,0:3:0:0:
252,204,203166,1,0,0:0:0:0:
317,140,203329,1,2,0:0:0:0:
317,140,203656,1,2,0:0:0:0:
252,204,203819,1,0,0:0:0:0:
296,284,203982,2,0,L|348:276,1,45,2|0,0:0|0:0,0:0:0:0:
228,192,204308,6,0,P|180:184|124:184,1,90,2|0,0:0|0:0,0:0:0:0:
304,120,204797,1,2,0:0:0:0:
304,120,204960,2,0,P|356:104|408:104,1,90,2|0,0:0|0:0,0:0:0:0:
172,292,205612,2,0,P|120:308|68:308,1,90,2|0,0:0|0:0,0:0:0:0:
220,212,206101,1,2,0:0:0:0:
264,296,206264,2,0,P|272:320|280:352,1,45,2|0,0:0|0:0,0:0:0:0:
312,216,206590,2,0,L|412:220,1,90,2|2,0:0|0:0,0:0:0:0:
401,219,208221,5,0,1:0:0:0:
111,165,208547,1,0,1:0:0:0:
424,120,208873,2,0,L|320:136,1,78.7500007510185,2|0,0:0|0:0,0:0:0:0:
88,264,209199,2,0,L|192:248,1,78.7500007510185,2|0,0:0|0:0,0:0:0:0:
464,320,209525,6,0,P|384:352|296:308,1,180,12|0,1:0|0:0,0:0:0:0:
280,212,210014,1,8,0:0:0:0:
420,88,210177,2,0,P|435:174|384:248,1,180,8|2,1:0|0:0,0:0:0:0:
208,68,210666,1,0,0:0:0:0:
332,152,210829,1,2,1:2:0:0:
196,216,210993,1,8,1:0:0:0:
344,60,211156,2,0,P|396:57|436:68,1,90,8|0,0:0|0:0,0:0:0:0:
268,288,211482,2,0,P|176:312|104:260,1,180,8|2,1:0|0:0,0:0:0:0:
196,216,211971,1,0,0:0:0:0:
352,356,212134,6,0,P|368:312|372:264,1,90,10|0,0:0|0:0,0:0:0:0:
160,134,212460,2,0,P|172:174|200:222,1,90,0|8,0:0|0:0,0:0:0:0:
472,116,212786,2,0,P|352:104|292:124,1,180,8|2,1:0|0:0,0:0:0:0:
248,344,213275,1,0,0:0:0:0:
248,344,213357,1,0,0:0:0:0:
248,344,213438,2,0,P|271:298|284:252,1,90,2|8,1:2|1:0,0:0:0:0:
148,48,213764,2,0,P|151:91|176:160,1,90,8|0,0:0|0:0,0:0:0:0:
284,236,214090,1,8,1:0:0:0:
272,72,214253,1,0,0:0:0:0:
96,176,214416,2,0,L|200:164,1,90,2|0,0:0|0:0,0:0:0:0:
480,88,214743,6,0,L|284:72,1,180,10|0,0:0|0:0,0:0:0:0:
185,165,215232,1,8,0:0:0:0:
268,248,215395,2,0,P|292:208|300:152,1,90,8|0,1:0|0:0,0:0:0:0:
72,136,215721,2,0,P|72:181|88:232,1,90,2|0,0:0|0:0,0:0:0:0:
240,272,216047,1,2,1:2:0:0:
185,165,216210,1,8,1:0:0:0:
196,364,216373,2,0,L|288:360,1,90,8|0,0:0|0:0,0:0:0:0:
476,184,216699,2,0,B|440:148|440:148|376:128|316:164,1,180,8|2,1:0|0:0,0:0:0:0:
396,252,217188,1,0,0:0:0:0:
464,100,217351,6,0,B|476:56|476:56|472:4,1,90,10|0,0:0|0:0,0:0:0:0:
168,160,217677,2,0,B|152:200|152:200|148:256,1,90,0|8,0:0|0:0,0:0:0:0:
363,246,218003,2,0,B|360:200|360:200|344:160,1,90,8|0,1:0|0:0,0:0:0:0:
39,11,218329,2,0,B|36:56|36:56|48:100,1,90,2|0,0:0|0:0,0:0:0:0:
92,164,218574,1,0,0:0:0:0:
92,164,218656,2,0,L|184:168,1,90,2|8,1:2|1:0,0:0:0:0:
440,260,218982,2,0,L|336:272,1,90,8|0,0:0|0:0,0:0:0:0:
128,296,219308,5,8,1:0:0:0:
332,272,219471,1,8,1:0:0:0:
200,164,219634,1,8,0:3:0:0:
256,372,219797,1,8,0:3:0:0:
300,124,219960,6,0,P|228:64|144:72,1,180,12|0,0:0|0:0,0:0:0:0:
200,164,220449,1,8,0:0:0:0:
408,128,220612,2,0,P|428:84|432:20,1,90,8|0,1:0|0:0,0:0:0:0:
284,232,220938,2,0,L|292:332,1,90,2|0,0:0|0:0,0:0:0:0:
392,268,221264,1,2,1:2:0:0:
184,288,221427,1,8,1:0:0:0:
392,268,221590,2,0,L|384:168,1,90,8|0,0:0|0:0,0:0:0:0:
80,32,221916,2,0,B|56:116|56:116|92:204,1,180,8|2,1:0|0:0,0:0:0:0:
256,336,222406,1,0,0:0:0:0:
340,240,222569,6,0,P|256:210|172:240,1,180,10|8,0:0|0:0,0:0:0:0:
256,336,223058,1,0,0:0:0:0:
420,201,223221,2,0,B|456:116|456:116|432:32,1,180,8|2,1:0|0:0,0:0:0:0:
260,152,223710,1,0,0:0:0:0:
268,176,223791,1,0,0:0:0:0:
276,200,223873,5,2,1:2:0:0:
308,60,224036,1,8,1:0:0:0:
172,100,224199,1,8,0:0:0:0:
364,144,224362,5,2,0:0:0:0:
220,12,224525,1,8,1:0:0:0:
176,200,224688,1,8,0:3:0:0:
392,116,224851,2,0,P|404:76|400:16,1,90,10|8,0:0|0:3,0:0:0:0:
292,164,225177,6,0,P|376:156|456:208,1,180,12|0,0:0|0:0,0:0:0:0:
224,244,225666,1,8,0:0:0:0:
156,332,225829,2,0,P|244:348|328:284,1,180,8|2,1:0|0:0,0:0:0:0:
112,232,226319,1,0,0:0:0:0:
180,148,226482,2,0,P|228:144|272:152,1,90,2|8,1:2|1:0,0:0:0:0:
432,328,226808,2,0,P|372:328|340:320,1,90,8|0,0:0|0:0,0:0:0:0:
52,148,227134,2,0,P|112:120|232:120,1,180,8|2,1:0|0:0,0:0:0:0:
356,200,227623,1,0,0:0:0:0:
176,348,227786,6,0,L|160:240,1,90,10|0,0:0|0:0,0:0:0:0:
332,12,228112,2,0,L|348:120,1,90,8|0,0:0|0:0,0:0:0:0:
480,340,228438,2,0,B|388:340|388:340|296:311,1,180,8|8,1:0|0:0,0:0:0:0:
248,136,228927,1,8,0:0:0:0:
252,164,229009,1,0,0:0:0:0:
256,192,229090,1,4,0:0:0:0:
256,192,229253,12,8,231699,0:0:0:0:
152,112,232188,5,8,0:0:0:0:
152,112,232270,1,8,0:0:0:0:
152,112,232351,2,0,L|244:128,1,90,8|0,1:0|0:0,0:0:0:0:
348,144,232677,1,8,1:0:0:0:
180,216,232840,1,8,1:0:0:0:
284,60,233003,6,0,L|308:232,1,161.999995056153,12|8,0:0|0:0,0:0:0:0:
204,152,233493,1,0,0:0:0:0:
384,128,233656,2,0,B|472:116,1,80.9999975280763,8|0,1:0|0:0,0:0:0:0:
204,256,233982,2,0,B|96:240,1,80.9999975280763,2|0,0:0|0:0,0:0:0:0:
306,220,234308,1,2,1:2:0:0:
284,324,234471,1,8,1:0:0:0:
228,156,234634,2,0,P|224:116|232:68,1,80.9999975280763,8|0,0:0|0:0,0:0:0:0:
428,196,234960,2,0,P|447:153|432:28,1,161.999995056153,8|0,1:0|0:0,0:0:0:0:
336,248,235612,6,0,P|424:296|504:268,1,161.999995056153,10|8,0:0|0:0,0:0:0:0:
244,304,236101,1,2,0:0:0:0:
244,304,236264,2,0,P|288:228|284:152,1,161.999995056153,8|0,1:0|0:0,0:0:0:0:
176,208,236753,1,2,0:0:0:0:
336,248,236916,1,2,1:2:0:0:
268,124,237079,1,8,1:0:0:0:
240,284,237243,2,0,B|244:324|244:324|260:364,1,80.9999975280763,10|0,0:0|0:0,0:0:0:0:
436,164,237569,2,0,L|352:152,1,80.9999975280763,8|0,1:0|0:0,0:0:0:0:
116,228,237895,2,0,B|106:266|106:266|107:310,1,80.9999975280763,2|0,0:0|0:0,0:0:0:0:
236,132,238221,5,10,0:0:0:0:
4,324,238547,1,8,0:0:0:0:
304,360,238873,1,8,1:0:0:0:
40,128,239199,1,2,0:0:0:0:
380,32,239525,2,0,L|388:112,1,80.9999975280763,2|8,1:2|1:0,0:0:0:0:
224,288,239851,2,0,P|188:228|200:124,1,161.999995056153,8|8,0:0|1:0,0:0:0:0:
324,296,240340,1,0,0:0:0:0:
152,224,240503,2,0,P|110:223|64:236,1,80.9999975280763,2|0,0:0|0:0,0:0:0:0:
296,152,240829,6,0,P|372:168|456:144,1,161.999995056153,10|8,0:0|0:0,0:0:0:0:
264,56,241318,1,2,0:0:0:0:
196,184,241482,2,0,P|157:194|108:196,1,80.9999975280763,8|0,1:0|0:0,0:0:0:0:
360,96,241808,2,0,P|384:176|360:256,1,161.999995056153,2|0,0:0|1:0,0:0:0:0:
264,56,242297,1,8,1:0:0:0:
168,104,242460,2,0,P|160:140|164:188,1,80.9999975280763,10|0,0:0|0:0,0:0:0:0:
260,152,242786,5,8,1:0:0:0:
76,64,242949,1,8,1:0:0:0:
180,216,243112,1,8,0:3:0:0:
240,32,243275,1,8,0:0:0:0:
60,96,243438,6,0,B|64:148|64:148|84:200|84:200|88:256,1,161.999995056153,12|8,0:0|0:0,0:0:0:0:
100,356,243927,1,0,0:0:0:0:
180,216,244090,2,0,P|188:176|188:128,1,80.9999975280763,8|0,1:0|0:0,0:0:0:0:
324,316,244416,2,0,P|307:318|243:318,1,80.9999975280763,2|0,0:0|0:0,0:0:0:0:
84,168,244743,1,2,1:2:0:0:
284,220,244906,1,8,1:0:0:0:
144,348,245069,2,0,P|145:303|156:260,1,80.9999975280763,8|0,0:0|0:0,0:0:0:0:
436,136,245395,2,0,P|460:224|436:304,1,161.999995056153,8|2,1:0|0:0,0:0:0:0:
336,120,245884,1,0,0:0:0:0:
240,164,246047,6,0,P|224:104|256:-8,1,161.999995056153,10|8,0:0|0:0,0:0:0:0:
324,224,246536,1,2,0:0:0:0:
164,236,246699,2,0,P|120:216|84:184,1,80.9999975280763,8|0,1:0|0:0,0:0:0:0:
240,164,247025,1,2,0:0:0:0:
200,328,247188,1,0,0:0:0:0:
88,180,247351,2,0,B|80:80,1,80.9999975280763,2|8,1:2|1:0,0:0:0:0:
244,360,247677,2,0,B|144:368,1,80.9999975280763,10|0,0:0|0:0,0:0:0:0:
424,204,248003,2,0,B|432:304,1,80.9999975280763,8|0,1:0|0:0,0:0:0:0:
268,24,248329,2,0,B|368:16,1,80.9999975280763,10|0,0:0|0:0,0:0:0:0:
81,99,248656,5,12,0:0:0:0:
430,284,248982,1,10,0:0:0:0:
348,17,249308,1,8,1:0:0:0:
163,366,249634,1,2,0:0:0:0:
81,99,249960,1,8,1:2:0:0:
176,160,250123,1,8,1:0:0:0:
180,48,250286,1,8,0:0:0:0:
180,48,250612,5,8,1:0:0:0:
108,212,250775,1,0,0:0:0:0:
224,168,250938,1,2,0:0:0:0:
60,96,251101,1,0,0:0:0:0:
264,80,251264,6,0,B|312:76|312:76|368:100|384:164,1,161.999995056153,10|8,0:0|0:0,0:0:0:0:
352,268,251753,1,0,0:0:0:0:
192,196,251916,2,0,B|230:187|230:187|272:190,1,80.9999975280763,8|0,1:0|0:0,0:0:0:0:
460,240,252243,1,2,0:0:0:0:
372,80,252406,1,8,0:0:0:0:
372,80,252487,1,0,0:0:0:0:
372,80,252569,2,0,B|372:120|372:120|384:164,1,80.9999975280763,2|8,1:2|1:0,0:0:0:0:
444,344,252895,2,0,B|460:308|460:308|464:264,1,80.9999975280763,10|0,0:0|0:0,0:0:0:0:
224,252,253221,2,0,B|184:264|184:264|136:264,1,80.9999975280763,8|8,1:0|0:0,0:0:0:0:
279,109,253547,1,8,1:0:0:0:
386,239,253710,1,8,1:0:0:0:
221,199,253873,6,0,B|173:165|148:102|148:102|79:202|119:310|220:368|334:349|386:239|386:239|319:249|266:225,1,720,4|2,0:0|0:3,0:0:0:0:
256,192,256645,12,0,264634,0:0:0:0:
