osu file format v14

[General]
AudioFilename: audio.mp3
AudioLeadIn: 0
PreviewTime: 47066
Countdown: 0
SampleSet: Normal
StackLeniency: 0.8
Mode: 0
LetterboxInBreaks: 0
WidescreenStoryboard: 1

[Editor]
Bookmarks: 47066
DistanceSpacing: 0.8
BeatDivisor: 4
GridSize: 4
TimelineZoom: 2.3

[Metadata]
Title:Tapioca no Uta
TitleUnicode:Tapioca no Uta
Artist:96Neko
ArtistUnicode:96Neko
Creator:Shino Inuzuka
Version:Advanced
Source:
Tags:Anime Vocaloid Utaite
BeatmapID:1148453
BeatmapSetID:541158

[Difficulty]
HPDrainRate:5
CircleSize:4
OverallDifficulty:7
ApproachRate:8
SliderMultiplier:1.79999990463257
SliderTickRate:2

[Events]
//Background and Video events
0,0,"tapioca no uta.jpg",0,0
//Break Periods
//Storyboard Layer 0 (Background)
//Storyboard Layer 1 (Fail)
//Storyboard Layer 2 (Pass)
//Storyboard Layer 3 (Foreground)
//Storyboard Sound Samples

[TimingPoints]
51,468.75,4,1,0,100,1,0
6579,-133.333333333333,4,1,0,100,0,0
7347,-100,4,1,0,100,0,0
9372,-133.333333333333,4,1,0,100,0,0
10910,-100,4,1,0,100,0,0
15972,-133.333333333333,4,1,0,100,0,0
16835,-66.6666666666667,4,1,0,100,0,0
18449,-100,4,1,0,100,0,0
24395,-133.333333333333,4,1,0,100,0,0
25373,-100,4,1,0,100,0,0
26249,-133.333333333333,4,1,0,100,0,0
26711,-100,4,1,0,100,0,0
32819,-66.6666666666667,4,1,0,100,0,0
33187,-100,4,1,0,100,0,0
34719,-66.6666666666667,4,1,0,100,0,0
35090,-100,4,1,0,100,0,0
44050,-66.6666666666667,4,1,0,100,0,0
44347,-100,4,1,0,100,0,0
44933,-66.6666666666667,4,1,0,100,0,0
45285,-100,4,1,0,100,0,0
45975,-181.818181818181,4,1,0,100,0,0
46926,-66.6666666666667,4,1,0,100,0,1
49446,-133.333333333333,4,1,0,100,0,1
51473,-100,4,1,0,100,0,1
52522,-133.333333333333,4,1,0,100,0,1
53226,-100,4,1,0,100,0,1
54883,-133.333333333333,4,1,0,100,0,1
55340,-100,4,1,0,100,0,1
57468,-200,4,1,0,100,0,1
58147,-100,4,1,0,100,0,0
58188,-100,4,1,0,100,0,1
59049,-66.6666666666667,4,1,0,100,0,1
59429,-100,4,1,0,100,0,1
60747,-133.333333333333,4,1,0,100,0,1
62846,-100,4,1,0,100,0,1
63771,-133.333333333333,4,1,0,100,0,1
64738,-100,4,1,0,100,0,1
65646,-66.6666666666667,4,1,0,100,0,1
65934,-100,4,1,0,100,0,1
66143,-133.333333333333,4,1,0,100,0,1
66559,-100,4,1,0,100,0,1
69438,-100,4,1,0,100,0,0

[HitObjects]
168,224,51,5,0,0:0:0:0:
96,200,285,2,0,P|128:248|40:272,1,179.999995231629
180,344,988,1,0,0:0:0:0:
260,292,1223,1,0,0:0:0:0:
328,120,1691,1,0,0:0:0:0:
248,80,1926,6,0,L|224:152,1,44.9999988079071
328,120,2160,2,0,L|384:152,1,44.9999988079071
224,200,2394,2,0,L|160:232,1,44.9999988079071
312,200,2629,2,0,L|344:232,1,44.9999988079071
248,320,2863,5,0,0:0:0:0:
152,328,3097,1,0,0:0:0:0:
60,260,3332,1,0,0:0:0:0:
80,176,3566,1,0,0:0:0:0:
200,112,3801,6,0,P|240:120|256:184,1,89.9999952316285
192,184,4269,2,0,P|204:224|272:216,1,89.9999952316285
316,200,4738,1,0,0:0:0:0:
316,200,4855,1,0,0:0:0:0:
316,200,4973,2,0,P|332:228|308:284,1,89.9999952316285
144,280,5676,6,0,P|108:280|72:224,1,89.9999952316285
140,192,6144,1,0,0:0:0:0:
216,220,6379,1,0,0:0:0:0:
256,156,6613,2,0,P|288:200|272:276,1,134.999997997284
472,276,7551,5,0,0:0:0:0:
416,224,7785,2,0,P|440:160|420:112,1,89.9999952316285
368,84,8254,1,0,0:0:0:0:
312,152,8488,1,0,0:0:0:0:
272,312,8957,5,0,0:0:0:0:
360,276,9191,1,0,0:0:0:0:
296,240,9426,2,0,P|220:244|200:300,1,134.999997997284
116,240,10129,1,0,0:0:0:0:
80,128,10363,2,0,P|112:73|177:78,1,134.999997997284
152,144,11066,1,0,0:0:0:0:
256,184,11301,5,0,0:0:0:0:
300,240,11535,2,0,P|332:176|304:136,1,89.9999952316285
328,80,12004,1,0,0:0:0:0:
248,84,12238,2,0,P|200:148|216:172,1,89.9999952316285
220,224,12707,1,0,0:0:0:0:
80,332,13176,5,0,0:0:0:0:
64,260,13410,2,0,P|20:232|28:176,1,89.9999952316285
72,144,13879,1,0,0:0:0:0:
72,68,14113,2,0,P|136:100|144:144,1,89.9999952316285
148,216,14582,1,0,0:0:0:0:
244,156,14816,1,0,0:0:0:0:
408,88,15051,6,0,P|448:120|448:176,1,89.9999952316285
416,272,15519,1,0,0:0:0:0:
344,176,15754,1,0,0:0:0:0:
280,288,15988,2,0,B|196:336|196:336|148:328,1,134.999997997284
96,256,16691,5,0,0:0:0:0:
144,168,16926,6,0,P|120:160|108:108,1,67.499998998642
192,96,17160,2,0,P|184:64|216:36,1,67.499998998642
296,40,17394,1,0,0:0:0:0:
424,264,17863,6,0,P|448:256|448:212,1,67.499998998642
376,192,18098,2,0,P|384:160|352:136,1,67.499998998642
272,136,18332,1,0,0:0:0:0:
240,272,18801,6,0,P|200:256|192:240,1,44.9999976158143
160,156,19152,1,0,0:0:0:0:
128,108,19269,1,0,0:0:0:0:
252,104,19504,1,0,0:0:0:0:
360,96,19738,5,0,0:0:0:0:
368,112,19855,1,0,0:0:0:0:
368,128,19973,1,0,0:0:0:0:
360,144,20090,1,0,0:0:0:0:
352,156,20207,1,0,0:0:0:0:
264,328,20676,5,0,0:0:0:0:
184,304,20910,2,0,P|152:280|144:220,1,89.9999952316285
164,152,21379,1,0,0:0:0:0:
148,80,21613,2,0,P|220:104|216:144,1,89.9999952316285
268,184,22082,1,0,0:0:0:0:
268,184,22316,1,0,0:0:0:0:
152,220,22551,6,0,P|144:272|200:312,1,89.9999952316285
224,248,23019,2,0,P|240:176|200:156,1,89.9999952316285
160,152,23488,2,0,P|176:96|240:96,1,89.9999952316285
288,72,23957,1,0,0:0:0:0:
256,148,24191,1,0,0:0:0:0:
400,112,24426,6,0,P|360:136|352:168,1,67.5000007867814
352,192,24777,1,0,0:0:0:0:
344,224,24894,1,0,0:0:0:0:
324,260,25012,1,0,0:0:0:0:
300,280,25129,1,0,0:0:0:0:
264,296,25246,1,0,0:0:0:0:
224,296,25363,1,0,0:0:0:0:
120,312,25598,1,0,0:0:0:0:
128,208,25832,1,0,0:0:0:0:
24,192,26066,1,0,0:0:0:0:
104,104,26301,6,0,P|152:72|184:72,1,67.499998998642
176,176,26769,2,0,P|224:216|248:168,1,89.9999952316285
288,80,27238,1,0,0:0:0:0:
368,144,27473,1,0,0:0:0:0:
320,240,27707,1,0,0:0:0:0:
416,304,27941,1,0,0:0:0:0:
208,304,28176,6,0,L|112:220,1,89.9999952316285
76,184,28644,1,0,0:0:0:0:
120,100,28879,1,0,0:0:0:0:
168,36,29113,2,0,P|208:100|184:140,1,89.9999952316285
160,164,29582,2,0,P|200:188|256:144,1,89.9999952316285
312,176,30051,1,0,0:0:0:0:
312,176,30285,1,0,0:0:0:0:
316,256,30519,6,0,P|372:228|380:164,1,89.9999952316285
380,128,30988,1,0,0:0:0:0:
256,112,31223,1,0,0:0:0:0:
324,48,31457,1,0,0:0:0:0:
320,176,31691,1,0,0:0:0:0:
124,100,31926,6,0,P|104:128|128:176,1,89.9999952316285
160,264,32394,1,0,0:0:0:0:
160,264,32629,1,0,0:0:0:0:
256,200,32863,2,0,P|312:176|304:120,2,67.5000007867814
192,152,33332,1,0,0:0:0:0:
256,104,33566,1,0,0:0:0:0:
360,224,33801,6,0,P|336:256|368:328,1,89.9999952316285
440,280,34269,1,0,0:0:0:0:
488,192,34504,1,0,0:0:0:0:
424,96,34738,2,0,P|384:96|376:120,2,67.5000007867814
376,208,35207,1,0,0:0:0:0:
376,208,35441,1,0,0:0:0:0:
296,296,35676,6,0,P|244:304|196:248,1,89.9999952316285
256,216,36144,1,0,0:0:0:0:
256,216,36379,1,0,0:0:0:0:
328,224,36613,2,0,P|320:168|264:140,2,89.9999952316285
368,304,37316,1,0,0:0:0:0:
448,184,37551,6,0,P|456:168|440:128,1,44.9999976158143
352,180,37902,1,0,0:0:0:0:
360,144,38019,2,0,P|328:84|352:48,1,89.9999952316285
188,136,38488,2,0,L|144:184,1,44.9999976158143
244,216,38723,2,0,L|304:264,1,44.9999976158143
280,136,38957,1,0,0:0:0:0:
452,112,39426,6,0,P|400:128|408:192,1,89.9999952316285
304,292,39894,2,0,P|304:256|288:252,2,44.9999976158143
280,316,40246,1,0,0:0:0:0:
224,328,40363,2,0,P|152:300|140:256,1,89.9999952316285
208,256,40832,2,0,P|200:212|236:168,1,89.9999952316285
220,76,41301,6,0,P|256:60|304:124,1,89.9999952316285
300,104,41681,1,0,0:0:0:0:
304,120,41799,1,0,0:0:0:0:
308,140,41886,1,0,0:0:0:0:
312,156,41974,1,0,0:0:0:0:
320,168,42062,1,0,0:0:0:0:
424,204,42238,1,0,0:0:0:0:
452,140,42473,2,0,P|492:172|468:240,1,89.9999952316285
384,304,42941,1,0,0:0:0:0:
240,304,43176,6,0,P|176:272|168:224,1,89.9999952316285
208,136,43644,1,0,0:0:0:0:
232,128,43762,1,0,0:0:0:0:
256,136,43879,1,0,0:0:0:0:
272,152,43996,1,0,0:0:0:0:
216,224,44113,2,0,P|208:256|240:312,2,67.499998998642
304,240,44465,1,0,0:0:0:0:
312,312,44582,2,0,P|376:256|364:224,1,89.9999952316285
344,136,45051,6,0,P|312:104|280:128,2,67.499998998642
288,176,45402,1,0,0:0:0:0:
280,192,45519,1,0,0:0:0:0:
272,208,45637,1,0,0:0:0:0:
264,224,45754,1,0,0:0:0:0:
252,244,45871,1,0,0:0:0:0:
148,292,45988,6,0,P|140:220|204:180,1,148.499996664047
204,104,46926,6,0,P|236:104|268:144,1,67.499998998642
268,152,47160,1,0,0:0:0:0:
276,176,47277,1,0,0:0:0:0:
288,192,47394,1,0,0:0:0:0:
304,204,47512,1,0,0:0:0:0:
320,216,47629,1,0,0:0:0:0:
340,224,47746,1,0,0:0:0:0:
360,228,47863,2,0,P|404:208|412:188,2,67.499998998642
332,312,48332,1,0,0:0:0:0:
168,336,48801,6,0,P|104:332|96:272,2,134.999997997284
172,256,49504,1,0,0:0:0:0:
248,268,49738,1,0,0:0:0:0:
248,232,49855,1,0,0:0:0:0:
228,200,49973,1,0,0:0:0:0:
192,180,50090,1,0,0:0:0:0:
160,180,50207,1,0,0:0:0:0:
348,240,50676,6,0,P|396:216|424:144,1,134.999997997284
380,84,51379,1,0,0:0:0:0:
292,84,51613,2,0,P|304:132|372:144,1,89.9999952316285
476,76,52082,1,0,0:0:0:0:
192,320,52551,6,0,P|104:292|92:252,1,134.999997997284
96,180,53254,1,0,0:0:0:0:
172,216,53488,2,0,P|180:148|136:112,1,89.9999952316285
24,224,53957,1,0,0:0:0:0:
292,132,54426,6,0,L|340:92,2,44.9999976158143
232,180,54777,1,0,0:0:0:0:
304,212,54894,2,0,P|272:256|248:264,1,67.499998998642
140,308,55363,2,0,P|180:348|220:336,1,89.9999952316285
280,332,55832,2,0,P|328:312|340:276,1,89.9999952316285
336,204,56301,2,0,P|392:224|412:260,1,89.9999952316285
392,324,56769,1,0,0:0:0:0:
472,312,57004,1,0,0:0:0:0:
488,232,57238,1,0,0:0:0:0:
284,160,57473,6,0,P|264:176|256:208,2,44.9999976158143
112,184,58176,6,0,P|104:236|120:252,1,44.9999976158143
120,256,58410,1,0,0:0:0:0:
140,264,58527,1,0,0:0:0:0:
160,264,58644,1,0,0:0:0:0:
176,256,58762,1,0,0:0:0:0:
184,244,58879,1,0,0:0:0:0:
184,232,58996,1,0,0:0:0:0:
180,220,59113,2,0,P|184:180|220:168,2,67.499998998642
280,212,59582,1,0,0:0:0:0:
304,76,60051,6,0,P|388:104|392:132,2,89.9999952316285
336,148,60754,1,0,0:0:0:0:
260,136,60988,1,0,0:0:0:0:
264,176,61105,1,0,0:0:0:0:
280,204,61223,1,0,0:0:0:0:
304,224,61340,1,0,0:0:0:0:
340,228,61457,1,0,0:0:0:0:
176,304,61926,6,0,P|120:272|96:200,1,134.999997997284
184,216,62629,1,0,0:0:0:0:
256,260,62863,2,0,P|264:192|232:152,1,89.9999952316285
180,136,63332,1,0,0:0:0:0:
356,308,63801,6,0,P|324:256|348:176,1,134.999997997284
404,240,64504,1,0,0:0:0:0:
400,148,64738,2,0,P|384:128|300:120,1,89.9999952316285
264,172,65207,1,0,0:0:0:0:
148,284,65676,6,0,P|120:320|84:320,2,67.499998998642
80,252,66027,1,0,0:0:0:0:
140,204,66144,2,0,P|108:176|76:172,1,67.499998998642
8,128,66613,2,0,P|-8:60|36:32,1,89.9999952316285
72,80,67082,2,0,P|96:112|164:96,1,89.9999952316285
152,188,67551,2,0,P|196:176|200:104,1,89.9999952316285
296,120,68019,1,0,0:0:0:0:
308,212,68254,1,0,0:0:0:0:
396,172,68488,1,0,0:0:0:0:
256,192,69426,12,0,72707,0:0:0:0:
