osu file format v14

[General]
AudioFilename: audio.mp3
AudioLeadIn: 0
PreviewTime: 53280
Countdown: 1
SampleSet: None
StackLeniency: 0.5
Mode: 0
LetterboxInBreaks: 0
WidescreenStoryboard: 1

[Editor]
DistanceSpacing: 1
BeatDivisor: 4
GridSize: 32
TimelineZoom: 2

[Metadata]
Title:Okochama Sensou
TitleUnicode:Okochama Sensou
Artist:96Neko
ArtistUnicode:96猫
Creator:TTL
Version:Hard
Source:
Tags:
BeatmapID:1668365
BeatmapSetID:794336

[Difficulty]
HPDrainRate:5
CircleSize:4
OverallDifficulty:6
ApproachRate:8
SliderMultiplier:1.7
SliderTickRate:1

[Events]
//Background and Video events
//Break Periods
//Storyboard Layer 0 (Background)
//Storyboard Layer 1 (Fail)
//Storyboard Layer 2 (Pass)
//Storyboard Layer 3 (Foreground)
//Storyboard Sound Samples

[TimingPoints]
10680.7516170524,342.857142857143,4,1,0,100,1,0
16166,-100,4,1,0,100,0,0
21652,-100,4,1,0,100,0,0
22166,-100,4,1,0,5,0,0
22337,-100,4,1,0,100,0,0
22937,-100,4,1,0,5,0,0
23023,-100,4,1,0,100,0,0
23623,-100,4,1,0,5,0,0
23709,-100,4,1,0,100,0,0
24309,-100,4,1,0,5,0,0
24395,-100,4,1,0,100,0,0
25766,-100,4,1,0,100,0,0
26537,-100,4,1,0,100,0,0
49080,-100,4,1,0,100,0,0
53795,-100,4,1,0,5,0,0
53880,-100,4,1,0,100,0,0
54137,-100,4,1,0,5,0,0
54223,-100,4,1,0,100,0,0
54566,-100,4,1,0,100,0,1
57137,-100,4,1,0,100,0,0
57995,-100,4,1,0,100,0,0
58509,-100,4,1,0,100,0,0
59366,-100,4,1,0,100,0,0
60052,-100,4,1,0,100,0,1
62623,-100,4,1,0,100,0,0
63995,-100,4,1,0,100,0,0
64852,-100,4,1,0,100,0,0
65537,-100,4,1,0,100,0,1
73766,-100,4,1,0,100,0,0
75137,-100,4,1,0,100,0,1
76509,-100,4,1,0,100,0,0

[HitObjects]
255,186,9309,5,0,0:0:0:0:
315,125,9480,6,0,L|362:72,2,42.5,0|0|0,0:0|0:0|0:0,0:0:0:0:
255,186,9823,1,0,0:0:0:0:
232,103,9995,1,0,0:0:0:0:
172,165,10166,1,0,0:0:0:0:
148,82,10337,1,0,0:0:0:0:
89,145,10509,1,0,0:0:0:0:
30,208,10680,6,0,P|30:274|57:311,1,85
108,241,11023,1,0,0:0:0:0:
192,227,11195,6,0,P|243:207|277:167,1,85
322,120,11537,2,0,P|348:162|340:229,1,85
405,262,11880,2,0,P|335:282|298:263,1,85
249,316,12223,1,0,0:0:0:0:
249,316,12309,1,0,0:0:0:0:
249,316,12395,6,0,P|251:233|276:203,1,85
292,160,12737,1,0,0:0:0:0:
339,88,12909,1,0,0:0:0:0:
253,84,13080,1,0,0:0:0:0:
171,80,13252,1,0,0:0:0:0:
86,75,13423,6,0,P|101:129|136:157,2,85
199,166,13937,2,0,P|169:213|128:231,1,85
253,84,14280,2,0,P|196:82|161:55,1,85
225,156,14623,2,0,P|195:203|154:221,1,85
279,74,14966,5,0,0:0:0:0:
258,72,15052,1,0,0:0:0:0:
239,69,15137,2,0,L|134:54,1,85
59,50,15480,2,0,P|73:129|82:152,2,85
213,197,16166,5,0,0:0:0:0:
235,182,16852,1,0,0:0:0:0:
257,167,17537,1,0,0:0:0:0:
279,152,18223,1,0,0:0:0:0:
299,187,18909,5,0,0:0:0:0:
277,202,19595,1,0,0:0:0:0:
255,217,20280,1,0,0:0:0:0:
233,232,20966,1,0,0:0:0:0:
113,271,21652,6,0,P|113:204|313:131,1,297.5
320,133,22337,1,0,0:0:0:0:
342,151,23023,2,0,P|197:189|179:322,1,297.5
192,340,23709,1,0,0:0:0:0:
256,192,24395,12,0,25766,0:0:0:0:
134,83,26452,5,0,0:0:0:0:
211,118,26623,2,0,P|242:131|292:148,1,85
372,164,26966,1,0,0:0:0:0:
361,191,27052,1,0,0:0:0:0:
350,214,27137,6,0,P|329:252|291:297,1,85
228,325,27480,1,0,0:0:0:0:
146,350,27652,2,0,P|150:289|191:250,1,85
244,245,27995,2,0,P|240:306|199:345,1,85
153,345,28337,6,0,P|157:284|198:245,1,85
250,241,28680,2,0,P|225:194|170:181,1,85
114,199,29023,6,0,B|103:151|139:118|139:118|122:102|122:102|154:82|163:40,1,170
