osu file format v14

[General]
AudioFilename: audio.mp3
AudioLeadIn: 0
PreviewTime: 53280
Countdown: 1
SampleSet: None
StackLeniency: 0.5
Mode: 0
LetterboxInBreaks: 0
WidescreenStoryboard: 1

[Editor]
DistanceSpacing: 1
BeatDivisor: 4
GridSize: 32
TimelineZoom: 2

[Metadata]
Title:Okochama Sensou
TitleUnicode:Okochama Sensou
Artist:96Neko
ArtistUnicode:96猫
Creator:TTL
Version:Another
Source:
Tags:
BeatmapID:1668364
BeatmapSetID:794336

[Difficulty]
HPDrainRate:6
CircleSize:4
OverallDifficulty:7
ApproachRate:9
SliderMultiplier:2
SliderTickRate:1

[Events]
//Background and Video events
//Break Periods
//Storyboard Layer 0 (Background)
//Storyboard Layer 1 (Fail)
//Storyboard Layer 2 (Pass)
//Storyboard Layer 3 (Foreground)
//Storyboard Sound Samples

[TimingPoints]
10680.7516170524,342.857142857143,4,1,0,100,1,0
16166,-250,4,1,0,100,0,0
21652,-133.333333333333,4,1,0,100,0,0
22166,-133.333333333333,4,1,0,5,0,0
22337,-133.333333333333,4,1,0,100,0,0
22937,-133.333333333333,4,1,0,5,0,0
23023,-133.333333333333,4,1,0,100,0,0
24309,-133.333333333333,4,1,0,5,0,0
24395,-100,4,1,0,100,0,0
25766,-100,4,1,0,100,0,0
26537,-133.333333333333,4,1,0,100,0,0
49080,-181.818181818181,4,1,0,100,0,0
53795,-181.818181818181,4,1,0,5,0,0
53880,-181.818181818181,4,1,0,100,0,0
54137,-181.818181818181,4,1,0,5,0,0
54223,-100,4,1,0,100,0,0
54566,-66.6666666666667,4,1,0,100,0,1
57137,-500,4,1,0,100,0,0
57995,-133.333333333333,4,1,0,100,0,0
58509,-333.333333333333,4,1,0,100,0,0
59366,-100,4,1,0,100,0,0
60052,-66.6666666666667,4,1,0,100,0,1
62623,-333.333333333333,4,1,0,100,0,0
63995,-133.333333333333,4,1,0,100,0,0
64852,-100,4,1,0,100,0,0
65537,-100,4,1,0,100,0,1
73766,-333.333333333333,4,1,0,100,0,0
75137,-333.333333333333,4,1,0,100,0,1
76509,-333.333333333333,4,1,0,100,0,0

[HitObjects]
177,89,9309,5,0,0:0:0:0:
321,293,9480,5,0,0:0:0:0:
333,260,9566,1,0,0:0:0:0:
344,227,9652,1,0,0:0:0:0:
72,315,9823,5,0,0:0:0:0:
283,78,9995,1,0,0:0:0:0:
266,338,10166,5,0,0:0:0:0:
283,78,10337,1,0,0:0:0:0:
434,232,10509,5,0,0:0:0:0:
283,78,10680,2,0,P|213:109|167:146,1,100
82,194,11023,5,0,0:0:0:0:
321,293,11195,2,0,P|318:207|311:180,1,100
283,78,11537,2,0,P|235:158|224:192,1,100
293,313,11880,6,0,P|290:227|283:200,1,100
255,98,12223,2,0,P|207:178|196:212,2,100
350,44,12737,2,0,L|395:22,2,50
137,84,13080,5,0,0:0:0:0:
407,176,13252,1,0,0:0:0:0:
156,216,13423,6,0,P|134:277|129:318,1,100
241,176,13766,1,0,0:0:0:0:
153,180,13937,6,0,P|112:230|93:266,1,100
255,161,14280,2,0,P|227:51|206:31,1,100
407,176,14623,1,0,0:0:0:0:
96,261,14795,2,0,L|41:277,2,50
407,176,15137,6,0,P|445:125|438:62,1,100
338,89,15480,2,0,P|204:128|142:135,1,200
64,125,16166,5,0,0:0:0:0:
129,270,16852,1,0,0:0:0:0:
209,60,17537,1,0,0:0:0:0:
274,205,18223,1,0,0:0:0:0:
209,60,18909,5,0,0:0:0:0:
115,188,19595,1,0,0:0:0:0:
337,153,20280,1,0,0:0:0:0:
244,281,20966,1,0,0:0:0:0:
417,90,21652,6,0,P|347:128|144:128,1,262.500010013581
138,125,22337,2,0,P|79:115|90:258,1,262.500010013581
119,264,23023,2,0,P|248:265|371:216,1,262.500010013581
400,199,23709,2,0,P|437:146|319:155,1,262.500010013581
316,174,24395,5,0,0:0:0:0:
256,192,24480,12,0,25252,0:0:0:0:
373,62,25766,6,0,P|363:142|339:182,1,100
164,249,26109,5,0,0:0:0:0:
219,83,26280,1,0,0:0:0:0:
335,213,26452,1,0,0:0:0:0:
128,147,26623,6,0,P|82:123|47:93,1,75.0000028610231
179,62,26966,5,0,0:0:0:0:
193,71,27052,1,0,0:0:0:0:
203,78,27137,2,0,P|245:112|266:142,1,75.0000028610231
160,303,27480,1,0,0:0:0:0:
58,165,27652,6,0,P|112:144|154:160,1,75.0000028610231
275,202,27995,2,0,P|231:247|197:255,1,75.0000028610231
74,255,28337,6,0,P|128:234|170:250,1,75.0000028610231
334,261,28680,2,0,P|290:306|256:314,1,75.0000028610231
160,314,29023,2,0,B|162:247|162:247|173:240|173:240|176:154,1,150.000005722046
185,52,29537,5,0,0:0:0:0:
310,114,29709,1,0,0:0:0:0:
104,263,29880,1,0,0:0:0:0:
83,103,30052,5,0,0:0:0:0:
78,72,30137,1,0,0:0:0:0:
72,39,30223,1,0,0:0:0:0:
297,193,30395,5,0,0:0:0:0:
319,211,30480,1,0,0:0:0:0:
342,232,30566,2,0,P|372:265|392:295,2,75.0000028610231
168,119,31080,6,0,P|146:183|148:212,1,75.0000028610231
304,319,31423,1,0,0:0:0:0:
410,102,31595,6,0,P|343:114|319:131,1,75.0000028610231
145,189,31937,2,0,P|97:211|56:210,1,75.0000028610231
205,88,32280,2,0,P|237:143|243:188,1,75.0000028610231
242,277,32623,6,0,P|180:275|149:260,1,75.0000028610231
88,130,32966,1,0,0:0:0:0:
245,95,33137,2,0,P|277:150|283:195,1,75.0000028610231
224,310,33480,6,0,P|162:308|131:293,1,75.0000028610231
284,76,33823,2,0,P|316:131|322:176,1,75.0000028610231
203,344,34166,2,0,P|141:342|110:327,1,75.0000028610231
239,144,34509,5,0,0:0:0:0:
389,290,34680,1,0,0:0:0:0:
187,346,34852,5,0,0:0:0:0:
88,130,35023,1,0,0:0:0:0:
239,144,35195,5,0,0:0:0:0:
187,346,35366,1,0,0:0:0:0:
88,130,35537,5,0,0:0:0:0:
75,101,35623,1,0,0:0:0:0:
65,75,35709,1,0,0:0:0:0:
187,346,35880,6,0,L|203:287,1,37.5000014305115
239,144,36052,1,0,0:0:0:0:
362,337,36223,5,0,0:0:0:0:
384,73,36395,1,0,0:0:0:0:
212,59,36566,6,0,P|167:97|150:140,1,75.0000028610231
97,196,36909,2,0,P|133:213|185:207,1,75.0000028610231
241,147,37252,2,0,P|267:198|236:288,1,150.000005722046
138,280,37766,2,0,P|154:239|170:208,1,75.0000028610231
234,68,38109,5,0,0:0:0:0:
371,285,38280,5,0,0:0:0:0:
168,211,38452,1,0,0:0:0:0:
444,221,38623,5,0,0:0:0:0:
241,147,38795,1,0,0:0:0:0:
506,158,38966,5,0,0:0:0:0:
307,82,39137,2,0,P|336:59|372:20,2,75.0000028610231
195,169,39652,5,0,0:0:0:0:
166,193,39737,1,0,0:0:0:0:
146,212,39823,2,0,P|114:241|87:279,1,75.0000028610231
276,337,40166,5,0,0:0:0:0:
236,89,40337,1,0,0:0:0:0:
66,147,40509,5,0,0:0:0:0:
357,241,40680,2,0,P|401:254|438:261,1,75.0000028610231
236,89,41023,6,0,P|203:135|192:163,1,75.0000028610231
227,329,41366,6,0,P|272:287|283:249,1,75.0000028610231
355,94,41709,1,0,0:0:0:0:
126,100,41880,1,0,0:0:0:0:
342,215,42052,6,0,P|311:178|259:161,1,75.0000028610231
126,100,42395,5,0,0:0:0:0:
250,256,42566,1,0,0:0:0:0:
462,290,42737,5,0,0:0:0:0:
365,114,42909,2,0,P|320:139|266:123,1,75.0000028610231
195,115,43252,2,0,P|193:166|211:198,1,75.0000028610231
447,301,43595,6,0,P|407:271|356:248,1,75.0000028610231
154,239,43937,2,0,P|194:269|245:292,1,75.0000028610231
414,248,44280,6,0,P|374:218|323:195,1,75.0000028610231
121,186,44622,2,0,P|161:216|212:239,1,75.0000028610231
224,232,44880,1,0,0:0:0:0:
271,223,44966,6,0,P|260:173|230:128,2,75.0000028610231
253,340,45480,2,0,P|208:319|174:286,1,75.0000028610231
80,103,45823,6,0,P|112:121|141:144,1,75.0000028610231
254,257,46166,1,0,0:0:0:0:
345,40,46337,6,0,P|364:72|377:107,1,75.0000028610231
415,288,46680,1,0,0:0:0:0:
157,247,46852,6,0,P|179:190|208:160,1,75.0000028610231
387,23,47195,6,0,P|406:55|419:90,1,75.0000028610231
476,321,47537,1,0,0:0:0:0:
249,118,47709,5,0,0:0:0:0:
203,334,47880,6,0,L|184:281,1,37.5000014305115
137,117,48052,1,0,0:0:0:0:
249,118,48223,6,0,P|236:174|205:212,1,75.0000028610231
189,235,48737,5,0,0:0:0:0:
352,157,49080,6,0,P|383:207|297:305,1,192.500005874634
148,329,50023,1,0,0:0:0:0:
188,187,50280,5,0,0:0:0:0:
197,157,50366,1,0,0:0:0:0:
206,125,50452,1,0,0:0:0:0:
229,38,50623,2,0,P|273:40|289:47,2,55.0000016784668
95,55,51137,6,0,P|86:92|89:125,1,55.0000016784668
81,250,51480,6,0,P|90:213|87:180,1,55.0000016784668
95,55,51823,5,0,0:0:0:0:
259,305,53195,5,0,0:0:0:0:
257,39,53366,5,0,0:0:0:0:
237,63,53452,1,0,0:0:0:0:
215,86,53537,1,0,0:0:0:0:
66,225,53709,5,0,0:0:0:0:
398,228,53880,1,0,0:0:0:0:
260,363,54052,5,0,0:0:0:0:
259,29,54223,2,0,P|229:63|191:117,1,100
133,203,54566,5,0,0:0:0:0:
444,102,54737,1,0,0:0:0:0:
259,29,54909,5,0,0:0:0:0:
362,318,55080,1,0,0:0:0:0:
351,28,55252,6,0,P|340:79|232:124,1,150.000005722046
155,149,55595,1,0,0:0:0:0:
117,159,55680,1,0,0:0:0:0:
82,174,55766,2,0,P|36:247|102:311,1,150.000005722046
301,245,56109,5,0,0:0:0:0:
323,221,56195,1,0,0:0:0:0:
344,200,56280,2,0,P|310:115|246:142,1,150.000005722046
82,174,56623,6,0,P|72:84|111:1,2,150.000005722046
166,132,57137,6,0,B|203:118|203:118|180:99|180:99|203:86,1,90
388,209,57995,6,0,L|376:167,1,25.0000009536744
47,283,58166,6,0,L|36:241,1,25.0000009536744
198,89,58337,6,0,L|190:61,1,25.0000009536744
257,309,58509,6,0,B|238:283|238:283|248:262|248:262|226:181,1,134.999995880127
217,136,59366,6,0,B|252:123|252:123|167:108,1,100
257,309,59709,1,0,0:0:0:0:
408,120,60052,6,0,P|341:182|257:212,1,150.000005722046
94,249,60395,5,0,0:0:0:0:
251,58,60566,1,0,0:0:0:0:
405,171,60737,6,0,P|338:233|254:263,1,150.000005722046
67,291,61080,5,0,0:0:0:0:
225,87,61252,2,0,P|236:180|174:260,1,150.000005722046
58,165,61595,5,0,0:0:0:0:
70,124,61680,1,0,0:0:0:0:
82,86,61766,2,0,B|92:55|92:55|185:191,1,150.000005722046
233,263,62109,2,0,B|299:359|299:359|309:328,1,150.000005722046
359,46,62452,5,0,0:0:0:0:
158,151,62623,6,0,B|190:151|190:151|201:157|201:157|249:157,1,89.9999972534181
352,155,63309,1,0,0:0:0:0:
365,329,63480,6,0,L|356:323,1,9.99999969482423
234,224,63652,2,0,L|241:230,1,9.99999969482423
382,341,63823,6,0,L|370:333,1,9.99999969482423
221,211,63995,2,0,P|146:208|165:272,1,150.000005722046
238,340,64509,5,0,0:0:0:0:
352,155,64680,1,0,0:0:0:0:
216,82,64852,6,0,P|194:142|197:199,1,100
299,62,65195,1,0,0:0:0:0:
218,38,65366,1,0,0:0:0:0:
218,38,65537,6,0,P|168:78|143:129,1,100
186,213,65880,2,0,P|236:173|261:122,1,100
241,55,66223,6,0,P|310:49|374:66,1,100
443,197,66566,1,0,0:0:0:0:
199,270,66737,6,0,B|177:197|177:197|199:182|199:182|159:120|176:67,1,200
436,46,67252,5,0,0:0:0:0:
297,294,67423,1,0,0:0:0:0:
172,91,67595,5,0,0:0:0:0:
318,122,67766,2,0,P|381:144|410:175,1,100
297,294,68109,2,0,P|235:258|171:245,1,100
22,254,68452,5,0,0:0:0:0:
165,50,68623,1,0,0:0:0:0:
317,191,68795,5,0,0:0:0:0:
60,118,68966,1,0,0:0:0:0:
413,93,69137,5,0,0:0:0:0:
138,256,69309,1,0,0:0:0:0:
454,283,69480,6,0,P|338:274|327:261,1,100
166,147,69823,2,0,P|83:107|39:114,1,100
125,311,70166,5,0,0:0:0:0:
293,130,70337,2,0,P|263:69|223:36,1,100
77,106,70680,1,0,0:0:0:0:
52,139,70766,1,0,0:0:0:0:
263,301,71023,6,0,P|204:241|216:189,1,100
246,123,71366,2,0,P|305:183|293:235,1,100
263,254,71709,6,0,P|204:194|216:142,1,100
357,98,72052,5,0,0:0:0:0:
72,109,72223,2,0,B|97:183|97:183|66:204|66:204|94:234|82:317,1,200
165,348,72737,5,0,0:0:0:0:
222,97,72909,1,0,0:0:0:0:
279,286,73080,6,0,P|345:298|384:256,1,100
314,75,73423,2,0,P|259:111|237:186,1,100
168,311,73766,2,0,B|156:286|156:286|169:278|169:278|145:241|157:228,1,89.9999972534181
140,69,74452,5,0,0:0:0:0:
300,263,74623,1,0,0:0:0:0:
267,47,74795,5,0,0:0:0:0:
425,232,74966,1,0,0:0:0:0:
394,18,75137,6,0,P|401:82|400:89,1,59.9999981689454
388,180,75823,1,0,0:0:0:0:
