osu file format v14

[General]
AudioFilename: 96Neko - Dare Demo Ii kara Tsukiaitai.mp3
AudioLeadIn: 1000
PreviewTime: 30453
Countdown: 0
SampleSet: Soft
StackLeniency: 0.7
Mode: 0
LetterboxInBreaks: 0
WidescreenStoryboard: 0

[Editor]
Bookmarks: 2463,59696
DistanceSpacing: 1.2
BeatDivisor: 2
GridSize: 4
TimelineZoom: 1

[Metadata]
Title:Dare Demo Ii kara Tsukiaitai
TitleUnicode:誰でもいいから付き合いたい
Artist:96Neko
ArtistUnicode:96猫
Creator:GiNa
Version:Normal
Source:Nico Nico Douga
Tags:I don't care who, Someone go out with me! Takkyuu shounen Kagamine Len vocaloid vocaloid2 Charles445 Tsusuko
BeatmapID:200345
BeatmapSetID:68894

[Difficulty]
HPDrainRate:4
CircleSize:3
OverallDifficulty:4
ApproachRate:5
SliderMultiplier:1.2
SliderTickRate:1

[Events]
//Background and Video events
0,0,"BG.jpg",0,0
Video,0,"96Neko - Dare Demo Ii kara Tsukiaitai.avi"
//Break Periods
//Storyboard Layer 0 (Background)
//Storyboard Layer 1 (Fail)
//Storyboard Layer 2 (Pass)
//Storyboard Layer 3 (Foreground)
//Storyboard Sound Samples

[TimingPoints]
120,291.26213592233,4,2,0,60,1,0
2450,-100,4,1,0,70,0,0
30411,-100,4,1,0,80,0,1
30484,-100,4,1,0,80,0,0
39731,-100,4,1,0,80,0,1
39804,-100,4,1,0,80,0,0
49052,-100,4,1,0,80,0,1
58372,-100,4,1,0,80,0,0
59683,-100,4,2,0,80,0,0
60119,-100,4,1,0,80,0,0
62741,-100,4,1,0,50,0,0

[Colours]
Combo1 : 255,241,74
Combo2 : 73,193,70
Combo3 : 15,57,255
Combo4 : 248,24,114

[HitObjects]
136,112,1285,6,0,L|256:112,1,120,4|4,0:0|0:0,0:0:0:0:
376,192,1867,2,0,L|256:192,1,120,4|4,0:0|0:0,0:0:0:0:
112,192,2450,6,0,P|128:252|160:304,1,120,4|8,0:0|0:0,0:0:0:0:
256,192,3032,2,0,B|272:216|272:216|272:248|272:248|300:272|304:304,1,120,0|8,0:0|0:0,0:0:0:0:
448,300,3615,2,0,P|432:240|402:190,2,120,0|8|0,0:0|0:0|0:0,0:0:0:0:
348,32,4780,6,0,P|409:43|465:31,2,120,0|8|0,0:0|0:0|0:0,0:0:0:0:
212,84,5653,1,8,0:0:0:0:
68,96,5945,2,0,P|56:152|68:216,2,120,0|8|0,0:0|0:0|0:0,0:0:0:0:
356,68,7110,6,0,P|400:112|456:120,1,120,0|8,0:0|0:0,0:0:0:0:
404,256,7692,1,0,0:0:0:0:
280,332,7984,1,8,0:0:0:0:
160,252,8275,2,0,P|100:264|40:252,2,120,0|8|0,0:0|0:0|0:0,0:0:0:0:
100,120,9149,1,8,0:0:0:0:
236,72,9440,6,0,P|352:48|440:124,2,240,4|4|0,2:0|2:0|0:0,0:0:0:0:
236,144,10751,2,8,L|236:324,1,180,2|4,2:0|2:0,0:0:0:0:
492,192,11770,6,0,L|492:72,1,120,2|0,0:0|0:0,0:0:0:0:
364,132,12353,2,0,L|364:252,1,120,0|0,0:0|0:0,0:0:0:0:
240,192,12935,2,0,L|240:72,2,120,2|0|8,0:0|0:0|0:0,0:0:0:0:
496,320,14100,6,0,P|412:288|324:292,1,180,2|0,0:0|0:0,0:0:0:0:
256,316,14683,1,0,0:0:0:0:
144,232,14974,1,0,0:0:0:0:
144,88,15265,2,0,P|228:56|316:60,1,180,2|0,0:0|0:0,0:0:0:0:
388,76,15848,1,8,0:0:0:0:
144,232,16430,6,0,L|104:276,2,60,2|0|0,0:0|0:0|0:0,0:0:0:0:
204,276,16867,1,0,0:0:0:0:
272,296,17013,2,0,B|332:288|332:288|384:260,1,120,0|0,0:0|0:0,0:0:0:0:
256,192,17595,2,0,B|248:132|248:132|220:80,1,120,2|0,0:0|0:0,0:0:0:0:
80,44,18178,1,8,0:0:0:0:
368,64,18760,6,0,P|392:120|400:184,1,120,0|0,0:0|0:0,0:0:0:0:
476,300,19343,2,0,P|368:336|284:256,1,240
292,112,20217,1,0,0:0:0:0:
164,180,20508,1,8,0:0:0:0:
420,308,21090,5,2,0:0:0:0:
412,164,21382,2,0,L|360:136,1,60
292,112,21673,2,0,P|188:168|72:140,1,240,0|2,0:0|0:0,0:0:0:0:
168,28,22547,1,0,0:0:0:0:
168,28,22838,1,8,0:0:0:0:
256,296,23420,6,0,P|312:276|368:296,1,120,2|0,0:0|0:0,0:0:0:0:
256,192,24003,2,0,P|200:212|144:192,1,120
36,96,24586,2,0,P|136:36|232:96,1,240,2|8,0:0|0:0,0:0:0:0:
416,316,25751,5,2,0:0:0:0:
396,172,26042,2,0,P|360:120|316:84,1,120
332,228,26624,2,0,P|278:196|223:182,1,120,0|2,0:0|0:0,0:0:0:0:
300,304,27207,2,0,P|238:298|182:308,1,120,0|8,0:0|0:0,0:0:0:0:
352,72,28081,6,0,L|448:148,2,120,2|0|0,0:0|0:0|0:0,0:0:0:0:
224,52,28954,1,0,0:0:0:0:
300,176,29246,2,0,L|300:240,2,60,2|0|8,0:0|0:0|0:0,0:0:0:0:
168,232,29828,2,0,L|168:172,2,60,8|0|8,0:0|0:0|0:0,0:0:0:0:
220,368,30411,6,0,P|280:368|330:337,1,120,4|8,0:0|0:0,0:0:0:0:
468,292,30993,1,0,0:0:0:0:
408,160,31285,1,8,0:0:0:0:
408,160,31576,2,0,P|348:160|296:192,2,120,0|8|0,0:0|0:0|0:0,0:0:0:0:
132,76,32741,6,0,B|120:128|120:128|60:172|72:240,2,180,0|0|8,0:0|0:0|0:0,0:0:0:0:
276,64,33906,2,0,P|276:128|248:176,1,120,0|8,0:0|0:0,0:0:0:0:
164,292,34488,1,0,0:0:0:0:
404,132,35071,5,0,0:0:0:0:
296,36,35362,2,0,L|176:36,1,120,8|0,0:0|0:0,0:0:0:0:
32,36,35945,1,8,0:0:0:0:
104,160,36236,2,0,L|104:280,2,120,0|8|0,0:0|0:0|0:0,0:0:0:0:
244,188,37110,1,8,0:0:0:0:
380,240,37401,6,0,L|440:240,1,60,4|0,2:0|0:0,0:0:0:0:
244,336,37984,2,0,L|184:336,1,60,4|0,2:0|0:0,0:0:0:0:
400,336,38566,1,0,0:0:0:0:
332,312,38712,2,0,L|256:220,1,120,4|4,2:0|2:0,0:0:0:0:
112,216,39294,2,0,L|56:192,1,60
108,52,39731,6,0,P|256:140|404:52,1,360,4|8,0:0|0:0,0:0:0:0:
480,176,40896,1,8,0:0:0:0:
352,244,41187,2,0,P|296:268|236:264,1,120,8|8,0:0|0:0,0:0:0:0:
100,224,41770,5,0,0:0:0:0:
172,100,42061,2,0,P|288:120|372:208,1,240,8|8,0:0|0:0,0:0:0:0:
228,204,42935,2,0,L|108:204,1,120,8|8,0:0|0:0,0:0:0:0:
168,336,43518,2,0,L|36:336,2,120,8|8|8,0:0|0:0|0:0,0:0:0:0:
248,216,44391,6,0,B|300:264|300:264|340:232,1,120,8|8,0:0|0:0,0:0:0:0:
440,128,44974,2,0,P|357:43|241:23,1,240,8|8,0:0|0:0,0:0:0:0:
151,125,45848,2,0,B|139:197|155:261|155:261|247:217,1,240,8|8,0:0|0:0,0:0:0:0:
336,104,46721,6,0,B|384:80|384:80|424:28,2,120,4|8|0,2:0|0:0|0:0,0:0:0:0:
264,228,47595,2,0,L|144:252,1,120,8|0,0:0|0:0,0:0:0:0:
92,300,48032,2,0,L|68:180,1,120,4|4,2:0|2:0,0:0:0:0:
20,128,48469,2,0,L|140:104,1,120,0|8,0:0|0:0,0:0:0:0:
276,72,49052,5,4,0:0:0:0:
376,176,49343,1,8,0:0:0:0:
276,280,49634,1,0,0:0:0:0:
176,176,49925,1,8,0:0:0:0:
276,280,50217,2,0,L|392:324,2,120,0|8|0,0:0|0:0|0:0,0:0:0:0:
428,36,51382,6,0,P|400:28|368:32,2,60,4|0|8,0:0|0:0|0:0,0:0:0:0:
468,172,51964,2,0,P|424:216|408:272,1,120,0|8,0:0|0:0,0:0:0:0:
316,160,52547,1,0,0:0:0:0:
316,304,52838,2,0,P|360:348|416:364,1,120,8|0,0:0|0:0,0:0:0:0:
184,192,53712,5,4,0:0:0:0:
124,232,53857,1,0,0:0:0:0:
64,192,54003,2,0,L|64:72,2,120,8|0|8,0:0|0:0|0:0,0:0:0:0:
124,324,54877,2,0,L|196:336,1,60
256,336,55168,2,0,L|328:324,2,60,8|0|0,0:0|0:0|0:0,0:0:0:0:
256,192,55751,1,8,0:0:0:0:
140,108,56042,6,0,P|108:116|84:136,1,60,8|0,0:0|0:0,0:0:0:0:
292,60,56624,2,0,P|324:68|348:88,1,60,8|0,0:0|0:0,0:0:0:0:
404,292,57207,1,8,0:0:0:0:
340,324,57353,2,0,P|280:332|220:324,1,120,4|4,2:0|2:0,0:0:0:0:
84,280,57935,2,0,P|52:272|28:252,1,60,0|8,0:0|0:0,0:0:0:0:
124,144,58372,6,0,P|192:52|300:80,1,240,4|0,0:0|0:0,0:0:0:0:
412,176,59246,2,0,P|376:224|320:224,1,120,0|0,0:0|0:0,0:0:0:0:
256,192,59683,2,0,P|208:228|208:284,1,120,4|4,2:0|2:0,0:0:0:0:
256,192,60119,12,0,62814,0:0:0:0:
