osu file format v14

[General]
AudioFilename: audio.ogg
AudioLeadIn: 0
PreviewTime: 54570
Countdown: 0
SampleSet: Normal
StackLeniency: 0.7
Mode: 1
LetterboxInBreaks: 0
WidescreenStoryboard: 1

[Editor]
Bookmarks: 20599,27456,34313,36027,39456,46313,53170,54884,61741,65169,69456,76312,84027,87456,90884,97741,104598,108027,111456,118313,125170
DistanceSpacing: 1.7
BeatDivisor: 2
GridSize: 32
TimelineZoom: 1.767928

[Metadata]
Title:Scooter Braza
TitleUnicode:Scooter Braza
Artist:96-glass
ArtistUnicode:96-glass
Creator:paz08
Version:Inner Oni
Source:
Tags:electronic instrumental breakcore dancecore mashcore speedcore 96glass Favicon Vol. 2 THIS IS DANCECORE! FAV-013 one (always hardcore) always
BeatmapID:4489837
BeatmapSetID:1732086

[Difficulty]
HPDrainRate:5.2
CircleSize:2
OverallDifficulty:6.5
ApproachRate:10
SliderMultiplier:1.4
SliderTickRate:1

[Events]
//Background and Video events
0,0,"111827363_p0.jpg",0,20
//Break Periods
2,13713,20149
//Storyboard Layer 0 (Background)
//Storyboard Layer 1 (Fail)
//Storyboard Layer 2 (Pass)
//Storyboard Layer 3 (Foreground)
//Storyboard Layer 4 (Overlay)
//Storyboard Sound Samples

[TimingPoints]
180,392.156862745098,4,1,0,30,1,0
180,-111.111115,4,1,0,30,0,0
376,-110.36271,4,1,0,36,0,0
572,-109.61935,4,1,0,43,0,0
768,-108.88101,4,1,0,49,0,0
964,-108.14762,4,1,0,55,0,0
1160,-107.41918,4,1,0,61,0,0
1356,-106.69565,4,1,0,68,0,0
1553,-105.973335,4,1,0,74,0,0
1748,-105.26317,4,1,0,80,0,0
2140,-103.4802,4,1,0,80,0,0
2532,-101.72744,4,1,0,80,0,0
2925,392.156862745098,4,1,0,80,1,0
2925,-100,4,1,0,80,0,0
13513,392.156862745098,69,1,0,80,1,8
13807,-100,69,1,0,60,0,0
20599,214.285714285714,4,1,0,100,1,0
20599,-111.111111111111,8,1,0,100,0,0
27456,-105.263157894737,8,1,0,100,0,0
36027,-117.647058823529,8,1,0,100,0,0
38598,-117.64706,8,1,0,100,0,0
38813,-117.42968,8,1,0,100,0,0
38920,-116.91998,8,1,0,100,0,0
39027,-115.942024,8,1,0,100,0,0
39134,-114.36676,8,1,0,100,0,0
39188,-113.31242,8,1,0,100,0,0
39241,-112.096405,8,1,0,100,0,0
39348,-109.07604,8,1,0,100,0,0
39456,-105.26316,8,1,0,100,0,0
41384,-117.647058823529,8,1,0,100,0,0
42670,-100,8,1,0,100,0,0
43098,-105.263157894737,8,1,0,100,0,0
46313,-100,8,1,0,100,0,0
46527,-105.263157894737,8,1,0,100,0,0
47170,-100,8,1,0,100,0,0
47384,-105.263157894737,8,1,0,100,0,0
48027,-100,8,1,0,100,0,0
48241,-105.263157894737,8,1,0,100,0,0
48884,-100,8,1,0,100,0,0
49098,-105.263157894737,8,1,0,100,0,0
49741,-100,8,1,0,100,0,0
49848,-105.263157894737,8,1,0,100,0,0
50170,-100,8,1,0,100,0,0
50277,-105.263157894737,8,1,0,100,0,0
50598,-100,8,1,0,100,0,0
50705,-105.263157894737,8,1,0,100,0,0
51027,-100,8,1,0,100,0,0
51134,-105.263157894737,8,1,0,100,0,0
52313,-105.2556,8,1,0,100,0,0
52366,-105.23788,8,1,0,100,0,0
52420,-105.20269,8,1,0,100,0,0
52527,-105.05936,8,1,0,100,0,0
52634,-104.781364,8,1,0,100,0,0
52688,-104.57638,8,1,0,100,0,0
52741,-104.326256,8,1,0,100,0,0
52848,-103.65462,8,1,0,100,0,0
52956,-102.72168,8,1,0,100,0,0
53009,-102.16095,8,1,0,100,0,0
53063,-101.515884,8,1,0,100,0,0
53170,800,4,1,0,100,1,0
53170,-26.788105,8,1,0,100,0,0
53370,-62.5,8,1,0,5,0,0
54884,214.285714285714,4,1,0,100,1,1
54884,-100,4,1,0,100,0,1
68598,-100,4,1,0,100,0,0
69455,-111.111111111111,4,1,0,100,0,0
75454,-111.10271,8,1,0,100,0,0
75562,-111.04289,8,1,0,100,0,0
75669,-110.882256,8,1,0,100,0,0
75776,-110.5714,8,1,0,100,0,0
75829,-110.34719,8,1,0,100,0,0
75883,-110.06331,8,1,0,100,0,0
75990,-109.3145,8,1,0,100,0,0
76097,-108.28686,8,1,0,100,0,0
76204,-106.949455,8,1,0,100,0,0
76312,-105.26316,8,1,0,100,0,0
82740,-104.1908,8,1,0,100,0,0
82794,-103.653786,8,1,0,100,0,0
82847,-103.12939,8,1,0,100,0,0
82954,-102.07878,8,1,0,100,0,0
83062,-101.02922,8,1,0,100,0,0
83169,-100,8,1,0,100,0,0
84026,214.285714285714,4,1,0,100,1,0
84026,-83.3333333333333,8,1,0,100,0,0
85740,-105.263157894737,8,1,0,100,0,0
87240,-117.647058823529,8,1,0,100,0,0
89168,-117.63892,8,1,0,100,0,0
89222,-117.607544,8,1,0,100,0,0
89276,-117.54803,8,1,0,100,0,0
89329,-117.459335,8,1,0,100,0,0
89383,-117.33593,8,1,0,100,0,0
89490,-116.9865,8,1,0,100,0,0
89597,-116.49002,8,1,0,100,0,0
89704,-115.84062,8,1,0,100,0,0
89811,-115.03547,8,1,0,100,0,0
89918,-114.074326,8,1,0,100,0,0
90025,-112.95928,8,1,0,100,0,0
90079,-112.33935,8,1,0,100,0,0
90133,-111.68195,8,1,0,100,0,0
90186,-111.00112,8,1,0,100,0,0
90240,-110.27207,8,1,0,100,0,0
90347,-108.72612,8,1,0,100,0,0
90400,-107.912704,8,1,0,100,0,0
90454,-107.05311,8,1,0,100,0,0
90561,-105.26316,8,1,0,100,0,0
90668,-285.714285714286,8,1,0,5,0,0
90842,-100,8,1,0,100,0,0
90883,-100,4,1,0,100,0,1
96561,-99.99976,4,1,0,100,0,1
96668,-99.99343,4,1,0,100,0,1
96775,-99.96947,4,1,0,100,0,1
96882,-99.916145,4,1,0,100,0,1
96936,-99.87437,4,1,0,100,0,1
96990,-99.82067,4,1,0,100,0,1
97097,-99.67325,4,1,0,100,0,1
97150,-99.57728,4,1,0,100,0,1
97204,-99.46201,4,1,0,100,0,1
97257,-99.3304,4,1,0,100,0,1
97311,-99.176155,4,1,0,100,0,1
97418,-98.80548,4,1,0,100,0,1
97525,-98.34047,4,1,0,100,0,1
97740,-97.08738,4,1,0,100,0,1
103740,-97.0868,4,1,0,100,0,1
103847,-97.07183,4,1,0,100,0,1
103900,-97.050865,4,1,0,100,0,1
103954,-97.01568,4,1,0,100,0,1
104061,-96.8912,4,1,0,100,0,1
104168,-96.671715,4,1,0,100,0,1
104222,-96.516685,4,1,0,100,0,1
104275,-96.33157,4,1,0,100,0,1
104382,-95.84657,4,1,0,100,0,1
104490,-95.18785,4,1,0,100,0,1
104597,-94.33963,8,1,0,100,0,0
104704,-133.333333333333,4,1,0,100,0,0
108025,-117.64706,8,1,0,100,0,0
108132,-117.64644,8,1,0,100,0,0
108239,-117.64203,8,1,0,100,0,0
108347,-117.62995,8,1,0,100,0,0
108454,-117.6066,8,1,0,100,0,0
108561,-117.56817,8,1,0,100,0,0
108668,-117.51093,8,1,0,100,0,0
108775,-117.43119,8,1,0,100,0,0
108882,-117.32528,8,1,0,100,0,0
108936,-117.260765,8,1,0,100,0,0
108989,-117.18962,8,1,0,100,0,0
109097,-117.01891,8,1,0,100,0,0
109204,-116.8129,8,1,0,100,0,0
109311,-116.56683,8,1,0,100,0,0
109418,-116.27754,8,1,0,100,0,0
109525,-115.942024,8,1,0,100,0,0
109739,-115.12122,8,1,0,100,0,0
109793,-114.880684,8,1,0,100,0,0
109847,-114.62609,8,1,0,100,0,0
109954,-114.0791,8,1,0,100,0,0
110061,-113.47407,8,1,0,100,0,0
110114,-113.1524,8,1,0,100,0,0
110168,-112.80946,8,1,0,100,0,0
110275,-112.08407,8,1,0,100,0,0
110382,-111.29698,8,1,0,100,0,0
110436,-110.876144,8,1,0,100,0,0
110489,-110.44767,8,1,0,100,0,0
110596,-109.53595,8,1,0,100,0,0
110704,-108.55262,8,1,0,100,0,0
110757,-108.04704,8,1,0,100,0,0
110811,-107.51645,8,1,0,100,0,0
110918,-106.41953,8,1,0,100,0,0
111025,-105.26316,8,1,0,100,0,0
111454,-97.0873786407767,4,1,0,100,0,1
124311,-97.08738,4,1,0,100,0,1
124418,-97.071846,4,1,0,100,0,1
124525,-96.99952,4,1,0,100,0,1
124578,-96.934715,4,1,0,100,0,1
124632,-96.84564,4,1,0,100,0,1
124739,-96.59244,4,1,0,100,0,1
124846,-96.22603,4,1,0,100,0,1
124900,-95.99459,4,1,0,100,0,1
124953,-95.73558,4,1,0,100,0,1
125061,-95.10647,4,1,0,100,0,1
125168,416.666666666667,4,1,0,100,1,0
125168,-48.520138,4,1,0,100,0,0
129334,530.973451327434,69,1,0,100,1,8

[HitObjects]
256,192,180,6,0,L|320:192,7,62.9999980773926
256,192,1748,1,0,0:0:0:0:
256,192,2140,1,0,0:0:0:0:
256,192,2532,1,0,0:0:0:0:
256,192,2925,1,8,0:0:0:0:
256,192,3317,1,0,0:0:0:0:
256,192,3709,1,8,0:0:0:0:
256,192,4101,1,0,0:0:0:0:
256,192,4493,1,8,0:0:0:0:
256,192,4885,1,0,0:0:0:0:
256,192,5081,1,0,0:0:0:0:
256,192,5277,1,8,0:0:0:0:
256,192,5670,1,0,0:0:0:0:
256,192,6062,1,8,0:0:0:0:
256,192,6454,1,0,0:0:0:0:
256,192,6846,1,8,0:0:0:0:
256,192,6977,1,8,0:0:0:0:
256,192,7108,1,8,0:0:0:0:
256,192,7238,1,0,0:0:0:0:
256,192,7630,1,0,0:0:0:0:
256,192,8023,1,8,0:0:0:0:
256,192,8415,1,8,0:0:0:0:
256,192,8611,1,8,0:0:0:0:
256,192,8807,1,0,0:0:0:0:
256,192,9199,1,8,0:0:0:0:
256,192,9591,1,0,0:0:0:0:
256,192,9983,1,8,0:0:0:0:
256,192,10375,1,0,0:0:0:0:
256,192,10768,1,8,0:0:0:0:
256,192,11160,1,0,0:0:0:0:
256,192,11356,1,0,0:0:0:0:
256,192,11552,1,8,0:0:0:0:
256,192,11944,1,0,0:0:0:0:
256,192,12336,1,8,0:0:0:0:
256,192,12728,1,0,0:0:0:0:
256,192,13121,1,8,0:0:0:0:
256,192,13251,1,8,0:0:0:0:
256,192,13382,1,8,0:0:0:0:
256,192,13513,1,0,0:0:0:0:
256,192,20599,5,12,0:0:0:0:
256,192,20813,1,8,0:0:0:0:
256,192,20920,1,0,0:0:0:0:
256,192,21027,1,0,0:0:0:0:
256,192,21241,1,8,0:0:0:0:
256,192,21456,1,0,0:0:0:0:
256,192,21670,1,8,0:0:0:0:
256,192,21777,1,8,0:0:0:0:
256,192,21884,1,0,0:0:0:0:
256,192,22098,1,8,0:0:0:0:
256,192,22206,1,0,0:0:0:0:
256,192,22259,1,0,0:0:0:0:
256,192,22313,1,8,0:0:0:0:
256,192,22420,1,0,0:0:0:0:
256,192,22527,1,8,0:0:0:0:
256,192,22634,1,8,0:0:0:0:
256,192,22741,1,0,0:0:0:0:
256,192,22956,1,8,0:0:0:0:
256,192,23170,1,0,0:0:0:0:
256,192,23384,1,8,0:0:0:0:
256,192,23491,1,8,0:0:0:0:
256,192,23598,1,0,0:0:0:0:
256,192,23813,1,8,0:0:0:0:
256,192,23920,1,0,0:0:0:0:
256,192,23973,1,0,0:0:0:0:
256,192,24027,1,0,0:0:0:0:
256,192,24134,1,0,0:0:0:0:
256,192,24241,1,8,0:0:0:0:
256,192,24348,1,0,0:0:0:0:
256,192,24456,1,8,0:0:0:0:
256,192,24670,1,0,0:0:0:0:
256,192,24777,1,8,0:0:0:0:
256,192,24991,1,0,0:0:0:0:
256,192,25098,1,8,0:0:0:0:
256,192,25313,1,0,0:0:0:0:
256,192,25420,1,8,0:0:0:0:
256,192,25527,1,8,0:0:0:0:
256,192,25634,1,0,0:0:0:0:
256,192,25741,1,8,0:0:0:0:
256,192,25848,1,0,0:0:0:0:
256,192,25902,1,0,0:0:0:0:
256,192,25956,1,8,0:0:0:0:
256,192,26063,1,8,0:0:0:0:
256,192,26170,1,0,0:0:0:0:
256,192,26277,1,0,0:0:0:0:
256,192,26384,1,8,0:0:0:0:
256,192,26598,1,0,0:0:0:0:
256,192,26813,1,8,0:0:0:0:
256,192,26920,1,8,0:0:0:0:
256,192,27027,1,0,0:0:0:0:
256,192,27456,1,12,0:0:0:0:
256,192,27670,1,0,0:0:0:0:
256,192,27777,1,8,0:0:0:0:
256,192,27884,1,0,0:0:0:0:
256,192,27991,1,0,0:0:0:0:
256,192,28098,1,8,0:0:0:0:
256,192,28206,1,0,0:0:0:0:
256,192,28259,1,0,0:0:0:0:
256,192,28313,1,8,0:0:0:0:
256,192,28420,1,0,0:0:0:0:
256,192,28527,1,8,0:0:0:0:
256,192,28634,1,8,0:0:0:0:
256,192,28741,1,0,0:0:0:0:
256,192,28956,1,8,0:0:0:0:
256,192,29063,1,8,0:0:0:0:
256,192,29170,1,0,0:0:0:0:
256,192,29277,1,8,0:0:0:0:
256,192,29331,1,8,0:0:0:0:
256,192,29384,1,0,0:0:0:0:
256,192,29491,1,0,0:0:0:0:
256,192,29598,1,8,0:0:0:0:
256,192,29706,1,0,0:0:0:0:
256,192,29813,1,8,0:0:0:0:
256,192,29920,1,8,0:0:0:0:
256,192,30027,1,0,0:0:0:0:
256,192,30134,1,0,0:0:0:0:
256,192,30241,1,8,0:0:0:0:
256,192,30456,1,0,0:0:0:0:
256,192,30563,1,8,0:0:0:0:
256,192,30616,1,8,0:0:0:0:
256,192,30670,1,8,0:0:0:0:
256,192,30777,1,0,0:0:0:0:
256,192,30884,1,8,0:0:0:0:
256,192,31098,1,0,0:0:0:0:
256,192,31206,1,8,0:0:0:0:
256,192,31313,1,0,0:0:0:0:
256,192,31420,1,0,0:0:0:0:
256,192,31527,1,8,0:0:0:0:
256,192,31741,1,0,0:0:0:0:
256,192,31848,1,8,0:0:0:0:
256,192,31956,1,0,0:0:0:0:
256,192,32063,1,0,0:0:0:0:
256,192,32170,1,8,0:0:0:0:
256,192,32277,1,8,0:0:0:0:
256,192,32384,1,0,0:0:0:0:
256,192,32598,1,8,0:0:0:0:
256,192,32706,1,0,0:0:0:0:
256,192,32759,1,0,0:0:0:0:
256,192,32813,1,8,0:0:0:0:
256,192,32920,1,8,0:0:0:0:
256,192,33027,1,0,0:0:0:0:
256,192,33241,1,0,0:0:0:0:
256,192,33456,1,8,0:0:0:0:
256,192,33563,1,0,0:0:0:0:
256,192,33616,1,0,0:0:0:0:
256,192,33670,1,8,0:0:0:0:
256,192,33777,1,8,0:0:0:0:
256,192,33884,1,0,0:0:0:0:
256,192,33991,1,0,0:0:0:0:
256,192,34098,1,8,0:0:0:0:
256,192,34206,1,8,0:0:0:0:
256,192,34313,1,4,0:0:0:0:
256,192,36027,1,0,0:0:0:0:
256,192,36241,1,8,0:0:0:0:
256,192,36348,1,0,0:0:0:0:
256,192,36563,1,8,0:0:0:0:
256,192,36670,1,0,0:0:0:0:
256,192,36723,1,0,0:0:0:0:
256,192,36777,1,8,0:0:0:0:
256,192,36884,1,0,0:0:0:0:
256,192,37098,1,8,0:0:0:0:
256,192,37206,1,0,0:0:0:0:
256,192,37259,1,0,0:0:0:0:
256,192,37313,1,0,0:0:0:0:
256,192,37420,1,0,0:0:0:0:
256,192,37527,1,8,0:0:0:0:
256,192,37598,1,0,0:0:0:0:
256,192,37670,1,0,0:0:0:0:
256,192,37741,1,8,0:0:0:0:
256,192,37848,1,0,0:0:0:0:
256,192,37956,1,8,0:0:0:0:
256,192,38063,1,0,0:0:0:0:
256,192,38277,1,8,0:0:0:0:
256,192,38384,1,0,0:0:0:0:
256,192,38491,1,8,0:0:0:0:
256,192,38598,1,0,0:0:0:0:
256,192,38813,1,0,0:0:0:0:
256,192,38920,1,8,0:0:0:0:
256,192,39027,1,0,0:0:0:0:
256,192,39134,1,8,0:0:0:0:
256,192,39188,1,8,0:0:0:0:
256,192,39241,1,8,0:0:0:0:
256,192,39348,1,8,0:0:0:0:
256,192,39456,1,4,0:0:0:0:
256,192,39670,1,8,0:0:0:0:
256,192,39777,1,8,0:0:0:0:
256,192,39884,1,0,0:0:0:0:
256,192,39991,1,0,0:0:0:0:
256,192,40098,1,8,0:0:0:0:
256,192,40206,1,0,0:0:0:0:
256,192,40313,1,8,0:0:0:0:
256,192,40366,1,8,0:0:0:0:
256,192,40420,1,0,0:0:0:0:
256,192,40527,1,8,0:0:0:0:
256,192,40634,1,8,0:0:0:0:
256,192,40741,1,0,0:0:0:0:
256,192,40795,1,0,0:0:0:0:
256,192,40848,1,0,0:0:0:0:
256,192,40956,1,8,0:0:0:0:
256,192,41063,1,8,0:0:0:0:
256,192,41170,1,0,0:0:0:0:
256,192,41384,1,0,0:0:0:0:
256,192,41491,1,0,0:0:0:0:
256,192,41598,1,8,0:0:0:0:
256,192,41813,1,0,0:0:0:0:
256,192,41920,1,8,0:0:0:0:
256,192,42027,1,0,0:0:0:0:
256,192,42134,1,0,0:0:0:0:
256,192,42241,1,8,0:0:0:0:
256,192,42456,1,8,0:0:0:0:
256,192,42670,1,4,0:0:0:0:
256,192,42884,1,4,0:0:0:0:
256,192,43098,1,0,0:0:0:0:
256,192,43152,1,0,0:0:0:0:
256,192,43206,1,0,0:0:0:0:
256,192,43313,1,8,0:0:0:0:
256,192,43473,1,8,0:0:0:0:
256,192,43634,1,8,0:0:0:0:
256,192,43741,1,0,0:0:0:0:
256,192,43956,1,8,0:0:0:0:
256,192,44063,1,0,0:0:0:0:
256,192,44170,1,8,0:0:0:0:
256,192,44331,1,0,0:0:0:0:
256,192,44384,1,8,0:0:0:0:
256,192,44491,1,8,0:0:0:0:
256,192,44598,1,0,0:0:0:0:
256,192,44813,1,8,0:0:0:0:
256,192,44920,1,0,0:0:0:0:
256,192,45027,1,0,0:0:0:0:
256,192,45134,1,8,0:0:0:0:
256,192,45241,1,0,0:0:0:0:
256,192,45295,1,0,0:0:0:0:
256,192,45348,1,8,0:0:0:0:
256,192,45456,1,0,0:0:0:0:
256,192,45670,1,8,0:0:0:0:
256,192,45777,1,0,0:0:0:0:
256,192,45831,1,0,0:0:0:0:
256,192,45884,1,8,0:0:0:0:
256,192,45991,1,0,0:0:0:0:
256,192,46098,1,8,0:0:0:0:
256,192,46170,1,8,0:0:0:0:
256,192,46241,1,8,0:0:0:0:
256,192,46313,1,4,0:0:0:0:
256,192,46527,1,8,0:0:0:0:
256,192,46634,1,0,0:0:0:0:
256,192,46688,1,0,0:0:0:0:
256,192,46741,1,8,0:0:0:0:
256,192,46848,1,0,0:0:0:0:
256,192,47063,1,8,0:0:0:0:
256,192,47170,1,4,0:0:0:0:
256,192,47384,1,0,0:0:0:0:
256,192,47491,1,0,0:0:0:0:
256,192,47598,1,8,0:0:0:0:
256,192,47706,1,8,0:0:0:0:
256,192,47759,1,8,0:0:0:0:
256,192,47813,1,0,0:0:0:0:
256,192,47920,1,8,0:0:0:0:
256,192,48027,1,4,0:0:0:0:
256,192,48241,1,0,0:0:0:0:
256,192,48348,1,0,0:0:0:0:
256,192,48456,1,8,0:0:0:0:
256,192,48670,1,8,0:0:0:0:
256,192,48777,1,8,0:0:0:0:
256,192,48884,1,4,0:0:0:0:
256,192,49098,1,8,0:0:0:0:
256,192,49206,1,0,0:0:0:0:
256,192,49259,1,0,0:0:0:0:
256,192,49313,1,8,0:0:0:0:
256,192,49420,1,8,0:0:0:0:
256,192,49527,1,0,0:0:0:0:
256,192,49741,1,4,0:0:0:0:
256,192,49848,1,8,0:0:0:0:
256,192,49902,1,8,0:0:0:0:
256,192,49956,1,0,0:0:0:0:
256,192,50063,1,8,0:0:0:0:
256,192,50170,1,4,0:0:0:0:
256,192,50277,1,8,0:0:0:0:
256,192,50331,1,8,0:0:0:0:
256,192,50384,1,8,0:0:0:0:
256,192,50491,1,0,0:0:0:0:
256,192,50598,1,12,0:0:0:0:
256,192,50813,1,0,0:0:0:0:
256,192,50866,1,0,0:0:0:0:
256,192,50920,1,8,0:0:0:0:
256,192,51027,1,4,0:0:0:0:
256,192,51134,1,8,0:0:0:0:
256,192,51188,1,8,0:0:0:0:
256,192,51241,1,8,0:0:0:0:
256,192,51348,1,0,0:0:0:0:
256,192,51456,1,8,0:0:0:0:
256,192,51670,1,8,0:0:0:0:
256,192,51777,1,0,0:0:0:0:
256,192,51884,1,8,0:0:0:0:
256,192,51991,1,0,0:0:0:0:
256,192,52098,1,8,0:0:0:0:
256,192,52206,1,8,0:0:0:0:
256,192,52313,1,0,0:0:0:0:
256,192,52366,1,8,0:0:0:0:
256,192,52420,1,0,0:0:0:0:
256,192,52527,1,8,0:0:0:0:
256,192,52634,1,8,0:0:0:0:
256,192,52688,1,8,0:0:0:0:
256,192,52741,1,0,0:0:0:0:
256,192,52848,1,0,0:0:0:0:
256,192,52956,1,8,0:0:0:0:
256,192,53009,1,8,0:0:0:0:
256,192,53063,1,8,0:0:0:0:
256,192,53170,1,0,0:0:0:0:
256,192,54670,1,8,0:0:0:0:
256,192,54884,1,4,0:0:0:0:
256,192,55098,1,8,0:0:0:0:
256,192,55205,1,0,0:0:0:0:
256,192,55312,1,8,0:0:0:0:
256,192,55419,1,0,0:0:0:0:
256,192,55526,1,8,0:0:0:0:
256,192,55634,1,0,0:0:0:0:
256,192,55741,1,8,0:0:0:0:
256,192,55794,1,8,0:0:0:0:
256,192,55848,1,0,0:0:0:0:
256,192,55955,1,8,0:0:0:0:
256,192,56062,1,0,0:0:0:0:
256,192,56169,1,8,0:0:0:0:
256,192,56384,1,8,0:0:0:0:
256,192,56437,1,8,0:0:0:0:
256,192,56491,1,0,0:0:0:0:
256,192,56598,1,8,0:0:0:0:
256,192,56705,1,8,0:0:0:0:
256,192,56812,1,0,0:0:0:0:
256,192,56919,1,0,0:0:0:0:
256,192,57026,1,8,0:0:0:0:
256,192,57134,1,8,0:0:0:0:
256,192,57241,1,0,0:0:0:0:
256,192,57455,1,8,0:0:0:0:
256,192,57562,1,0,0:0:0:0:
256,192,57669,1,8,0:0:0:0:
256,192,57776,1,0,0:0:0:0:
256,192,57883,1,8,0:0:0:0:
256,192,57991,1,0,0:0:0:0:
256,192,58044,1,0,0:0:0:0:
256,192,58098,1,8,0:0:0:0:
256,192,58205,1,0,0:0:0:0:
256,192,58312,1,8,0:0:0:0:
256,192,58526,1,0,0:0:0:0:
256,192,58633,1,8,0:0:0:0:
256,192,58741,1,0,0:0:0:0:
256,192,58848,1,0,0:0:0:0:
256,192,58955,1,8,0:0:0:0:
256,192,59062,1,0,0:0:0:0:
256,192,59169,1,8,0:0:0:0:
256,192,59223,1,8,0:0:0:0:
256,192,59276,1,0,0:0:0:0:
256,192,59383,1,8,0:0:0:0:
256,192,59491,1,0,0:0:0:0:
256,192,59598,1,8,0:0:0:0:
256,192,59651,1,8,0:0:0:0:
256,192,59705,1,8,0:0:0:0:
256,192,59812,1,0,0:0:0:0:
256,192,59919,1,8,0:0:0:0:
256,192,60026,1,0,0:0:0:0:
256,192,60241,1,8,0:0:0:0:
256,192,60348,1,0,0:0:0:0:
256,192,60455,1,8,0:0:0:0:
256,192,60562,1,0,0:0:0:0:
256,192,60669,1,8,0:0:0:0:
256,192,60723,1,8,0:0:0:0:
256,192,60776,1,0,0:0:0:0:
256,192,60883,1,8,0:0:0:0:
256,192,60991,1,0,0:0:0:0:
256,192,61098,1,8,0:0:0:0:
256,192,61205,1,0,0:0:0:0:
256,192,61312,1,8,0:0:0:0:
256,192,61366,1,8,0:0:0:0:
256,192,61419,1,8,0:0:0:0:
256,192,61526,1,0,0:0:0:0:
256,192,61741,1,8,0:0:0:0:
256,192,61848,1,0,0:0:0:0:
256,192,61901,1,0,0:0:0:0:
256,192,61955,1,8,0:0:0:0:
256,192,62062,1,8,0:0:0:0:
256,192,62169,1,0,0:0:0:0:
256,192,62276,1,0,0:0:0:0:
256,192,62383,1,8,0:0:0:0:
256,192,62491,1,0,0:0:0:0:
256,192,62598,1,8,0:0:0:0:
256,192,62651,1,8,0:0:0:0:
256,192,62705,1,0,0:0:0:0:
256,192,62812,1,8,0:0:0:0:
256,192,62919,1,0,0:0:0:0:
256,192,62973,1,0,0:0:0:0:
256,192,63026,1,8,0:0:0:0:
256,192,63133,1,8,0:0:0:0:
256,192,63241,1,0,0:0:0:0:
256,192,63348,1,0,0:0:0:0:
256,192,63455,1,8,0:0:0:0:
256,192,63669,1,0,0:0:0:0:
256,192,63776,1,8,0:0:0:0:
256,192,63883,1,0,0:0:0:0:
256,192,63991,1,8,0:0:0:0:
256,192,64044,1,8,0:0:0:0:
256,192,64098,1,8,0:0:0:0:
256,192,64205,1,0,0:0:0:0:
256,192,64312,1,8,0:0:0:0:
256,192,64419,1,0,0:0:0:0:
256,192,64526,1,8,0:0:0:0:
256,192,64633,1,0,0:0:0:0:
256,192,64687,1,0,0:0:0:0:
256,192,64741,1,8,0:0:0:0:
256,192,64848,1,8,0:0:0:0:
256,192,64955,1,0,0:0:0:0:
256,192,65062,1,8,0:0:0:0:
256,192,65116,1,8,0:0:0:0:
256,192,65169,1,0,0:0:0:0:
256,192,65383,1,8,0:0:0:0:
256,192,65491,1,8,0:0:0:0:
256,192,65598,1,0,0:0:0:0:
256,192,65705,1,8,0:0:0:0:
256,192,65758,1,8,0:0:0:0:
256,192,65812,1,0,0:0:0:0:
256,192,65919,1,8,0:0:0:0:
256,192,66026,1,0,0:0:0:0:
256,192,66133,1,8,0:0:0:0:
256,192,66187,1,8,0:0:0:0:
256,192,66241,1,8,0:0:0:0:
256,192,66348,1,8,0:0:0:0:
256,192,66455,1,0,0:0:0:0:
256,192,66562,1,0,0:0:0:0:
256,192,66616,1,0,0:0:0:0:
256,192,66669,1,8,0:0:0:0:
256,192,66776,1,8,0:0:0:0:
256,192,66883,1,0,0:0:0:0:
256,192,67098,1,8,0:0:0:0:
256,192,67205,1,8,0:0:0:0:
256,192,67312,1,0,0:0:0:0:
256,192,67419,1,0,0:0:0:0:
256,192,67526,1,8,0:0:0:0:
256,192,67633,1,8,0:0:0:0:
256,192,67687,1,8,0:0:0:0:
256,192,67741,1,0,0:0:0:0:
256,192,67848,1,0,0:0:0:0:
256,192,67955,1,8,0:0:0:0:
256,192,68062,1,0,0:0:0:0:
256,192,68116,1,0,0:0:0:0:
256,192,68169,1,0,0:0:0:0:
256,192,68276,1,8,0:0:0:0:
256,192,68383,1,0,0:0:0:0:
256,192,68437,1,0,0:0:0:0:
256,192,68491,1,8,0:0:0:0:
256,192,68598,1,0,0:0:0:0:
256,192,69455,1,4,0:0:0:0:
256,192,69669,1,8,0:0:0:0:
256,192,69883,1,0,0:0:0:0:
256,192,69990,1,0,0:0:0:0:
256,192,70097,1,8,0:0:0:0:
256,192,70312,1,0,0:0:0:0:
256,192,70526,1,8,0:0:0:0:
256,192,70633,1,0,0:0:0:0:
256,192,70740,1,0,0:0:0:0:
256,192,70847,1,0,0:0:0:0:
256,192,70955,1,8,0:0:0:0:
256,192,71062,1,8,0:0:0:0:
256,192,71169,1,0,0:0:0:0:
256,192,71383,1,8,0:0:0:0:
256,192,71597,1,8,0:0:0:0:
256,192,71705,1,8,0:0:0:0:
256,192,71812,1,0,0:0:0:0:
256,192,72026,1,0,0:0:0:0:
256,192,72240,1,8,0:0:0:0:
256,192,72347,1,0,0:0:0:0:
256,192,72455,1,8,0:0:0:0:
256,192,72562,1,8,0:0:0:0:
256,192,72669,1,0,0:0:0:0:
256,192,72776,1,8,0:0:0:0:
256,192,72883,1,0,0:0:0:0:
256,192,73097,1,0,0:0:0:0:
256,192,73312,1,8,0:0:0:0:
256,192,73419,1,0,0:0:0:0:
256,192,73526,1,8,0:0:0:0:
256,192,73740,1,0,0:0:0:0:
256,192,73955,1,8,0:0:0:0:
256,192,74062,1,0,0:0:0:0:
256,192,74169,1,0,0:0:0:0:
256,192,74276,1,0,0:0:0:0:
256,192,74383,1,8,0:0:0:0:
256,192,74490,1,8,0:0:0:0:
256,192,74597,1,0,0:0:0:0:
256,192,74651,1,0,0:0:0:0:
256,192,74705,1,0,0:0:0:0:
256,192,74812,1,8,0:0:0:0:
256,192,75026,1,8,0:0:0:0:
256,192,75133,1,0,0:0:0:0:
256,192,75187,1,0,0:0:0:0:
256,192,75240,1,8,0:0:0:0:
256,192,75347,1,0,0:0:0:0:
256,192,75454,1,8,0:0:0:0:
256,192,75562,1,8,0:0:0:0:
256,192,75669,1,0,0:0:0:0:
256,192,75776,1,8,0:0:0:0:
256,192,75829,1,8,0:0:0:0:
256,192,75883,1,8,0:0:0:0:
256,192,75990,1,0,0:0:0:0:
256,192,76097,1,8,0:0:0:0:
256,192,76204,1,8,0:0:0:0:
256,192,76312,1,0,0:0:0:0:
256,192,76526,1,8,0:0:0:0:
256,192,76633,1,0,0:0:0:0:
256,192,76740,1,8,0:0:0:0:
256,192,76847,1,0,0:0:0:0:
256,192,76901,1,0,0:0:0:0:
256,192,76954,1,8,0:0:0:0:
256,192,77062,1,8,0:0:0:0:
256,192,77169,1,0,0:0:0:0:
256,192,77383,1,8,0:0:0:0:
256,192,77490,1,0,0:0:0:0:
256,192,77544,1,8,0:0:0:0:
256,192,77597,1,0,0:0:0:0:
256,192,77704,1,8,0:0:0:0:
256,192,77812,1,0,0:0:0:0:
256,192,77919,1,0,0:0:0:0:
256,192,78026,1,8,0:0:0:0:
256,192,78240,1,8,0:0:0:0:
256,192,78347,1,0,0:0:0:0:
256,192,78454,1,8,0:0:0:0:
256,192,78508,1,8,0:0:0:0:
256,192,78562,1,0,0:0:0:0:
256,192,78669,1,8,0:0:0:0:
256,192,78776,1,8,0:0:0:0:
256,192,78883,1,0,0:0:0:0:
256,192,78990,1,0,0:0:0:0:
256,192,79097,1,8,0:0:0:0:
256,192,79204,1,0,0:0:0:0:
256,192,79312,1,8,0:0:0:0:
256,192,79365,1,8,0:0:0:0:
256,192,79419,1,0,0:0:0:0:
256,192,79526,1,8,0:0:0:0:
256,192,79633,1,0,0:0:0:0:
256,192,79740,1,8,0:0:0:0:
256,192,79954,1,8,0:0:0:0:
256,192,80062,1,0,0:0:0:0:
256,192,80169,1,8,0:0:0:0:
256,192,80276,1,0,0:0:0:0:
256,192,80329,1,0,0:0:0:0:
256,192,80383,1,8,0:0:0:0:
256,192,80490,1,8,0:0:0:0:
256,192,80597,1,0,0:0:0:0:
256,192,80704,1,8,0:0:0:0:
256,192,80812,1,0,0:0:0:0:
256,192,80919,1,8,0:0:0:0:
256,192,81026,1,0,0:0:0:0:
256,192,81079,1,0,0:0:0:0:
256,192,81133,1,8,0:0:0:0:
256,192,81240,1,0,0:0:0:0:
256,192,81347,1,8,0:0:0:0:
256,192,81454,1,0,0:0:0:0:
256,192,81669,1,8,0:0:0:0:
256,192,81776,1,8,0:0:0:0:
256,192,81883,1,0,0:0:0:0:
256,192,81937,1,0,0:0:0:0:
256,192,81990,1,0,0:0:0:0:
256,192,82097,1,8,0:0:0:0:
256,192,82204,1,8,0:0:0:0:
256,192,82312,1,0,0:0:0:0:
256,192,82419,1,0,0:0:0:0:
256,192,82526,1,8,0:0:0:0:
256,192,82633,1,0,0:0:0:0:
256,192,82740,1,8,0:0:0:0:
256,192,82794,1,8,0:0:0:0:
256,192,82847,1,0,0:0:0:0:
256,192,82954,1,8,0:0:0:0:
256,192,83062,1,8,0:0:0:0:
256,192,83169,1,4,0:0:0:0:
256,192,84026,1,12,0:0:0:0:
256,192,85740,1,8,0:0:0:0:
256,192,87240,1,8,0:0:0:0:
256,192,87347,1,8,0:0:0:0:
256,192,87454,1,8,0:0:0:0:
256,192,87561,1,0,0:0:0:0:
256,192,87668,1,8,0:0:0:0:
256,192,87776,1,0,0:0:0:0:
256,192,87883,1,8,0:0:0:0:
256,192,87990,1,0,0:0:0:0:
256,192,88097,1,8,0:0:0:0:
256,192,88204,1,0,0:0:0:0:
256,192,88311,1,8,0:0:0:0:
256,192,88418,1,0,0:0:0:0:
256,192,88526,1,0,0:0:0:0:
256,192,88633,1,0,0:0:0:0:
256,192,88740,1,8,0:0:0:0:
256,192,88847,1,0,0:0:0:0:
256,192,88954,1,8,0:0:0:0:
256,192,89061,1,8,0:0:0:0:
256,192,89168,1,0,0:0:0:0:
256,192,89222,1,0,0:0:0:0:
256,192,89276,1,0,0:0:0:0:
256,192,89383,1,8,0:0:0:0:
256,192,89490,1,8,0:0:0:0:
256,192,89597,1,0,0:0:0:0:
256,192,89704,1,0,0:0:0:0:
256,192,89811,1,8,0:0:0:0:
256,192,89918,1,0,0:0:0:0:
256,192,90025,1,8,0:0:0:0:
256,192,90079,1,8,0:0:0:0:
256,192,90133,1,0,0:0:0:0:
256,192,90240,1,8,0:0:0:0:
256,192,90347,1,0,0:0:0:0:
256,192,90400,1,0,0:0:0:0:
256,192,90454,1,0,0:0:0:0:
256,192,90561,1,8,0:0:0:0:
256,192,90883,1,4,0:0:0:0:
256,192,91097,1,8,0:0:0:0:
256,192,91204,1,8,0:0:0:0:
256,192,91311,1,0,0:0:0:0:
256,192,91418,1,0,0:0:0:0:
256,192,91525,1,8,0:0:0:0:
256,192,91633,1,0,0:0:0:0:
256,192,91740,1,8,0:0:0:0:
256,192,91793,1,8,0:0:0:0:
256,192,91847,1,0,0:0:0:0:
256,192,91954,1,8,0:0:0:0:
256,192,92061,1,0,0:0:0:0:
256,192,92115,1,0,0:0:0:0:
256,192,92168,1,8,0:0:0:0:
256,192,92275,1,0,0:0:0:0:
256,192,92383,1,8,0:0:0:0:
256,192,92490,1,0,0:0:0:0:
256,192,92597,1,8,0:0:0:0:
256,192,92811,1,0,0:0:0:0:
256,192,92918,1,8,0:0:0:0:
256,192,92972,1,8,0:0:0:0:
256,192,93025,1,0,0:0:0:0:
256,192,93133,1,0,0:0:0:0:
256,192,93240,1,8,0:0:0:0:
256,192,93347,1,0,0:0:0:0:
256,192,93400,1,0,0:0:0:0:
256,192,93454,1,8,0:0:0:0:
256,192,93668,1,8,0:0:0:0:
256,192,93775,1,0,0:0:0:0:
256,192,93829,1,0,0:0:0:0:
256,192,93883,1,0,0:0:0:0:
256,192,93990,1,8,0:0:0:0:
256,192,94097,1,8,0:0:0:0:
256,192,94204,1,8,0:0:0:0:
256,192,94311,1,0,0:0:0:0:
256,192,94525,1,8,0:0:0:0:
256,192,94633,1,0,0:0:0:0:
256,192,94740,1,8,0:0:0:0:
256,192,94793,1,8,0:0:0:0:
256,192,94847,1,0,0:0:0:0:
256,192,94954,1,8,0:0:0:0:
256,192,95061,1,0,0:0:0:0:
256,192,95168,1,8,0:0:0:0:
256,192,95275,1,8,0:0:0:0:
256,192,95383,1,0,0:0:0:0:
256,192,95436,1,0,0:0:0:0:
256,192,95490,1,8,0:0:0:0:
256,192,95597,1,0,0:0:0:0:
256,192,95704,1,8,0:0:0:0:
256,192,95758,1,8,0:0:0:0:
256,192,95811,1,0,0:0:0:0:
256,192,95918,1,8,0:0:0:0:
256,192,96025,1,0,0:0:0:0:
256,192,96240,1,8,0:0:0:0:
256,192,96293,1,8,0:0:0:0:
256,192,96347,1,8,0:0:0:0:
256,192,96454,1,0,0:0:0:0:
256,192,96561,1,0,0:0:0:0:
256,192,96668,1,8,0:0:0:0:
256,192,96775,1,0,0:0:0:0:
256,192,96882,1,8,0:0:0:0:
256,192,96936,1,8,0:0:0:0:
256,192,96990,1,0,0:0:0:0:
256,192,97097,1,8,0:0:0:0:
256,192,97204,1,0,0:0:0:0:
256,192,97257,1,0,0:0:0:0:
256,192,97311,1,0,0:0:0:0:
256,192,97418,1,0,0:0:0:0:
256,192,97525,1,8,0:0:0:0:
256,192,97740,1,0,0:0:0:0:
256,192,97847,1,8,0:0:0:0:
256,192,97900,1,8,0:0:0:0:
256,192,97954,1,0,0:0:0:0:
256,192,98061,1,8,0:0:0:0:
256,192,98168,1,0,0:0:0:0:
256,192,98275,1,8,0:0:0:0:
256,192,98382,1,0,0:0:0:0:
256,192,98436,1,0,0:0:0:0:
256,192,98490,1,8,0:0:0:0:
256,192,98597,1,0,0:0:0:0:
256,192,98704,1,8,0:0:0:0:
256,192,98811,1,0,0:0:0:0:
256,192,98918,1,8,0:0:0:0:
256,192,98972,1,8,0:0:0:0:
256,192,99025,1,0,0:0:0:0:
256,192,99132,1,0,0:0:0:0:
256,192,99240,1,8,0:0:0:0:
256,192,99347,1,8,0:0:0:0:
256,192,99454,1,0,0:0:0:0:
256,192,99668,1,8,0:0:0:0:
256,192,99775,1,0,0:0:0:0:
256,192,99882,1,8,0:0:0:0:
256,192,99936,1,8,0:0:0:0:
256,192,99990,1,0,0:0:0:0:
256,192,100097,1,8,0:0:0:0:
256,192,100204,1,0,0:0:0:0:
256,192,100311,1,8,0:0:0:0:
256,192,100365,1,8,0:0:0:0:
256,192,100418,1,8,0:0:0:0:
256,192,100525,1,0,0:0:0:0:
256,192,100740,1,8,0:0:0:0:
256,192,100793,1,8,0:0:0:0:
256,192,100847,1,0,0:0:0:0:
256,192,100954,1,8,0:0:0:0:
256,192,101061,1,0,0:0:0:0:
256,192,101115,1,0,0:0:0:0:
256,192,101168,1,0,0:0:0:0:
256,192,101275,1,8,0:0:0:0:
256,192,101382,1,0,0:0:0:0:
256,192,101436,1,8,0:0:0:0:
256,192,101490,1,0,0:0:0:0:
256,192,101597,1,8,0:0:0:0:
256,192,101704,1,0,0:0:0:0:
256,192,101811,1,8,0:0:0:0:
256,192,101918,1,0,0:0:0:0:
256,192,102025,1,8,0:0:0:0:
256,192,102079,1,8,0:0:0:0:
256,192,102132,1,0,0:0:0:0:
256,192,102240,1,8,0:0:0:0:
256,192,102347,1,8,0:0:0:0:
256,192,102454,1,0,0:0:0:0:
256,192,102507,1,0,0:0:0:0:
256,192,102561,1,0,0:0:0:0:
256,192,102668,1,8,0:0:0:0:
256,192,102775,1,0,0:0:0:0:
256,192,102882,1,8,0:0:0:0:
256,192,103097,1,0,0:0:0:0:
256,192,103204,1,8,0:0:0:0:
256,192,103257,1,8,0:0:0:0:
256,192,103311,1,8,0:0:0:0:
256,192,103418,1,0,0:0:0:0:
256,192,103525,1,8,0:0:0:0:
256,192,103632,1,0,0:0:0:0:
256,192,103740,1,8,0:0:0:0:
256,192,103847,1,0,0:0:0:0:
256,192,103900,1,0,0:0:0:0:
256,192,103954,1,8,0:0:0:0:
256,192,104061,1,0,0:0:0:0:
256,192,104168,1,8,0:0:0:0:
256,192,104222,1,8,0:0:0:0:
256,192,104275,1,0,0:0:0:0:
256,192,104382,1,8,0:0:0:0:
256,192,104490,1,8,0:0:0:0:
256,192,104597,1,4,0:0:0:0:
256,192,108025,1,8,0:0:0:0:
256,192,108132,1,0,0:0:0:0:
256,192,108239,1,0,0:0:0:0:
256,192,108347,1,8,0:0:0:0:
256,192,108454,1,0,0:0:0:0:
256,192,108561,1,8,0:0:0:0:
256,192,108668,1,8,0:0:0:0:
256,192,108775,1,0,0:0:0:0:
256,192,108882,1,8,0:0:0:0:
256,192,108936,1,0,0:0:0:0:
256,192,108989,1,8,0:0:0:0:
256,192,109097,1,0,0:0:0:0:
256,192,109204,1,8,0:0:0:0:
256,192,109311,1,0,0:0:0:0:
256,192,109418,1,8,0:0:0:0:
256,192,109525,1,0,0:0:0:0:
256,192,109739,1,8,0:0:0:0:
256,192,109793,1,8,0:0:0:0:
256,192,109847,1,8,0:0:0:0:
256,192,109954,1,8,0:0:0:0:
256,192,110061,1,0,0:0:0:0:
256,192,110114,1,0,0:0:0:0:
256,192,110168,1,0,0:0:0:0:
256,192,110275,1,8,0:0:0:0:
256,192,110382,1,0,0:0:0:0:
256,192,110436,1,0,0:0:0:0:
256,192,110489,1,0,0:0:0:0:
256,192,110596,1,8,0:0:0:0:
256,192,110704,1,0,0:0:0:0:
256,192,110757,1,0,0:0:0:0:
256,192,110811,1,8,0:0:0:0:
256,192,110918,1,0,0:0:0:0:
256,192,111025,1,8,0:0:0:0:
256,192,111454,1,4,0:0:0:0:
256,192,111668,1,8,0:0:0:0:
256,192,111775,1,0,0:0:0:0:
256,192,111829,1,0,0:0:0:0:
256,192,111882,1,8,0:0:0:0:
256,192,111989,1,0,0:0:0:0:
256,192,112096,1,8,0:0:0:0:
256,192,112204,1,0,0:0:0:0:
256,192,112311,1,8,0:0:0:0:
256,192,112364,1,8,0:0:0:0:
256,192,112418,1,8,0:0:0:0:
256,192,112525,1,8,0:0:0:0:
256,192,112632,1,0,0:0:0:0:
256,192,112739,1,8,0:0:0:0:
256,192,112793,1,8,0:0:0:0:
256,192,112846,1,0,0:0:0:0:
256,192,112954,1,8,0:0:0:0:
256,192,113061,1,8,0:0:0:0:
256,192,113168,1,0,0:0:0:0:
256,192,113382,1,8,0:0:0:0:
256,192,113489,1,8,0:0:0:0:
256,192,113596,1,0,0:0:0:0:
256,192,113704,1,8,0:0:0:0:
256,192,113811,1,0,0:0:0:0:
256,192,113864,1,0,0:0:0:0:
256,192,113918,1,0,0:0:0:0:
256,192,114025,1,8,0:0:0:0:
256,192,114132,1,0,0:0:0:0:
256,192,114239,1,8,0:0:0:0:
256,192,114293,1,8,0:0:0:0:
256,192,114346,1,8,0:0:0:0:
256,192,114454,1,0,0:0:0:0:
256,192,114561,1,8,0:0:0:0:
256,192,114668,1,0,0:0:0:0:
256,192,114721,1,0,0:0:0:0:
256,192,114775,1,0,0:0:0:0:
256,192,114882,1,8,0:0:0:0:
256,192,115096,1,8,0:0:0:0:
256,192,115204,1,8,0:0:0:0:
256,192,115311,1,0,0:0:0:0:
256,192,115364,1,0,0:0:0:0:
256,192,115418,1,0,0:0:0:0:
256,192,115525,1,8,0:0:0:0:
256,192,115632,1,0,0:0:0:0:
256,192,115739,1,8,0:0:0:0:
256,192,115793,1,8,0:0:0:0:
256,192,115846,1,0,0:0:0:0:
256,192,115954,1,8,0:0:0:0:
256,192,116061,1,0,0:0:0:0:
256,192,116168,1,8,0:0:0:0:
256,192,116221,1,8,0:0:0:0:
256,192,116275,1,8,0:0:0:0:
256,192,116382,1,0,0:0:0:0:
256,192,116489,1,8,0:0:0:0:
256,192,116596,1,0,0:0:0:0:
256,192,116811,1,8,0:0:0:0:
256,192,116864,1,8,0:0:0:0:
256,192,116918,1,0,0:0:0:0:
256,192,117025,1,0,0:0:0:0:
256,192,117132,1,8,0:0:0:0:
256,192,117239,1,0,0:0:0:0:
256,192,117293,1,0,0:0:0:0:
256,192,117346,1,8,0:0:0:0:
256,192,117453,1,8,0:0:0:0:
256,192,117561,1,0,0:0:0:0:
256,192,117668,1,8,0:0:0:0:
256,192,117721,1,8,0:0:0:0:
256,192,117775,1,0,0:0:0:0:
256,192,117882,1,8,0:0:0:0:
256,192,117989,1,8,0:0:0:0:
256,192,118096,1,0,0:0:0:0:
256,192,118150,1,0,0:0:0:0:
256,192,118203,1,8,0:0:0:0:
256,192,118311,1,0,0:0:0:0:
256,192,118525,1,8,0:0:0:0:
256,192,118632,1,8,0:0:0:0:
256,192,118739,1,0,0:0:0:0:
256,192,118793,1,0,0:0:0:0:
256,192,118846,1,8,0:0:0:0:
256,192,118953,1,8,0:0:0:0:
256,192,119061,1,0,0:0:0:0:
256,192,119168,1,8,0:0:0:0:
256,192,119221,1,8,0:0:0:0:
256,192,119275,1,0,0:0:0:0:
256,192,119382,1,8,0:0:0:0:
256,192,119489,1,8,0:0:0:0:
256,192,119596,1,0,0:0:0:0:
256,192,119650,1,0,0:0:0:0:
256,192,119703,1,8,0:0:0:0:
256,192,119811,1,0,0:0:0:0:
256,192,119918,1,0,0:0:0:0:
256,192,120025,1,8,0:0:0:0:
256,192,120239,1,8,0:0:0:0:
256,192,120346,1,0,0:0:0:0:
256,192,120453,1,8,0:0:0:0:
256,192,120507,1,8,0:0:0:0:
256,192,120561,1,0,0:0:0:0:
256,192,120668,1,8,0:0:0:0:
256,192,120775,1,0,0:0:0:0:
256,192,120882,1,8,0:0:0:0:
256,192,120989,1,0,0:0:0:0:
256,192,121043,1,0,0:0:0:0:
256,192,121096,1,0,0:0:0:0:
256,192,121203,1,8,0:0:0:0:
256,192,121311,1,0,0:0:0:0:
256,192,121418,1,8,0:0:0:0:
256,192,121471,1,8,0:0:0:0:
256,192,121525,1,8,0:0:0:0:
256,192,121632,1,0,0:0:0:0:
256,192,121739,1,8,0:0:0:0:
256,192,121953,1,8,0:0:0:0:
256,192,122061,1,0,0:0:0:0:
256,192,122168,1,8,0:0:0:0:
256,192,122221,1,0,0:0:0:0:
256,192,122275,1,8,0:0:0:0:
256,192,122382,1,0,0:0:0:0:
256,192,122489,1,0,0:0:0:0:
256,192,122596,1,8,0:0:0:0:
256,192,122650,1,8,0:0:0:0:
256,192,122703,1,0,0:0:0:0:
256,192,122811,1,8,0:0:0:0:
256,192,122918,1,8,0:0:0:0:
256,192,123025,1,0,0:0:0:0:
256,192,123078,1,0,0:0:0:0:
256,192,123132,1,0,0:0:0:0:
256,192,123239,1,8,0:0:0:0:
256,192,123346,1,8,0:0:0:0:
256,192,123453,1,0,0:0:0:0:
256,192,123668,1,8,0:0:0:0:
256,192,123721,1,8,0:0:0:0:
256,192,123775,1,8,0:0:0:0:
256,192,123882,1,0,0:0:0:0:
256,192,123936,1,0,0:0:0:0:
256,192,123989,1,8,0:0:0:0:
256,192,124096,1,8,0:0:0:0:
256,192,124203,1,0,0:0:0:0:
256,192,124311,1,8,0:0:0:0:
256,192,124418,1,0,0:0:0:0:
256,192,124525,1,8,0:0:0:0:
256,192,124578,1,8,0:0:0:0:
256,192,124632,1,8,0:0:0:0:
256,192,124739,1,0,0:0:0:0:
256,192,124846,1,8,0:0:0:0:
256,192,124900,1,8,0:0:0:0:
256,192,124953,1,0,0:0:0:0:
256,192,125061,1,0,0:0:0:0:
256,192,125168,1,12,0:0:0:0:
