osu file format v14

[General]
AudioFilename: audio.mp3
AudioLeadIn: 0
PreviewTime: 46342
Countdown: 0
SampleSet: Normal
StackLeniency: 0.7
Mode: 1
LetterboxInBreaks: 0
WidescreenStoryboard: 0

[Editor]
Bookmarks: 22392,59192,71992,100792,113592
DistanceSpacing: 2
BeatDivisor: 6
GridSize: 32
TimelineZoom: 3.199998

[Metadata]
Title:LosLosLosLos
TitleUnicode:LosLosLosLos
Artist:96-glass
ArtistUnicode:96-glass
Creator:tasuke912
Version:Oni
Source:
Tags:
BeatmapID:2325530
BeatmapSetID:1113187

[Difficulty]
HPDrainRate:5
CircleSize:2
OverallDifficulty:5
ApproachRate:5
SliderMultiplier:1.4
SliderTickRate:1

[Events]
//Background and Video events
0,0,"1496496531.jpg",0,0
//Break Periods
//Storyboard Layer 0 (Background)
//Storyboard Layer 1 (Fail)
//Storyboard Layer 2 (Pass)
//Storyboard Layer 3 (Foreground)
//Storyboard Layer 4 (Overlay)
//Storyboard Sound Samples

[TimingPoints]
3192,200,4,1,0,90,1,0
31992,-83.3333333333333,4,1,0,90,0,0
38392,-125,4,1,0,90,0,0
41592,-100,4,1,0,90,0,0
44992,-102.040816326531,4,1,0,90,0,0
45092,-104.166666666667,4,1,0,90,0,0
45192,-106.382978723404,4,1,0,90,0,0
45392,-114.942528735632,4,1,0,90,0,0
45592,-125,4,1,0,90,0,0
45992,-114.942528735632,4,1,0,90,0,0
46192,-107.52688172043,4,1,0,90,0,0
46392,-100,4,1,0,90,0,1
65592,-100,4,1,0,90,0,0
65692,-100,4,1,0,60,0,0
71942,-200,4,1,0,80,0,0
78392,-111.111111111111,4,1,0,80,0,0
84792,-100,4,1,0,80,0,0
87592,-121.951219512195,4,1,0,80,0,0
87658,-117.647058823529,4,1,0,80,0,0
87725,-113.636363636364,4,1,0,80,0,0
87792,-109.89010989011,4,1,0,80,0,0
87858,-106.382978723404,4,1,0,80,0,0
87925,-103.092783505155,4,1,0,80,0,0
87992,-100,4,1,0,80,0,1
107192,-90.9090909090909,4,1,0,80,0,1
111992,-90.9090909090909,4,1,0,80,0,0
112042,-100,4,1,0,80,0,0
116792,-83.3333333333333,4,1,0,80,0,0

[HitObjects]
256,192,3192,5,4,0:0:0:0:
256,192,3392,1,0,0:0:0:0:
256,192,3492,1,0,0:0:0:0:
256,192,3592,1,2,0:0:0:0:
256,192,3792,1,0,0:0:0:0:
256,192,3992,1,2,0:0:0:0:
256,192,4092,1,2,0:0:0:0:
256,192,4192,1,2,0:0:0:0:
256,192,4292,1,2,0:0:0:0:
256,192,4392,1,0,0:0:0:0:
256,192,4592,1,2,0:0:0:0:
256,192,4792,1,0,0:0:0:0:
256,192,4992,1,0,0:0:0:0:
256,192,5092,1,0,0:0:0:0:
256,192,5192,1,2,0:0:0:0:
256,192,5392,1,0,0:0:0:0:
256,192,5592,1,2,0:0:0:0:
256,192,5792,1,2,0:0:0:0:
256,192,5992,1,0,0:0:0:0:
256,192,6092,1,2,0:0:0:0:
256,192,6192,1,0,0:0:0:0:
256,192,6392,1,4,0:0:0:0:
256,192,6592,1,2,0:0:0:0:
256,192,6792,1,0,0:0:0:0:
256,192,6892,1,0,0:0:0:0:
256,192,6992,1,2,0:0:0:0:
256,192,7192,1,0,0:0:0:0:
256,192,7292,1,2,0:0:0:0:
256,192,7392,1,0,0:0:0:0:
256,192,7592,1,2,0:0:0:0:
256,192,7792,1,2,0:0:0:0:
256,192,7892,1,2,0:0:0:0:
256,192,7992,1,0,0:0:0:0:
256,192,8192,1,2,0:0:0:0:
256,192,8392,1,0,0:0:0:0:
256,192,8492,1,2,0:0:0:0:
256,192,8592,1,2,0:0:0:0:
256,192,8792,1,0,0:0:0:0:
256,192,8992,1,2,0:0:0:0:
256,192,9092,1,0,0:0:0:0:
256,192,9192,1,2,0:0:0:0:
256,192,9392,1,2,0:0:0:0:
256,192,9492,1,2,0:0:0:0:
256,192,9592,1,0,0:0:0:0:
256,192,9692,1,2,0:0:0:0:
256,192,9792,1,2,0:0:0:0:
256,192,9892,1,2,0:0:0:0:
256,192,9992,1,0,0:0:0:0:
256,192,10092,1,0,0:0:0:0:
256,192,10192,1,2,0:0:0:0:
256,192,10292,1,2,0:0:0:0:
256,192,10392,1,0,0:0:0:0:
256,192,10492,1,0,0:0:0:0:
256,192,10542,1,0,0:0:0:0:
256,192,10592,1,0,0:0:0:0:
256,192,10692,1,0,0:0:0:0:
256,192,10792,1,2,0:0:0:0:
256,192,10992,1,2,0:0:0:0:
256,192,11192,1,0,0:0:0:0:
256,192,11242,1,2,0:0:0:0:
256,192,11292,1,0,0:0:0:0:
256,192,11342,1,2,0:0:0:0:
256,192,11392,1,0,0:0:0:0:
256,192,11492,1,2,0:0:0:0:
256,192,11542,1,2,0:0:0:0:
256,192,11592,1,2,0:0:0:0:
256,192,11692,1,0,0:0:0:0:
256,192,11742,1,0,0:0:0:0:
256,192,11792,1,2,0:0:0:0:
256,192,11892,1,2,0:0:0:0:
256,192,11992,1,0,0:0:0:0:
256,192,12092,1,2,0:0:0:0:
256,192,12192,1,2,0:0:0:0:
256,192,12292,1,0,0:0:0:0:
256,192,12392,1,2,0:0:0:0:
256,192,12442,1,2,0:0:0:0:
256,192,12492,1,2,0:0:0:0:
256,192,12542,1,2,0:0:0:0:
256,192,12592,1,0,0:0:0:0:
256,192,12642,1,0,0:0:0:0:
256,192,12692,1,0,0:0:0:0:
256,192,12792,5,4,0:0:0:0:
256,192,12892,1,0,0:0:0:0:
256,192,12942,1,0,0:0:0:0:
256,192,12992,1,0,0:0:0:0:
256,192,13092,1,0,0:0:0:0:
256,192,13192,1,2,0:0:0:0:
256,192,13292,1,0,0:0:0:0:
256,192,13342,1,0,0:0:0:0:
256,192,13392,1,2,0:0:0:0:
256,192,13492,1,2,0:0:0:0:
256,192,13592,1,0,0:0:0:0:
256,192,13692,1,2,0:0:0:0:
256,192,13742,1,2,0:0:0:0:
256,192,13792,1,0,0:0:0:0:
256,192,13892,1,2,0:0:0:0:
256,192,13992,1,0,0:0:0:0:
256,192,14042,1,2,0:0:0:0:
256,192,14092,1,0,0:0:0:0:
256,192,14142,1,0,0:0:0:0:
256,192,14192,1,2,0:0:0:0:
256,192,14292,1,2,0:0:0:0:
256,192,14342,1,2,0:0:0:0:
256,192,14392,1,0,0:0:0:0:
256,192,14492,1,2,0:0:0:0:
256,192,14542,1,0,0:0:0:0:
256,192,14592,1,2,0:0:0:0:
256,192,14692,1,0,0:0:0:0:
256,192,14792,1,2,0:0:0:0:
256,192,14842,1,2,0:0:0:0:
256,192,14892,1,0,0:0:0:0:
256,192,14942,1,0,0:0:0:0:
256,192,14992,1,2,0:0:0:0:
256,192,15092,1,2,0:0:0:0:
256,192,15192,1,0,0:0:0:0:
256,192,15242,1,0,0:0:0:0:
256,192,15292,1,0,0:0:0:0:
256,192,15342,1,0,0:0:0:0:
256,192,15392,1,2,0:0:0:0:
256,192,15492,1,0,0:0:0:0:
256,192,15592,1,2,0:0:0:0:
256,192,15692,1,0,0:0:0:0:
256,192,15792,1,2,0:0:0:0:
256,192,15842,1,2,0:0:0:0:
256,192,15892,1,2,0:0:0:0:
256,192,15992,1,0,0:0:0:0:
256,192,16092,1,2,0:0:0:0:
256,192,16142,1,0,0:0:0:0:
256,192,16192,1,2,0:0:0:0:
256,192,16242,1,2,0:0:0:0:
256,192,16292,1,0,0:0:0:0:
256,192,16392,1,2,0:0:0:0:
256,192,16492,1,0,0:0:0:0:
256,192,16542,1,0,0:0:0:0:
256,192,16592,1,2,0:0:0:0:
256,192,16692,1,2,0:0:0:0:
256,192,16742,1,2,0:0:0:0:
256,192,16792,1,0,0:0:0:0:
256,192,16892,1,2,0:0:0:0:
256,192,16992,1,0,0:0:0:0:
256,192,17092,1,0,0:0:0:0:
256,192,17142,1,2,0:0:0:0:
256,192,17192,1,0,0:0:0:0:
256,192,17242,1,2,0:0:0:0:
256,192,17292,1,0,0:0:0:0:
256,192,17392,1,2,0:0:0:0:
256,192,17425,1,2,0:0:0:0:
256,192,17458,1,2,0:0:0:0:
256,192,17492,1,2,0:0:0:0:
256,192,17592,1,0,0:0:0:0:
256,192,17692,1,0,0:0:0:0:
256,192,17792,1,0,0:0:0:0:
256,192,17892,1,2,0:0:0:0:
256,192,17925,1,2,0:0:0:0:
256,192,17958,1,2,0:0:0:0:
256,192,17992,1,0,0:0:0:0:
256,192,18092,1,2,0:0:0:0:
256,192,18125,1,2,0:0:0:0:
256,192,18158,1,2,0:0:0:0:
256,192,18192,1,0,0:0:0:0:
256,192,18292,1,0,0:0:0:0:
256,192,18392,1,0,0:0:0:0:
256,192,18592,1,0,0:0:0:0:
256,192,18625,1,0,0:0:0:0:
256,192,18658,1,0,0:0:0:0:
256,192,18692,1,2,0:0:0:0:
256,192,18792,1,2,0:0:0:0:
256,192,18825,1,2,0:0:0:0:
256,192,18858,1,2,0:0:0:0:
256,192,18892,1,0,0:0:0:0:
256,192,18992,1,2,0:0:0:0:
256,192,19025,1,2,0:0:0:0:
256,192,19058,1,2,0:0:0:0:
256,192,19092,1,2,0:0:0:0:
256,192,19192,1,4,0:0:0:0:
256,192,19292,1,2,0:0:0:0:
256,192,19342,1,2,0:0:0:0:
256,192,19392,1,0,0:0:0:0:
256,192,19492,1,2,0:0:0:0:
256,192,19592,1,0,0:0:0:0:
256,192,19692,1,0,0:0:0:0:
256,192,19742,1,0,0:0:0:0:
256,192,19792,1,2,0:0:0:0:
256,192,19892,1,2,0:0:0:0:
256,192,19992,1,0,0:0:0:0:
256,192,20042,1,2,0:0:0:0:
256,192,20092,1,0,0:0:0:0:
256,192,20142,1,0,0:0:0:0:
256,192,20192,1,2,0:0:0:0:
256,192,20242,1,2,0:0:0:0:
256,192,20292,1,0,0:0:0:0:
256,192,20392,1,2,0:0:0:0:
256,192,20492,1,2,0:0:0:0:
256,192,20542,1,2,0:0:0:0:
256,192,20592,1,0,0:0:0:0:
256,192,20692,1,2,0:0:0:0:
256,192,20792,1,0,0:0:0:0:
256,192,20892,1,0,0:0:0:0:
256,192,20942,1,2,0:0:0:0:
256,192,20992,1,0,0:0:0:0:
256,192,21092,1,2,0:0:0:0:
256,192,21192,1,0,0:0:0:0:
256,192,21242,1,0,0:0:0:0:
256,192,21292,1,2,0:0:0:0:
256,192,21342,1,2,0:0:0:0:
256,192,21392,1,0,0:0:0:0:
256,192,21442,1,2,0:0:0:0:
256,192,21492,1,2,0:0:0:0:
256,192,21592,1,0,0:0:0:0:
256,192,21692,1,2,0:0:0:0:
256,192,21742,1,0,0:0:0:0:
256,192,21792,1,2,0:0:0:0:
256,192,21842,1,2,0:0:0:0:
256,192,21892,1,0,0:0:0:0:
256,192,21942,1,0,0:0:0:0:
256,192,21992,1,2,0:0:0:0:
256,192,22042,1,2,0:0:0:0:
256,192,22092,1,2,0:0:0:0:
256,192,22142,1,2,0:0:0:0:
256,192,22192,1,2,0:0:0:0:
256,192,22292,1,2,0:0:0:0:
256,192,22392,1,0,0:0:0:0:
256,192,22592,1,0,0:0:0:0:
256,192,22692,1,2,0:0:0:0:
256,192,22792,1,0,0:0:0:0:
256,192,22892,1,2,0:0:0:0:
256,192,22942,1,2,0:0:0:0:
256,192,22992,1,0,0:0:0:0:
256,192,23092,1,2,0:0:0:0:
256,192,23192,1,0,0:0:0:0:
256,192,23242,1,2,0:0:0:0:
256,192,23292,1,2,0:0:0:0:
256,192,23342,1,2,0:0:0:0:
256,192,23392,1,0,0:0:0:0:
256,192,23492,1,2,0:0:0:0:
256,192,23592,1,0,0:0:0:0:
256,192,23692,1,0,0:0:0:0:
256,192,23742,1,0,0:0:0:0:
256,192,23792,1,2,0:0:0:0:
256,192,23892,1,2,0:0:0:0:
256,192,23992,1,0,0:0:0:0:
256,192,24192,1,2,0:0:0:0:
256,192,24292,1,0,0:0:0:0:
256,192,24392,1,2,0:0:0:0:
256,192,24492,1,0,0:0:0:0:
256,192,24542,1,0,0:0:0:0:
256,192,24592,1,2,0:0:0:0:
256,192,24692,1,2,0:0:0:0:
256,192,24792,1,0,0:0:0:0:
256,192,24842,1,2,0:0:0:0:
256,192,24892,1,2,0:0:0:0:
256,192,24942,1,2,0:0:0:0:
256,192,24992,1,2,0:0:0:0:
256,192,25092,1,0,0:0:0:0:
256,192,25142,1,0,0:0:0:0:
256,192,25192,1,0,0:0:0:0:
256,192,25242,1,0,0:0:0:0:
256,192,25292,1,0,0:0:0:0:
256,192,25392,1,2,0:0:0:0:
256,192,25492,1,2,0:0:0:0:
256,192,25592,1,0,0:0:0:0:
256,192,25792,1,0,0:0:0:0:
256,192,25892,1,2,0:0:0:0:
256,192,25992,1,0,0:0:0:0:
256,192,26092,1,0,0:0:0:0:
256,192,26142,1,0,0:0:0:0:
256,192,26192,1,2,0:0:0:0:
256,192,26292,1,0,0:0:0:0:
256,192,26392,1,2,0:0:0:0:
256,192,26492,1,2,0:0:0:0:
256,192,26592,1,0,0:0:0:0:
256,192,26692,1,6,0:0:0:0:
256,192,26892,1,2,0:0:0:0:
256,192,26942,1,2,0:0:0:0:
256,192,26992,1,2,0:0:0:0:
256,192,27092,1,2,0:0:0:0:
256,192,27192,1,0,0:0:0:0:
256,192,27292,1,2,0:0:0:0:
256,192,27392,1,0,0:0:0:0:
256,192,27492,1,0,0:0:0:0:
256,192,27542,1,0,0:0:0:0:
256,192,27592,1,2,0:0:0:0:
256,192,27692,1,0,0:0:0:0:
256,192,27792,1,2,0:0:0:0:
256,192,27892,1,2,0:0:0:0:
256,192,27992,1,0,0:0:0:0:
256,192,28042,1,0,0:0:0:0:
256,192,28092,1,0,0:0:0:0:
256,192,28142,1,0,0:0:0:0:
256,192,28192,1,2,0:0:0:0:
256,192,28292,1,0,0:0:0:0:
256,192,28342,1,0,0:0:0:0:
256,192,28392,1,0,0:0:0:0:
256,192,28442,1,0,0:0:0:0:
256,192,28492,1,0,0:0:0:0:
256,192,28592,1,2,0:0:0:0:
256,192,28692,1,2,0:0:0:0:
256,192,28792,1,4,0:0:0:0:
256,192,28992,1,4,0:0:0:0:
256,192,29192,1,6,0:0:0:0:
256,192,29392,1,4,0:0:0:0:
256,192,29592,1,6,0:0:0:0:
256,192,30392,1,4,0:0:0:0:
256,192,30592,1,4,0:0:0:0:
256,192,30792,1,6,0:0:0:0:
256,192,30992,1,4,0:0:0:0:
256,192,31192,1,6,0:0:0:0:
256,192,31992,1,0,0:0:0:0:
256,192,32092,1,0,0:0:0:0:
256,192,32192,1,0,0:0:0:0:
256,192,32292,1,2,0:0:0:0:
256,192,32392,1,0,0:0:0:0:
256,192,32492,1,0,0:0:0:0:
256,192,32592,1,2,0:0:0:0:
256,192,32692,1,2,0:0:0:0:
256,192,32792,1,0,0:0:0:0:
256,192,32892,1,2,0:0:0:0:
256,192,32992,1,0,0:0:0:0:
256,192,33092,1,0,0:0:0:0:
256,192,33192,1,2,0:0:0:0:
256,192,33292,1,0,0:0:0:0:
256,192,33392,1,2,0:0:0:0:
256,192,33492,1,2,0:0:0:0:
256,192,33592,1,0,0:0:0:0:
256,192,33692,1,0,0:0:0:0:
256,192,33792,1,0,0:0:0:0:
256,192,33892,1,0,0:0:0:0:
256,192,33992,1,2,0:0:0:0:
256,192,34092,1,0,0:0:0:0:
256,192,34192,1,2,0:0:0:0:
256,192,34292,1,0,0:0:0:0:
256,192,34392,1,2,0:0:0:0:
256,192,34492,1,2,0:0:0:0:
256,192,34592,1,0,0:0:0:0:
256,192,34692,1,2,0:0:0:0:
256,192,34792,1,0,0:0:0:0:
256,192,34892,1,0,0:0:0:0:
256,192,34992,1,2,0:0:0:0:
256,192,35042,1,2,0:0:0:0:
256,192,35092,1,2,0:0:0:0:
256,192,35142,1,2,0:0:0:0:
256,192,35192,1,0,0:0:0:0:
256,192,35292,1,0,0:0:0:0:
256,192,35392,1,0,0:0:0:0:
256,192,35492,1,2,0:0:0:0:
256,192,35592,1,0,0:0:0:0:
256,192,35692,1,0,0:0:0:0:
256,192,35792,1,2,0:0:0:0:
256,192,35892,1,2,0:0:0:0:
256,192,35992,1,0,0:0:0:0:
256,192,36092,1,2,0:0:0:0:
256,192,36192,1,0,0:0:0:0:
256,192,36292,1,0,0:0:0:0:
256,192,36392,1,2,0:0:0:0:
256,192,36492,1,0,0:0:0:0:
256,192,36592,1,2,0:0:0:0:
256,192,36692,1,2,0:0:0:0:
256,192,36792,1,0,0:0:0:0:
256,192,36892,1,0,0:0:0:0:
256,192,36992,1,0,0:0:0:0:
256,192,37092,1,0,0:0:0:0:
256,192,37192,1,2,0:0:0:0:
256,192,37292,1,0,0:0:0:0:
256,192,37392,1,2,0:0:0:0:
256,192,37492,1,0,0:0:0:0:
256,192,37592,1,0,0:0:0:0:
256,192,37792,1,2,0:0:0:0:
256,192,37892,1,0,0:0:0:0:
256,192,38092,1,0,0:0:0:0:
256,192,38192,1,2,0:0:0:0:
256,192,38225,1,2,0:0:0:0:
256,192,38258,1,2,0:0:0:0:
256,192,38292,1,2,0:0:0:0:
256,192,38392,5,0,0:0:0:0:
256,192,38592,1,0,0:0:0:0:
256,192,38792,1,2,0:0:0:0:
256,192,38992,1,0,0:0:0:0:
256,192,39092,1,2,0:0:0:0:
256,192,39192,1,0,0:0:0:0:
256,192,39292,1,2,0:0:0:0:
256,192,39392,1,0,0:0:0:0:
256,192,39492,1,0,0:0:0:0:
256,192,39592,1,2,0:0:0:0:
256,192,39792,1,2,0:0:0:0:
256,192,39892,1,2,0:0:0:0:
256,192,39992,1,0,0:0:0:0:
256,192,40192,1,0,0:0:0:0:
256,192,40392,1,2,0:0:0:0:
256,192,40592,1,2,0:0:0:0:
256,192,40692,1,0,0:0:0:0:
256,192,40792,1,2,0:0:0:0:
256,192,40892,1,2,0:0:0:0:
256,192,40992,1,0,0:0:0:0:
256,192,41092,1,0,0:0:0:0:
256,192,41192,1,2,0:0:0:0:
256,192,41392,1,2,0:0:0:0:
256,192,41592,1,4,0:0:0:0:
256,192,41792,1,2,0:0:0:0:
256,192,41992,1,4,0:0:0:0:
256,192,42092,1,2,0:0:0:0:
256,192,42192,1,2,0:0:0:0:
256,192,42392,1,4,0:0:0:0:
256,192,42592,1,2,0:0:0:0:
256,192,42692,1,2,0:0:0:0:
256,192,42792,1,4,0:0:0:0:
256,192,42892,1,2,0:0:0:0:
256,192,42942,1,2,0:0:0:0:
256,192,42992,1,2,0:0:0:0:
256,192,43092,1,2,0:0:0:0:
256,192,43192,1,4,0:0:0:0:
256,192,43392,1,2,0:0:0:0:
256,192,43492,1,2,0:0:0:0:
256,192,43592,1,4,0:0:0:0:
256,192,43692,1,0,0:0:0:0:
256,192,43792,1,2,0:0:0:0:
256,192,43892,1,2,0:0:0:0:
256,192,43992,1,4,0:0:0:0:
256,192,44092,1,2,0:0:0:0:
256,192,44142,1,2,0:0:0:0:
256,192,44192,1,0,0:0:0:0:
256,192,44292,1,2,0:0:0:0:
256,192,44392,1,4,0:0:0:0:
256,192,44492,1,0,0:0:0:0:
256,192,44542,1,0,0:0:0:0:
256,192,44592,1,2,0:0:0:0:
256,192,44642,1,2,0:0:0:0:
256,192,44692,1,2,0:0:0:0:
256,192,44742,1,2,0:0:0:0:
256,192,44792,1,0,0:0:0:0:
256,192,44842,1,0,0:0:0:0:
256,192,44892,1,0,0:0:0:0:
256,192,44992,1,0,0:0:0:0:
256,192,45092,1,0,0:0:0:0:
256,192,45192,1,0,0:0:0:0:
256,192,45392,1,0,0:0:0:0:
256,192,45592,1,2,0:0:0:0:
256,192,45692,1,2,0:0:0:0:
256,192,45792,1,2,0:0:0:0:
256,192,45892,1,2,0:0:0:0:
256,192,45992,1,0,0:0:0:0:
256,192,46017,1,0,0:0:0:0:
256,192,46192,1,0,0:0:0:0:
256,192,46217,1,0,0:0:0:0:
256,192,46392,5,4,0:0:0:0:
256,192,46542,1,2,0:0:0:0:
256,192,46592,1,0,0:0:0:0:
256,192,46692,1,2,0:0:0:0:
256,192,46792,1,0,0:0:0:0:
256,192,46892,1,0,0:0:0:0:
256,192,46942,1,0,0:0:0:0:
256,192,46992,1,2,0:0:0:0:
256,192,47092,1,2,0:0:0:0:
256,192,47192,1,0,0:0:0:0:
256,192,47292,1,2,0:0:0:0:
256,192,47342,1,2,0:0:0:0:
256,192,47392,1,0,0:0:0:0:
256,192,47492,1,2,0:0:0:0:
256,192,47592,1,0,0:0:0:0:
256,192,47642,1,2,0:0:0:0:
256,192,47692,1,0,0:0:0:0:
256,192,47742,1,0,0:0:0:0:
256,192,47792,1,2,0:0:0:0:
256,192,47892,1,2,0:0:0:0:
256,192,47992,1,0,0:0:0:0:
256,192,48092,1,2,0:0:0:0:
256,192,48142,1,0,0:0:0:0:
256,192,48192,1,2,0:0:0:0:
256,192,48242,1,2,0:0:0:0:
256,192,48292,1,0,0:0:0:0:
256,192,48342,1,0,0:0:0:0:
256,192,48392,1,2,0:0:0:0:
256,192,48492,1,0,0:0:0:0:
256,192,48542,1,0,0:0:0:0:
256,192,48592,1,2,0:0:0:0:
256,192,48692,1,2,0:0:0:0:
256,192,48792,1,0,0:0:0:0:
256,192,48842,1,2,0:0:0:0:
256,192,48892,1,2,0:0:0:0:
256,192,48942,1,2,0:0:0:0:
256,192,48992,1,0,0:0:0:0:
256,192,49092,1,2,0:0:0:0:
256,192,49142,1,2,0:0:0:0:
256,192,49192,1,0,0:0:0:0:
256,192,49242,1,2,0:0:0:0:
256,192,49292,1,0,0:0:0:0:
256,192,49342,1,0,0:0:0:0:
256,192,49392,1,2,0:0:0:0:
256,192,49442,1,2,0:0:0:0:
256,192,49492,1,2,0:0:0:0:
256,192,49542,1,2,0:0:0:0:
256,192,49592,1,0,0:0:0:0:
256,192,49742,1,0,0:0:0:0:
256,192,49792,1,2,0:0:0:0:
256,192,49892,1,0,0:0:0:0:
256,192,49992,1,2,0:0:0:0:
256,192,50092,1,0,0:0:0:0:
256,192,50142,1,0,0:0:0:0:
256,192,50192,1,2,0:0:0:0:
256,192,50292,1,2,0:0:0:0:
256,192,50392,1,0,0:0:0:0:
256,192,50442,1,0,0:0:0:0:
256,192,50492,1,2,0:0:0:0:
256,192,50542,1,0,0:0:0:0:
256,192,50592,1,2,0:0:0:0:
256,192,50642,1,2,0:0:0:0:
256,192,50692,1,0,0:0:0:0:
256,192,50792,1,2,0:0:0:0:
256,192,50842,1,2,0:0:0:0:
256,192,50892,1,0,0:0:0:0:
256,192,50942,1,2,0:0:0:0:
256,192,50992,1,0,0:0:0:0:
256,192,51042,1,0,0:0:0:0:
256,192,51092,1,2,0:0:0:0:
256,192,51142,1,2,0:0:0:0:
256,192,51192,1,0,0:0:0:0:
256,192,51292,1,2,0:0:0:0:
256,192,51392,1,0,0:0:0:0:
256,192,51492,1,2,0:0:0:0:
256,192,51542,1,0,0:0:0:0:
256,192,51592,1,2,0:0:0:0:
256,192,51642,1,2,0:0:0:0:
256,192,51692,1,0,0:0:0:0:
256,192,51742,1,2,0:0:0:0:
256,192,51792,1,0,0:0:0:0:
256,192,51842,1,0,0:0:0:0:
256,192,51892,1,2,0:0:0:0:
256,192,51942,1,2,0:0:0:0:
256,192,51992,1,0,0:0:0:0:
256,192,52092,1,2,0:0:0:0:
256,192,52192,1,0,0:0:0:0:
256,192,52242,1,2,0:0:0:0:
256,192,52292,1,2,0:0:0:0:
256,192,52342,1,2,0:0:0:0:
256,192,52392,1,0,0:0:0:0:
256,192,52442,1,0,0:0:0:0:
256,192,52492,1,2,0:0:0:0:
256,192,52542,1,2,0:0:0:0:
256,192,52592,1,0,0:0:0:0:
256,192,52692,1,0,0:0:0:0:
256,192,52792,1,0,0:0:0:0:
256,192,52942,1,2,0:0:0:0:
256,192,52992,1,0,0:0:0:0:
256,192,53092,1,2,0:0:0:0:
256,192,53192,1,0,0:0:0:0:
256,192,53292,1,0,0:0:0:0:
256,192,53342,1,0,0:0:0:0:
256,192,53392,1,2,0:0:0:0:
256,192,53492,1,2,0:0:0:0:
256,192,53592,1,0,0:0:0:0:
256,192,53692,1,2,0:0:0:0:
256,192,53742,1,0,0:0:0:0:
256,192,53792,1,2,0:0:0:0:
256,192,53842,1,2,0:0:0:0:
256,192,53892,1,0,0:0:0:0:
256,192,53942,1,2,0:0:0:0:
256,192,53992,1,0,0:0:0:0:
256,192,54092,1,0,0:0:0:0:
256,192,54142,1,0,0:0:0:0:
256,192,54192,1,2,0:0:0:0:
256,192,54292,1,2,0:0:0:0:
256,192,54392,1,0,0:0:0:0:
256,192,54492,1,0,0:0:0:0:
256,192,54542,1,2,0:0:0:0:
256,192,54592,1,0,0:0:0:0:
256,192,54642,1,0,0:0:0:0:
256,192,54692,1,2,0:0:0:0:
256,192,54742,1,2,0:0:0:0:
256,192,54792,1,0,0:0:0:0:
256,192,54892,1,0,0:0:0:0:
256,192,54942,1,0,0:0:0:0:
256,192,54992,1,2,0:0:0:0:
256,192,55092,1,2,0:0:0:0:
256,192,55192,1,0,0:0:0:0:
256,192,55242,1,0,0:0:0:0:
256,192,55292,1,2,0:0:0:0:
256,192,55342,1,0,0:0:0:0:
256,192,55392,1,2,0:0:0:0:
256,192,55442,1,2,0:0:0:0:
256,192,55492,1,0,0:0:0:0:
256,192,55542,1,2,0:0:0:0:
256,192,55592,1,0,0:0:0:0:
256,192,55642,1,0,0:0:0:0:
256,192,55692,1,0,0:0:0:0:
256,192,55742,1,0,0:0:0:0:
256,192,55792,1,2,0:0:0:0:
256,192,55842,1,2,0:0:0:0:
256,192,55892,1,2,0:0:0:0:
256,192,55992,1,0,0:0:0:0:
256,192,56142,1,0,0:0:0:0:
256,192,56192,1,2,0:0:0:0:
256,192,56292,1,0,0:0:0:0:
256,192,56392,1,2,0:0:0:0:
256,192,56442,1,2,0:0:0:0:
256,192,56492,1,0,0:0:0:0:
256,192,56542,1,0,0:0:0:0:
256,192,56592,1,2,0:0:0:0:
256,192,56642,1,0,0:0:0:0:
256,192,56692,1,2,0:0:0:0:
256,192,56742,1,2,0:0:0:0:
256,192,56792,1,0,0:0:0:0:
256,192,56892,1,2,0:0:0:0:
256,192,56992,1,0,0:0:0:0:
256,192,57042,1,2,0:0:0:0:
256,192,57092,1,2,0:0:0:0:
256,192,57192,1,0,0:0:0:0:
256,192,57242,1,2,0:0:0:0:
256,192,57292,1,2,0:0:0:0:
256,192,57342,1,2,0:0:0:0:
256,192,57392,1,0,0:0:0:0:
256,192,57442,1,0,0:0:0:0:
256,192,57492,1,2,0:0:0:0:
256,192,57542,1,2,0:0:0:0:
256,192,57592,1,0,0:0:0:0:
256,192,57692,1,2,0:0:0:0:
256,192,57792,1,0,0:0:0:0:
256,192,57842,1,0,0:0:0:0:
256,192,57892,1,2,0:0:0:0:
256,192,57942,1,0,0:0:0:0:
256,192,57992,1,2,0:0:0:0:
256,192,58042,1,2,0:0:0:0:
256,192,58092,1,0,0:0:0:0:
256,192,58142,1,0,0:0:0:0:
256,192,58192,1,2,0:0:0:0:
256,192,58242,1,2,0:0:0:0:
256,192,58292,1,0,0:0:0:0:
256,192,58342,1,2,0:0:0:0:
256,192,58392,1,0,0:0:0:0:
256,192,58492,1,2,0:0:0:0:
256,192,58542,1,2,0:0:0:0:
256,192,58592,1,0,0:0:0:0:
256,192,58642,1,2,0:0:0:0:
256,192,58692,1,2,0:0:0:0:
256,192,58742,1,2,0:0:0:0:
256,192,58792,1,0,0:0:0:0:
256,192,58842,1,0,0:0:0:0:
256,192,58892,1,2,0:0:0:0:
256,192,58942,1,2,0:0:0:0:
256,192,58992,1,0,0:0:0:0:
256,192,59042,1,2,0:0:0:0:
256,192,59092,1,2,0:0:0:0:
256,192,59192,1,0,0:0:0:0:
256,192,59292,1,0,0:0:0:0:
256,192,59392,1,0,0:0:0:0:
256,192,59442,1,0,0:0:0:0:
256,192,59492,1,0,0:0:0:0:
256,192,59542,1,0,0:0:0:0:
256,192,59592,1,0,0:0:0:0:
256,192,59692,1,0,0:0:0:0:
256,192,59742,1,0,0:0:0:0:
256,192,59842,1,0,0:0:0:0:
256,192,59892,1,0,0:0:0:0:
256,192,59992,1,0,0:0:0:0:
256,192,60058,1,0,0:0:0:0:
256,192,60125,1,0,0:0:0:0:
256,192,60192,1,2,0:0:0:0:
256,192,60258,1,0,0:0:0:0:
256,192,60325,1,0,0:0:0:0:
256,192,60392,1,2,0:0:0:0:
256,192,60442,1,2,0:0:0:0:
256,192,60492,1,2,0:0:0:0:
256,192,60542,1,2,0:0:0:0:
256,192,60592,1,0,0:0:0:0:
256,192,60642,1,0,0:0:0:0:
256,192,60692,1,0,0:0:0:0:
256,192,60742,1,0,0:0:0:0:
256,192,60792,1,0,0:0:0:0:
256,192,60892,1,2,0:0:0:0:
256,192,60992,1,0,0:0:0:0:
256,192,61092,1,2,0:0:0:0:
256,192,61125,1,2,0:0:0:0:
256,192,61158,1,2,0:0:0:0:
256,192,61192,1,0,0:0:0:0:
256,192,61292,1,2,0:0:0:0:
256,192,61325,1,2,0:0:0:0:
256,192,61358,1,2,0:0:0:0:
256,192,61392,1,0,0:0:0:0:
256,192,61442,1,0,0:0:0:0:
256,192,61492,1,0,0:0:0:0:
256,192,61542,1,0,0:0:0:0:
256,192,61592,1,2,0:0:0:0:
256,192,61642,1,0,0:0:0:0:
256,192,61692,1,0,0:0:0:0:
256,192,61742,1,0,0:0:0:0:
256,192,61792,1,2,0:0:0:0:
256,192,61842,1,2,0:0:0:0:
256,192,61892,1,0,0:0:0:0:
256,192,61942,1,2,0:0:0:0:
256,192,61992,1,0,0:0:0:0:
256,192,62042,1,2,0:0:0:0:
256,192,62092,1,2,0:0:0:0:
256,192,62142,1,2,0:0:0:0:
256,192,62192,1,0,0:0:0:0:
256,192,62242,1,0,0:0:0:0:
256,192,62292,1,0,0:0:0:0:
256,192,62392,1,2,0:0:0:0:
256,192,62442,1,2,0:0:0:0:
256,192,62492,1,0,0:0:0:0:
256,192,62542,1,0,0:0:0:0:
256,192,62592,1,2,0:0:0:0:
256,192,62642,1,2,0:0:0:0:
256,192,62692,1,0,0:0:0:0:
256,192,62742,1,2,0:0:0:0:
256,192,62792,1,0,0:0:0:0:
256,192,62842,1,0,0:0:0:0:
256,192,62892,1,2,0:0:0:0:
256,192,62942,1,0,0:0:0:0:
256,192,62992,1,2,0:0:0:0:
256,192,63042,1,2,0:0:0:0:
256,192,63092,1,2,0:0:0:0:
256,192,63192,1,4,0:0:0:0:
256,192,63592,1,2,0:0:0:0:
256,192,63692,1,2,0:0:0:0:
256,192,63792,1,2,0:0:0:0:
256,192,63892,1,2,0:0:0:0:
256,192,63992,1,0,0:0:0:0:
256,192,64092,1,0,0:0:0:0:
256,192,64192,1,2,0:0:0:0:
256,192,64225,1,2,0:0:0:0:
256,192,64258,1,2,0:0:0:0:
256,192,64292,1,2,0:0:0:0:
256,192,64392,1,0,0:0:0:0:
256,192,64442,1,0,0:0:0:0:
256,192,64492,1,2,0:0:0:0:
256,192,64542,1,0,0:0:0:0:
256,192,64592,1,2,0:0:0:0:
256,192,64642,1,2,0:0:0:0:
256,192,64692,1,0,0:0:0:0:
256,192,64742,1,0,0:0:0:0:
256,192,64792,1,2,0:0:0:0:
256,192,64842,1,2,0:0:0:0:
256,192,64892,1,2,0:0:0:0:
256,192,64942,1,2,0:0:0:0:
256,192,64992,1,0,0:0:0:0:
256,192,65042,1,2,0:0:0:0:
256,192,65092,1,2,0:0:0:0:
256,192,65142,1,2,0:0:0:0:
256,192,65192,1,0,0:0:0:0:
256,192,65242,1,2,0:0:0:0:
256,192,65292,1,2,0:0:0:0:
256,192,65342,1,0,0:0:0:0:
256,192,65392,1,2,0:0:0:0:
256,192,65442,1,2,0:0:0:0:
256,192,65492,1,0,0:0:0:0:
256,192,65542,1,2,0:0:0:0:
256,192,65592,1,0,0:0:0:0:
256,192,65692,12,0,68792,0:0:0:0:
256,192,71992,5,0,0:0:0:0:
256,192,72592,1,0,0:0:0:0:
256,192,72792,1,2,0:0:0:0:
256,192,72992,1,2,0:0:0:0:
256,192,73092,1,2,0:0:0:0:
256,192,73192,1,0,0:0:0:0:
256,192,73392,1,2,0:0:0:0:
256,192,73592,1,2,0:0:0:0:
256,192,73792,1,0,0:0:0:0:
256,192,74192,1,0,0:0:0:0:
256,192,74392,1,2,0:0:0:0:
256,192,74792,1,2,0:0:0:0:
256,192,74992,1,2,0:0:0:0:
256,192,75192,1,0,0:0:0:0:
256,192,75592,1,2,0:0:0:0:
256,192,75792,1,0,0:0:0:0:
256,192,75992,1,2,0:0:0:0:
256,192,76392,1,0,0:0:0:0:
256,192,76592,1,2,0:0:0:0:
256,192,76692,1,2,0:0:0:0:
256,192,76792,1,2,0:0:0:0:
256,192,76992,1,0,0:0:0:0:
256,192,77192,1,2,0:0:0:0:
256,192,77292,1,2,0:0:0:0:
256,192,77392,1,0,0:0:0:0:
256,192,77492,1,0,0:0:0:0:
256,192,77592,1,2,0:0:0:0:
256,192,77892,1,2,0:0:0:0:
256,192,78192,1,2,0:0:0:0:
256,192,78392,1,0,0:0:0:0:
256,192,78492,1,0,0:0:0:0:
256,192,78592,1,2,0:0:0:0:
256,192,78692,1,0,0:0:0:0:
256,192,78742,1,2,0:0:0:0:
256,192,78792,1,0,0:0:0:0:
256,192,78842,1,2,0:0:0:0:
256,192,78892,1,0,0:0:0:0:
256,192,78942,1,0,0:0:0:0:
256,192,78992,1,2,0:0:0:0:
256,192,79092,1,2,0:0:0:0:
256,192,79192,1,0,0:0:0:0:
256,192,79292,1,0,0:0:0:0:
256,192,79392,1,2,0:0:0:0:
256,192,79492,1,2,0:0:0:0:
256,192,79542,1,0,0:0:0:0:
256,192,79592,1,2,0:0:0:0:
256,192,79642,1,2,0:0:0:0:
256,192,79692,1,0,0:0:0:0:
256,192,79742,1,2,0:0:0:0:
256,192,79792,1,0,0:0:0:0:
256,192,79892,1,2,0:0:0:0:
256,192,79992,1,0,0:0:0:0:
256,192,80092,1,0,0:0:0:0:
256,192,80192,1,2,0:0:0:0:
256,192,80292,1,2,0:0:0:0:
256,192,80342,1,2,0:0:0:0:
256,192,80392,1,0,0:0:0:0:
256,192,80442,1,2,0:0:0:0:
256,192,80492,1,0,0:0:0:0:
256,192,80542,1,0,0:0:0:0:
256,192,80592,1,2,0:0:0:0:
256,192,80692,1,2,0:0:0:0:
256,192,80742,1,2,0:0:0:0:
256,192,80792,1,0,0:0:0:0:
256,192,80892,1,0,0:0:0:0:
256,192,80992,1,2,0:0:0:0:
256,192,81042,1,2,0:0:0:0:
256,192,81092,1,0,0:0:0:0:
256,192,81142,1,0,0:0:0:0:
256,192,81192,1,2,0:0:0:0:
256,192,81242,1,2,0:0:0:0:
256,192,81292,1,0,0:0:0:0:
256,192,81342,1,0,0:0:0:0:
256,192,81392,1,2,0:0:0:0:
256,192,81442,1,2,0:0:0:0:
256,192,81492,1,2,0:0:0:0:
256,192,81592,1,0,0:0:0:0:
256,192,81692,1,0,0:0:0:0:
256,192,81792,1,2,0:0:0:0:
256,192,81892,1,0,0:0:0:0:
256,192,81942,1,2,0:0:0:0:
256,192,81992,1,0,0:0:0:0:
256,192,82042,1,2,0:0:0:0:
256,192,82092,1,0,0:0:0:0:
256,192,82142,1,0,0:0:0:0:
256,192,82192,1,2,0:0:0:0:
256,192,82292,1,2,0:0:0:0:
256,192,82342,1,2,0:0:0:0:
256,192,82392,1,0,0:0:0:0:
256,192,82492,1,0,0:0:0:0:
256,192,82592,1,2,0:0:0:0:
256,192,82692,1,2,0:0:0:0:
256,192,82742,1,0,0:0:0:0:
256,192,82792,1,2,0:0:0:0:
256,192,82842,1,2,0:0:0:0:
256,192,82892,1,2,0:0:0:0:
256,192,82942,1,2,0:0:0:0:
256,192,82992,1,0,0:0:0:0:
256,192,83042,1,0,0:0:0:0:
256,192,83092,1,2,0:0:0:0:
256,192,83192,1,0,0:0:0:0:
256,192,83392,1,0,0:0:0:0:
256,192,83592,1,2,0:0:0:0:
256,192,83892,1,2,0:0:0:0:
256,192,83992,1,0,0:0:0:0:
256,192,84092,1,2,0:0:0:0:
256,192,84192,1,0,0:0:0:0:
256,192,84292,1,0,0:0:0:0:
256,192,84392,1,2,0:0:0:0:
256,192,84592,1,2,0:0:0:0:
256,192,84692,1,2,0:0:0:0:
256,192,84792,1,0,0:0:0:0:
256,192,84858,1,2,0:0:0:0:
256,192,84925,1,2,0:0:0:0:
256,192,84992,1,0,0:0:0:0:
256,192,85058,1,2,0:0:0:0:
256,192,85125,1,2,0:0:0:0:
256,192,85192,1,0,0:0:0:0:
256,192,85258,1,0,0:0:0:0:
256,192,85325,1,0,0:0:0:0:
256,192,85392,1,2,0:0:0:0:
256,192,85458,1,2,0:0:0:0:
256,192,85525,1,2,0:0:0:0:
256,192,85592,1,0,0:0:0:0:
256,192,85642,1,0,0:0:0:0:
256,192,85692,1,0,0:0:0:0:
256,192,85742,1,0,0:0:0:0:
256,192,85792,1,2,0:0:0:0:
256,192,85858,1,0,0:0:0:0:
256,192,85925,1,0,0:0:0:0:
256,192,85992,1,2,0:0:0:0:
256,192,86042,1,2,0:0:0:0:
256,192,86092,1,2,0:0:0:0:
256,192,86142,1,2,0:0:0:0:
256,192,86192,1,0,0:0:0:0:
256,192,86258,1,2,0:0:0:0:
256,192,86325,1,2,0:0:0:0:
256,192,86392,1,0,0:0:0:0:
256,192,86442,1,0,0:0:0:0:
256,192,86492,1,0,0:0:0:0:
256,192,86542,1,0,0:0:0:0:
256,192,86592,1,2,0:0:0:0:
256,192,86642,1,2,0:0:0:0:
256,192,86692,1,0,0:0:0:0:
256,192,86742,1,0,0:0:0:0:
256,192,86792,1,2,0:0:0:0:
256,192,86842,1,0,0:0:0:0:
256,192,86892,1,0,0:0:0:0:
256,192,86942,1,0,0:0:0:0:
256,192,86992,1,2,0:0:0:0:
256,192,87042,1,0,0:0:0:0:
256,192,87092,1,2,0:0:0:0:
256,192,87142,1,2,0:0:0:0:
256,192,87192,1,0,0:0:0:0:
256,192,87392,1,2,0:0:0:0:
256,192,87592,1,0,0:0:0:0:
256,192,87658,1,0,0:0:0:0:
256,192,87725,1,0,0:0:0:0:
256,192,87792,1,2,0:0:0:0:
256,192,87858,1,2,0:0:0:0:
256,192,87925,1,2,0:0:0:0:
256,192,87992,5,4,0:0:0:0:
256,192,88142,1,2,0:0:0:0:
256,192,88192,1,0,0:0:0:0:
256,192,88292,1,2,0:0:0:0:
256,192,88392,1,0,0:0:0:0:
256,192,88492,1,0,0:0:0:0:
256,192,88542,1,0,0:0:0:0:
256,192,88592,1,2,0:0:0:0:
256,192,88692,1,2,0:0:0:0:
256,192,88792,1,0,0:0:0:0:
256,192,88892,1,2,0:0:0:0:
256,192,88942,1,0,0:0:0:0:
256,192,88992,1,2,0:0:0:0:
256,192,89042,1,2,0:0:0:0:
256,192,89092,1,0,0:0:0:0:
256,192,89142,1,2,0:0:0:0:
256,192,89192,1,0,0:0:0:0:
256,192,89292,1,0,0:0:0:0:
256,192,89342,1,0,0:0:0:0:
256,192,89392,1,2,0:0:0:0:
256,192,89492,1,2,0:0:0:0:
256,192,89592,1,0,0:0:0:0:
256,192,89692,1,0,0:0:0:0:
256,192,89742,1,2,0:0:0:0:
256,192,89792,1,0,0:0:0:0:
256,192,89842,1,0,0:0:0:0:
256,192,89892,1,2,0:0:0:0:
256,192,89942,1,2,0:0:0:0:
256,192,89992,1,0,0:0:0:0:
256,192,90092,1,0,0:0:0:0:
256,192,90142,1,0,0:0:0:0:
256,192,90192,1,2,0:0:0:0:
256,192,90292,1,2,0:0:0:0:
256,192,90392,1,0,0:0:0:0:
256,192,90442,1,2,0:0:0:0:
256,192,90492,1,2,0:0:0:0:
256,192,90542,1,0,0:0:0:0:
256,192,90592,1,2,0:0:0:0:
256,192,90642,1,2,0:0:0:0:
256,192,90692,1,0,0:0:0:0:
256,192,90742,1,2,0:0:0:0:
256,192,90792,1,0,0:0:0:0:
256,192,90842,1,0,0:0:0:0:
256,192,90892,1,2,0:0:0:0:
256,192,90942,1,0,0:0:0:0:
256,192,90992,1,2,0:0:0:0:
256,192,91042,1,2,0:0:0:0:
256,192,91092,1,2,0:0:0:0:
256,192,91142,1,2,0:0:0:0:
256,192,91192,1,0,0:0:0:0:
256,192,91292,1,2,0:0:0:0:
256,192,91342,1,0,0:0:0:0:
256,192,91392,1,2,0:0:0:0:
256,192,91492,1,0,0:0:0:0:
256,192,91592,1,2,0:0:0:0:
256,192,91642,1,2,0:0:0:0:
256,192,91692,1,0,0:0:0:0:
256,192,91742,1,0,0:0:0:0:
256,192,91792,1,2,0:0:0:0:
256,192,91842,1,0,0:0:0:0:
256,192,91892,1,2,0:0:0:0:
256,192,91942,1,2,0:0:0:0:
256,192,91992,1,0,0:0:0:0:
256,192,92092,1,2,0:0:0:0:
256,192,92192,1,0,0:0:0:0:
256,192,92242,1,2,0:0:0:0:
256,192,92292,1,2,0:0:0:0:
256,192,92392,1,0,0:0:0:0:
256,192,92442,1,2,0:0:0:0:
256,192,92492,1,0,0:0:0:0:
256,192,92542,1,0,0:0:0:0:
256,192,92592,1,2,0:0:0:0:
256,192,92642,1,0,0:0:0:0:
256,192,92692,1,2,0:0:0:0:
256,192,92742,1,2,0:0:0:0:
256,192,92792,1,0,0:0:0:0:
256,192,92892,1,2,0:0:0:0:
256,192,92992,1,0,0:0:0:0:
256,192,93042,1,2,0:0:0:0:
256,192,93092,1,2,0:0:0:0:
256,192,93142,1,2,0:0:0:0:
256,192,93192,1,0,0:0:0:0:
256,192,93242,1,0,0:0:0:0:
256,192,93292,1,2,0:0:0:0:
256,192,93342,1,0,0:0:0:0:
256,192,93392,1,0,0:0:0:0:
256,192,93492,1,2,0:0:0:0:
256,192,93592,1,0,0:0:0:0:
256,192,93642,1,2,0:0:0:0:
256,192,93692,1,0,0:0:0:0:
256,192,93742,1,0,0:0:0:0:
256,192,93792,1,2,0:0:0:0:
256,192,93842,1,0,0:0:0:0:
256,192,93892,1,2,0:0:0:0:
256,192,93942,1,0,0:0:0:0:
256,192,93992,1,2,0:0:0:0:
256,192,94042,1,2,0:0:0:0:
256,192,94092,1,2,0:0:0:0:
256,192,94142,1,2,0:0:0:0:
256,192,94192,1,0,0:0:0:0:
256,192,94242,1,2,0:0:0:0:
256,192,94292,1,2,0:0:0:0:
256,192,94392,1,0,0:0:0:0:
256,192,94492,1,0,0:0:0:0:
256,192,94542,1,0,0:0:0:0:
256,192,94592,1,2,0:0:0:0:
256,192,94692,1,0,0:0:0:0:
256,192,94792,1,0,0:0:0:0:
256,192,94842,1,2,0:0:0:0:
256,192,94892,1,0,0:0:0:0:
256,192,94942,1,0,0:0:0:0:
256,192,94992,1,2,0:0:0:0:
256,192,95092,1,2,0:0:0:0:
256,192,95142,1,2,0:0:0:0:
256,192,95192,1,0,0:0:0:0:
256,192,95242,1,2,0:0:0:0:
256,192,95292,1,0,0:0:0:0:
256,192,95342,1,0,0:0:0:0:
256,192,95392,1,2,0:0:0:0:
256,192,95442,1,2,0:0:0:0:
256,192,95492,1,2,0:0:0:0:
256,192,95542,1,0,0:0:0:0:
256,192,95592,1,2,0:0:0:0:
256,192,95642,1,2,0:0:0:0:
256,192,95692,1,0,0:0:0:0:
256,192,95742,1,0,0:0:0:0:
256,192,95792,1,2,0:0:0:0:
256,192,95892,1,2,0:0:0:0:
256,192,95992,1,0,0:0:0:0:
256,192,96092,1,2,0:0:0:0:
256,192,96142,1,0,0:0:0:0:
256,192,96192,1,2,0:0:0:0:
256,192,96242,1,2,0:0:0:0:
256,192,96292,1,0,0:0:0:0:
256,192,96342,1,2,0:0:0:0:
256,192,96392,1,0,0:0:0:0:
256,192,96442,1,0,0:0:0:0:
256,192,96492,1,0,0:0:0:0:
256,192,96542,1,0,0:0:0:0:
256,192,96592,1,2,0:0:0:0:
256,192,96642,1,2,0:0:0:0:
256,192,96692,1,0,0:0:0:0:
256,192,96742,1,0,0:0:0:0:
256,192,96792,1,2,0:0:0:0:
256,192,96892,1,0,0:0:0:0:
256,192,96992,1,2,0:0:0:0:
256,192,97042,1,2,0:0:0:0:
256,192,97092,1,0,0:0:0:0:
256,192,97192,1,2,0:0:0:0:
256,192,97242,1,0,0:0:0:0:
256,192,97292,1,2,0:0:0:0:
256,192,97342,1,0,0:0:0:0:
256,192,97392,1,2,0:0:0:0:
256,192,97442,1,0,0:0:0:0:
256,192,97492,1,2,0:0:0:0:
256,192,97542,1,2,0:0:0:0:
256,192,97592,1,2,0:0:0:0:
256,192,97692,1,0,0:0:0:0:
256,192,97792,1,2,0:0:0:0:
256,192,97842,1,2,0:0:0:0:
256,192,97892,1,0,0:0:0:0:
256,192,97942,1,0,0:0:0:0:
256,192,97992,1,2,0:0:0:0:
256,192,98092,1,0,0:0:0:0:
256,192,98192,1,2,0:0:0:0:
256,192,98242,1,0,0:0:0:0:
256,192,98292,1,2,0:0:0:0:
256,192,98342,1,2,0:0:0:0:
256,192,98392,1,0,0:0:0:0:
256,192,98492,1,2,0:0:0:0:
256,192,98592,1,0,0:0:0:0:
256,192,98642,1,0,0:0:0:0:
256,192,98692,1,2,0:0:0:0:
256,192,98792,1,0,0:0:0:0:
256,192,98842,1,0,0:0:0:0:
256,192,98892,1,0,0:0:0:0:
256,192,98942,1,0,0:0:0:0:
256,192,98992,1,2,0:0:0:0:
256,192,99042,1,2,0:0:0:0:
256,192,99092,1,2,0:0:0:0:
256,192,99142,1,2,0:0:0:0:
256,192,99192,1,0,0:0:0:0:
256,192,99292,1,2,0:0:0:0:
256,192,99342,1,0,0:0:0:0:
256,192,99392,1,2,0:0:0:0:
256,192,99442,1,2,0:0:0:0:
256,192,99492,1,0,0:0:0:0:
256,192,99542,1,2,0:0:0:0:
256,192,99592,1,0,0:0:0:0:
256,192,99642,1,0,0:0:0:0:
256,192,99692,1,2,0:0:0:0:
256,192,99742,1,2,0:0:0:0:
256,192,99792,1,0,0:0:0:0:
256,192,99892,1,2,0:0:0:0:
256,192,99992,1,0,0:0:0:0:
256,192,100092,1,2,0:0:0:0:
256,192,100142,1,2,0:0:0:0:
256,192,100192,1,0,0:0:0:0:
256,192,100242,1,2,0:0:0:0:
256,192,100292,1,0,0:0:0:0:
256,192,100342,1,0,0:0:0:0:
256,192,100392,1,2,0:0:0:0:
256,192,100442,1,0,0:0:0:0:
256,192,100492,1,0,0:0:0:0:
256,192,100542,1,0,0:0:0:0:
256,192,100592,1,2,0:0:0:0:
256,192,100692,1,2,0:0:0:0:
256,192,100792,1,0,0:0:0:0:
256,192,100942,1,2,0:0:0:0:
256,192,100992,1,0,0:0:0:0:
256,192,101092,1,2,0:0:0:0:
256,192,101192,1,0,0:0:0:0:
256,192,101242,1,2,0:0:0:0:
256,192,101292,1,2,0:0:0:0:
256,192,101392,1,0,0:0:0:0:
256,192,101492,1,2,0:0:0:0:
256,192,101542,1,2,0:0:0:0:
256,192,101592,1,0,0:0:0:0:
256,192,101642,1,2,0:0:0:0:
256,192,101692,1,2,0:0:0:0:
256,192,101742,1,2,0:0:0:0:
256,192,101792,1,0,0:0:0:0:
256,192,101892,1,2,0:0:0:0:
256,192,101992,1,0,0:0:0:0:
256,192,102042,1,0,0:0:0:0:
256,192,102092,1,2,0:0:0:0:
256,192,102142,1,2,0:0:0:0:
256,192,102192,1,0,0:0:0:0:
256,192,102292,1,2,0:0:0:0:
256,192,102342,1,2,0:0:0:0:
256,192,102392,1,0,0:0:0:0:
256,192,102442,1,2,0:0:0:0:
256,192,102492,1,2,0:0:0:0:
256,192,102542,1,2,0:0:0:0:
256,192,102592,1,0,0:0:0:0:
256,192,102642,1,0,0:0:0:0:
256,192,102692,1,2,0:0:0:0:
256,192,102742,1,0,0:0:0:0:
256,192,102792,1,2,0:0:0:0:
256,192,102892,1,2,0:0:0:0:
256,192,102942,1,2,0:0:0:0:
256,192,102992,1,0,0:0:0:0:
256,192,103092,1,2,0:0:0:0:
256,192,103192,1,0,0:0:0:0:
256,192,103242,1,2,0:0:0:0:
256,192,103292,1,2,0:0:0:0:
256,192,103342,1,0,0:0:0:0:
256,192,103392,1,2,0:0:0:0:
256,192,103442,1,2,0:0:0:0:
256,192,103492,1,0,0:0:0:0:
256,192,103542,1,0,0:0:0:0:
256,192,103592,1,2,0:0:0:0:
256,192,103692,1,2,0:0:0:0:
256,192,103742,1,0,0:0:0:0:
256,192,103792,1,2,0:0:0:0:
256,192,103842,1,2,0:0:0:0:
256,192,103892,1,0,0:0:0:0:
256,192,103992,1,0,0:0:0:0:
256,192,104092,1,2,0:0:0:0:
256,192,104142,1,2,0:0:0:0:
256,192,104192,1,0,0:0:0:0:
256,192,104292,1,2,0:0:0:0:
256,192,104342,1,2,0:0:0:0:
256,192,104392,1,0,0:0:0:0:
256,192,104442,1,2,0:0:0:0:
256,192,104492,1,0,0:0:0:0:
256,192,104542,1,0,0:0:0:0:
256,192,104592,1,2,0:0:0:0:
256,192,104642,1,2,0:0:0:0:
256,192,104692,1,2,0:0:0:0:
256,192,104792,1,0,0:0:0:0:
256,192,104842,1,2,0:0:0:0:
256,192,104892,1,0,0:0:0:0:
256,192,104942,1,0,0:0:0:0:
256,192,104992,1,2,0:0:0:0:
256,192,105092,1,0,0:0:0:0:
256,192,105192,1,2,0:0:0:0:
256,192,105242,1,2,0:0:0:0:
256,192,105292,1,0,0:0:0:0:
256,192,105325,1,0,0:0:0:0:
256,192,105358,1,0,0:0:0:0:
256,192,105392,1,2,0:0:0:0:
256,192,105492,1,2,0:0:0:0:
256,192,105592,1,2,0:0:0:0:
256,192,105642,1,0,0:0:0:0:
256,192,105692,1,2,0:0:0:0:
256,192,105742,1,0,0:0:0:0:
256,192,105792,1,2,0:0:0:0:
256,192,105842,1,2,0:0:0:0:
256,192,105892,1,0,0:0:0:0:
256,192,105942,1,2,0:0:0:0:
256,192,105992,1,0,0:0:0:0:
256,192,106042,1,0,0:0:0:0:
256,192,106092,1,0,0:0:0:0:
256,192,106142,1,0,0:0:0:0:
256,192,106192,1,2,0:0:0:0:
256,192,106292,1,2,0:0:0:0:
256,192,106342,1,2,0:0:0:0:
256,192,106392,1,0,0:0:0:0:
256,192,106442,1,2,0:0:0:0:
256,192,106492,1,2,0:0:0:0:
256,192,106542,1,2,0:0:0:0:
256,192,106592,1,0,0:0:0:0:
256,192,106642,1,0,0:0:0:0:
256,192,106692,1,2,0:0:0:0:
256,192,106742,1,0,0:0:0:0:
256,192,106792,1,2,0:0:0:0:
256,192,106842,1,2,0:0:0:0:
256,192,106892,1,0,0:0:0:0:
256,192,106942,1,0,0:0:0:0:
256,192,106992,1,2,0:0:0:0:
256,192,107192,1,0,0:0:0:0:
256,192,107242,1,0,0:0:0:0:
256,192,107292,1,0,0:0:0:0:
256,192,107342,1,0,0:0:0:0:
256,192,107392,1,2,0:0:0:0:
256,192,107442,1,2,0:0:0:0:
256,192,107492,1,0,0:0:0:0:
256,192,107542,1,2,0:0:0:0:
256,192,107592,1,0,0:0:0:0:
256,192,107642,1,0,0:0:0:0:
256,192,107692,1,2,0:0:0:0:
256,192,107742,1,0,0:0:0:0:
256,192,107792,1,0,0:0:0:0:
256,192,107842,1,2,0:0:0:0:
256,192,107892,1,2,0:0:0:0:
256,192,107942,1,2,0:0:0:0:
256,192,107992,1,0,0:0:0:0:
256,192,108042,1,2,0:0:0:0:
256,192,108092,1,0,0:0:0:0:
256,192,108142,1,0,0:0:0:0:
256,192,108192,1,2,0:0:0:0:
256,192,108242,1,0,0:0:0:0:
256,192,108292,1,0,0:0:0:0:
256,192,108342,1,2,0:0:0:0:
256,192,108392,1,0,0:0:0:0:
256,192,108442,1,0,0:0:0:0:
256,192,108492,1,0,0:0:0:0:
256,192,108542,1,0,0:0:0:0:
256,192,108592,1,2,0:0:0:0:
256,192,108692,1,0,0:0:0:0:
256,192,108792,1,2,0:0:0:0:
256,192,108842,1,2,0:0:0:0:
256,192,108892,1,2,0:0:0:0:
256,192,108942,1,2,0:0:0:0:
256,192,108992,1,0,0:0:0:0:
256,192,109042,1,0,0:0:0:0:
256,192,109092,1,2,0:0:0:0:
256,192,109142,1,0,0:0:0:0:
256,192,109192,1,2,0:0:0:0:
256,192,109242,1,2,0:0:0:0:
256,192,109292,1,0,0:0:0:0:
256,192,109342,1,2,0:0:0:0:
256,192,109392,1,2,0:0:0:0:
256,192,109442,1,0,0:0:0:0:
256,192,109492,1,0,0:0:0:0:
256,192,109542,1,0,0:0:0:0:
256,192,109592,1,2,0:0:0:0:
256,192,109692,1,0,0:0:0:0:
256,192,109742,1,0,0:0:0:0:
256,192,109792,1,2,0:0:0:0:
256,192,109892,1,0,0:0:0:0:
256,192,109942,1,0,0:0:0:0:
256,192,109992,1,2,0:0:0:0:
256,192,110092,1,0,0:0:0:0:
256,192,110192,1,2,0:0:0:0:
256,192,110225,1,2,0:0:0:0:
256,192,110258,1,2,0:0:0:0:
256,192,110292,1,2,0:0:0:0:
256,192,110392,1,0,0:0:0:0:
256,192,110442,1,2,0:0:0:0:
256,192,110492,1,2,0:0:0:0:
256,192,110542,1,0,0:0:0:0:
256,192,110592,1,2,0:0:0:0:
256,192,110642,1,2,0:0:0:0:
256,192,110692,1,0,0:0:0:0:
256,192,110742,1,2,0:0:0:0:
256,192,110792,1,0,0:0:0:0:
256,192,110842,1,0,0:0:0:0:
256,192,110892,1,2,0:0:0:0:
256,192,110942,1,0,0:0:0:0:
256,192,110992,1,2,0:0:0:0:
256,192,111042,1,2,0:0:0:0:
256,192,111092,1,2,0:0:0:0:
256,192,111142,1,2,0:0:0:0:
256,192,111192,1,0,0:0:0:0:
256,192,111242,1,0,0:0:0:0:
256,192,111292,1,2,0:0:0:0:
256,192,111342,1,0,0:0:0:0:
256,192,111392,1,2,0:0:0:0:
256,192,111442,1,0,0:0:0:0:
256,192,111492,1,0,0:0:0:0:
256,192,111542,1,0,0:0:0:0:
256,192,111592,1,2,0:0:0:0:
256,192,111642,1,2,0:0:0:0:
256,192,111692,1,0,0:0:0:0:
256,192,111742,1,2,0:0:0:0:
256,192,111792,1,0,0:0:0:0:
256,192,111842,1,0,0:0:0:0:
256,192,111892,1,2,0:0:0:0:
256,192,111942,1,2,0:0:0:0:
256,192,111992,1,0,0:0:0:0:
256,192,112992,1,2,0:0:0:0:
256,192,113192,1,2,0:0:0:0:
256,192,113292,1,2,0:0:0:0:
256,192,113392,1,2,0:0:0:0:
256,192,113492,1,2,0:0:0:0:
256,192,113592,5,4,0:0:0:0:
256,192,113792,1,0,0:0:0:0:
256,192,113892,1,2,0:0:0:0:
256,192,113992,1,0,0:0:0:0:
256,192,114042,1,0,0:0:0:0:
256,192,114092,1,2,0:0:0:0:
256,192,114192,1,0,0:0:0:0:
256,192,114292,1,2,0:0:0:0:
256,192,114392,1,0,0:0:0:0:
256,192,114492,1,2,0:0:0:0:
256,192,114542,1,0,0:0:0:0:
256,192,114592,1,2,0:0:0:0:
256,192,114642,1,2,0:0:0:0:
256,192,114692,1,0,0:0:0:0:
256,192,114792,1,2,0:0:0:0:
256,192,114892,1,2,0:0:0:0:
256,192,114992,1,0,0:0:0:0:
256,192,115092,1,0,0:0:0:0:
256,192,115192,1,0,0:0:0:0:
256,192,115292,1,2,0:0:0:0:
256,192,115342,1,2,0:0:0:0:
256,192,115392,1,0,0:0:0:0:
256,192,115492,5,2,0:0:0:0:
256,192,115592,1,0,0:0:0:0:
256,192,115642,1,2,0:0:0:0:
256,192,115692,1,0,0:0:0:0:
256,192,115742,1,0,0:0:0:0:
256,192,115792,1,2,0:0:0:0:
256,192,115892,1,2,0:0:0:0:
256,192,115992,1,0,0:0:0:0:
256,192,116092,1,0,0:0:0:0:
256,192,116142,1,0,0:0:0:0:
256,192,116192,1,2,0:0:0:0:
256,192,116242,1,2,0:0:0:0:
256,192,116292,1,0,0:0:0:0:
256,192,116392,1,2,0:0:0:0:
256,192,116417,1,2,0:0:0:0:
256,192,116592,1,2,0:0:0:0:
256,192,116692,1,2,0:0:0:0:
256,192,116792,1,0,0:0:0:0:
256,192,116892,1,0,0:0:0:0:
256,192,116992,1,0,0:0:0:0:
256,192,117092,1,2,0:0:0:0:
256,192,117192,1,0,0:0:0:0:
256,192,117292,1,0,0:0:0:0:
256,192,117392,1,2,0:0:0:0:
256,192,117492,1,2,0:0:0:0:
256,192,117592,1,0,0:0:0:0:
256,192,117692,1,2,0:0:0:0:
256,192,117792,1,0,0:0:0:0:
256,192,117892,1,0,0:0:0:0:
256,192,117992,1,2,0:0:0:0:
256,192,118092,1,0,0:0:0:0:
256,192,118192,1,2,0:0:0:0:
256,192,118292,1,2,0:0:0:0:
256,192,118392,1,0,0:0:0:0:
256,192,118442,1,0,0:0:0:0:
256,192,118492,1,0,0:0:0:0:
256,192,118542,1,0,0:0:0:0:
256,192,118592,1,2,0:0:0:0:
256,192,118692,1,0,0:0:0:0:
256,192,118792,1,0,0:0:0:0:
256,192,118842,1,0,0:0:0:0:
256,192,118892,1,0,0:0:0:0:
256,192,118942,1,0,0:0:0:0:
256,192,118992,1,2,0:0:0:0:
256,192,119092,1,0,0:0:0:0:
256,192,119192,1,2,0:0:0:0:
256,192,119225,1,2,0:0:0:0:
256,192,119258,1,2,0:0:0:0:
256,192,119292,1,0,0:0:0:0:
256,192,119392,1,2,0:0:0:0:
256,192,119425,1,2,0:0:0:0:
256,192,119458,1,2,0:0:0:0:
256,192,119492,1,0,0:0:0:0:
256,192,119592,1,2,0:0:0:0:
256,192,119625,1,2,0:0:0:0:
256,192,119658,1,2,0:0:0:0:
256,192,119692,1,0,0:0:0:0:
256,192,119792,1,2,0:0:0:0:
256,192,119825,1,2,0:0:0:0:
256,192,119858,1,2,0:0:0:0:
256,192,119892,1,2,0:0:0:0:
