osu file format v14

[General]
AudioFilename: audio.mp3
AudioLeadIn: 0
PreviewTime: 46342
Countdown: 0
SampleSet: Normal
StackLeniency: 0.7
Mode: 2
LetterboxInBreaks: 0
WidescreenStoryboard: 1

[Editor]
Bookmarks: 22392,24397,59192,71992,90197,100792,113592
DistanceSpacing: 1
BeatDivisor: 1
GridSize: 32
TimelineZoom: 1.400006

[Metadata]
Title:LosLosLosLos
TitleUnicode:LosLosLosLos
Artist:96-glass
ArtistUnicode:96-glass
Creator:tasuke912
Version:Flieger
Source:幼女戦記
Tags:Los! Los! Los! youjo senki remix yuuki aoi
BeatmapID:2325528
BeatmapSetID:1113187

[Difficulty]
HPDrainRate:3
CircleSize:2.4
OverallDifficulty:6.2
ApproachRate:6.2
SliderMultiplier:0.600000005960464
SliderTickRate:1

[Events]
//Background and Video events
0,0,"1496496531.jpg",0,0
//Break Periods
//Storyboard Layer 0 (Background)
//Storyboard Layer 1 (Fail)
//Storyboard Layer 2 (Pass)
//Storyboard Layer 3 (Foreground)
//Storyboard Layer 4 (Overlay)
//Storyboard Sound Samples

[TimingPoints]
3200,200,4,1,0,50,1,0
12800,-100,4,1,0,50,0,0
46400,-100,4,1,0,50,0,1
65650,-100,4,1,0,50,0,0
88000,-100,4,1,0,50,0,1
112000,-100,4,1,0,50,0,0

[Colours]
Combo1 : 175,233,223
Combo2 : 226,210,156
Combo3 : 177,210,172

[HitObjects]
384,352,3200,6,0,P|394:233|417:115,1,240.000002384186
128,352,4800,2,0,P|117:233|94:115,1,240.000002384186
363,338,6400,6,0,P|367:278|375:218,1,120.000001192093
243,197,7200,2,0,P|238:137|230:77,1,120.000001192093
364,160,8000,2,0,P|425:150|503:157,2,120.000001192093
232,190,9200,1,0,0:0:0:0:
34,268,9600,6,0,P|46:209|52:149,1,120.000001192093
185,138,10400,2,0,P|172:79|166:19,1,120.000001192093
30,305,11200,2,0,P|89:296|149:296,2,120.000001192093
152,212,12400,1,0,0:0:0:0:
350,313,12800,6,0,L|357:238,2,60.0000005960464
218,140,13600,2,0,L|211:65,2,60.0000005960464
350,57,14400,5,0,0:0:0:0:
404,82,14600,1,0,0:0:0:0:
423,138,14800,1,0,0:0:0:0:
400,193,15000,1,0,0:0:0:0:
344,215,15200,1,0,0:0:0:0:
212,298,15600,2,0,L|205:219,1,60.0000005960464
306,305,16000,6,0,L|462:289,1,120.000001192093
365,290,16600,1,0,0:0:0:0:
305,285,16800,1,0,0:0:0:0:
149,135,17200,2,0,L|142:56,1,60.0000005960464
235,179,17600,6,0,L|229:238,1,60.0000005960464
139,272,18000,2,0,L|133:331,1,60.0000005960464
223,366,18400,2,0,L|238:204,1,120.000001192093
45,160,19200,6,0,L|35:44,1,60.0000005960464
130,81,19600,2,0,L|140:-35,1,60.0000005960464
50,236,20000,2,0,L|40:120,2,60.0000005960464
248,275,20800,6,0,L|258:159,1,60.0000005960464
163,196,21200,2,0,L|153:80,1,60.0000005960464
243,351,21600,2,0,L|253:235,2,60.0000005960464
45,219,22400,5,0,0:0:0:0:
37,159,22600,1,0,0:0:0:0:
56,102,22800,1,0,0:0:0:0:
102,63,23000,1,0,0:0:0:0:
159,47,23200,2,0,L|291:37,1,120.000001192093
467,219,24000,5,0,0:0:0:0:
475,159,24200,1,0,0:0:0:0:
456,102,24400,1,0,0:0:0:0:
410,63,24600,1,0,0:0:0:0:
353,47,24800,2,0,L|240:38,1,90.0000008940696
25,201,25600,6,0,L|18:110,1,60.0000005960464
104,281,26000,2,0,L|111:190,1,60.0000005960464
194,335,26400,2,0,L|203:220,1,90.0000008940696
411,172,27200,6,0,L|418:263,1,60.0000005960464
332,92,27600,2,0,L|325:183,1,60.0000005960464
242,38,28000,2,0,L|233:153,1,90.0000008940696
466,329,28800,6,0,L|472:254,4,60.0000005960464
130,198,30400,2,0,L|124:123,4,60.0000005960464
451,162,32000,6,0,L|456:96,1,60.0000005960464
383,63,32400,2,0,L|317:58,1,60.0000005960464
398,203,32800,2,0,L|473:194,2,60.0000005960464
218,222,33600,6,0,L|213:288,1,60.0000005960464
286,321,34000,2,0,L|352:326,1,60.0000005960464
271,181,34400,2,0,L|196:190,2,60.0000005960464
90,36,35200,5,0,0:0:0:0:
39,69,35400,1,0,0:0:0:0:
26,127,35600,1,0,0:0:0:0:
47,183,35800,1,0,0:0:0:0:
97,214,36000,2,0,L|179:224,2,60.0000005960464
277,147,36800,5,0,0:0:0:0:
328,180,37000,1,0,0:0:0:0:
341,238,37200,1,0,0:0:0:0:
320,294,37400,1,0,0:0:0:0:
270,325,37600,2,0,L|165:338,2,90.0000008940696
360,363,38400,6,0,P|362:304|369:244,1,120.000001192093
237,182,39200,2,0,P|234:122|227:62,1,120.000001192093
359,146,40000,2,0,P|416:127|474:113,3,120.000001192093
276,254,41600,6,0,P|216:250|156:246,1,120.000001192093
288,347,42400,2,0,P|348:343|408:339,1,120.000001192093
210,310,43200,2,0,P|208:250|202:190,1,120.000001192093
335,193,44000,2,0,P|336:133|342:73,1,120.000001192093
143,38,44800,5,0,0:0:0:0:
407,344,46400,6,0,L|414:284,2,60.0000005960464
275,235,47200,2,0,L|267:175,2,60.0000005960464
408,31,48000,5,0,0:0:0:0:
460,59,48200,1,0,0:0:0:0:
472,117,48400,1,0,0:0:0:0:
441,168,48600,1,0,0:0:0:0:
381,177,48800,1,0,0:0:0:0:
213,197,49200,2,0,L|204:279,1,60.0000005960464
290,300,49600,6,0,L|431:286,1,120.000001192093
349,280,50200,1,0,0:0:0:0:
289,273,50400,1,0,0:0:0:0:
108,70,50800,1,0,0:0:0:0:
53,94,51000,1,0,0:0:0:0:
32,150,51200,5,0,0:0:0:0:
50,207,51400,1,0,0:0:0:0:
100,239,51600,2,0,L|202:255,2,60.0000005960464
231,141,52400,1,0,0:0:0:0:
399,242,52800,6,0,L|463:235,2,60.0000005960464
267,309,53600,2,0,L|203:302,2,60.0000005960464
135,360,54400,5,0,0:0:0:0:
79,337,54600,1,0,0:0:0:0:
60,279,54800,1,0,0:0:0:0:
84,224,55000,1,0,0:0:0:0:
140,202,55200,1,0,0:0:0:0:
308,203,55600,2,0,L|319:131,1,60.0000005960464
233,85,56000,6,0,L|92:71,1,120.000001192093
174,65,56600,1,0,0:0:0:0:
234,58,56800,1,0,0:0:0:0:
402,61,57200,1,0,0:0:0:0:
457,85,57400,1,0,0:0:0:0:
478,141,57600,5,0,0:0:0:0:
460,198,57800,1,0,0:0:0:0:
410,230,58000,2,0,L|308:246,1,60.0000005960464
427,258,58400,2,0,L|268:249,1,120.000001192093
86,240,59200,5,0,0:0:0:0:
47,193,59400,1,0,0:0:0:0:
48,133,59600,1,0,0:0:0:0:
91,91,59800,1,0,0:0:0:0:
150,83,60000,1,0,0:0:0:0:
23,24,60400,1,0,0:0:0:0:
203,157,60800,6,0,P|215:94|234:5,1,120.000001192093
284,25,61400,1,0,0:0:0:0:
343,14,61600,1,0,0:0:0:0:
215,197,62000,1,0,0:0:0:0:
413,241,62400,5,0,0:0:0:0:
452,194,62600,1,0,0:0:0:0:
451,134,62800,1,0,0:0:0:0:
408,92,63000,1,0,0:0:0:0:
349,84,63200,1,0,0:0:0:0:
476,25,63600,1,0,0:0:0:0:
309,157,64000,6,0,P|297:94|278:5,1,120.000001192093
94,265,64800,2,0,P|106:202|125:113,1,120.000001192093
315,246,65600,1,0,0:0:0:0:
256,192,66000,12,0,68800,0:0:0:0:
320,299,72000,6,0,P|370:232|311:174,1,180.000001788139
229,172,72800,2,0,L|90:153,1,120.000001192093
231,87,73600,6,0,L|238:14,2,60.0000005960464
351,194,74400,2,0,L|368:53,1,120.000001192093
192,299,75200,6,0,P|142:232|201:174,1,180.000001788139
283,172,76000,2,0,L|422:153,1,120.000001192093
281,87,76800,6,0,L|274:14,2,60.0000005960464
412,56,77600,1,0,0:0:0:0:
115,197,78400,6,0,P|90:155|35:119,2,90.0000008940696
199,264,79200,2,0,P|234:229|296:209,2,90.0000008940696
115,335,80000,2,0,P|64:304|134:229,1,180.000001788139
204,197,80800,2,0,L|283:192,1,60.0000005960464
348,135,81200,2,0,P|349:105|346:75,1,60.0000005960464
268,45,81600,5,0,0:0:0:0:
190,44,81800,2,0,P|126:59|56:34,1,120.000001192093
160,125,82400,1,0,0:0:0:0:
226,155,82600,2,0,P|244:209|211:257,1,120.000001192093
116,302,83200,6,0,L|111:180,1,120.000001192093
244,304,84000,2,0,L|249:182,1,120.000001192093
51,124,84800,1,0,0:0:0:0:
256,192,85200,12,0,87200,0:0:0:0:
105,344,88000,6,0,L|39:337,2,60.0000005960464
237,235,88800,2,0,L|314:227,2,60.0000005960464
104,31,89600,5,0,0:0:0:0:
52,59,89800,1,0,0:0:0:0:
40,117,90000,1,0,0:0:0:0:
71,168,90200,1,0,0:0:0:0:
131,177,90400,1,0,0:0:0:0:
299,197,90800,2,0,L|308:279,1,60.0000005960464
222,300,91200,6,0,L|81:286,1,120.000001192093
163,280,91800,1,0,0:0:0:0:
223,273,92000,1,0,0:0:0:0:
404,70,92400,1,0,0:0:0:0:
459,94,92600,1,0,0:0:0:0:
480,150,92800,5,0,0:0:0:0:
462,207,93000,1,0,0:0:0:0:
412,239,93200,2,0,L|310:255,2,60.0000005960464
281,141,94000,1,0,0:0:0:0:
89,240,94400,6,0,L|80:177,1,60.0000005960464
140,175,94800,1,0,0:0:0:0:
272,119,95200,2,0,L|281:56,1,60.0000005960464
221,54,95600,1,0,0:0:0:0:
377,360,96000,5,0,0:0:0:0:
433,337,96200,1,0,0:0:0:0:
452,279,96400,1,0,0:0:0:0:
428,224,96600,1,0,0:0:0:0:
372,202,96800,1,0,0:0:0:0:
204,203,97200,2,0,L|193:131,1,60.0000005960464
279,85,97600,6,0,L|420:71,1,120.000001192093
338,65,98200,1,0,0:0:0:0:
278,58,98400,1,0,0:0:0:0:
110,61,98800,1,0,0:0:0:0:
55,85,99000,1,0,0:0:0:0:
34,141,99200,5,0,0:0:0:0:
52,198,99400,1,0,0:0:0:0:
102,230,99600,2,0,L|204:246,1,60.0000005960464
85,258,100000,2,0,L|244:249,1,120.000001192093
398,335,100800,5,0,0:0:0:0:
453,312,101000,1,0,0:0:0:0:
471,255,101200,1,0,0:0:0:0:
447,199,101400,1,0,0:0:0:0:
389,182,101600,1,0,0:0:0:0:
257,167,102000,1,0,0:0:0:0:
71,139,102400,6,0,L|64:58,1,60.0000005960464
149,79,102800,2,0,L|156:-2,1,60.0000005960464
65,214,103200,2,0,P|122:196|182:194,1,120.000001192093
362,298,104000,6,0,L|446:290,1,60.0000005960464
339,209,104400,2,0,L|255:201,1,60.0000005960464
368,144,104800,2,0,P|303:153|232:113,1,120.000001192093
74,58,105600,2,0,L|194:41,2,120.000001192093
254,135,106800,2,0,L|336:140,1,60.0000005960464
217,184,107200,5,0,0:0:0:0:
158,214,107400,1,0,0:0:0:0:
141,278,107600,1,0,0:0:0:0:
169,337,107800,1,0,0:0:0:0:
230,362,108000,2,0,L|303:357,3,60.0000005960464
387,364,108800,5,0,0:0:0:0:
445,332,109000,1,0,0:0:0:0:
465,269,109200,1,0,0:0:0:0:
442,207,109400,1,0,0:0:0:0:
380,182,109600,1,0,0:0:0:0:
286,166,109800,2,0,L|279:89,1,60.0000005960464
355,63,110200,1,0,0:0:0:0:
253,22,110400,5,0,0:0:0:0:
191,45,110600,1,0,0:0:0:0:
171,107,110800,1,0,0:0:0:0:
197,167,111000,1,0,0:0:0:0:
258,190,111200,2,0,L|335:189,1,60.0000005960464
233,266,111600,2,0,L|156:265,1,60.0000005960464
71,320,112000,1,0,0:0:0:0:
352,132,113600,6,0,L|422:122,1,60.0000005960464
327,45,114000,2,0,L|261:40,1,60.0000005960464
351,233,114400,2,0,L|362:162,1,60.0000005960464
277,159,114800,1,0,0:0:0:0:
110,219,115200,6,0,L|40:209,1,60.0000005960464
135,132,115600,2,0,L|201:127,1,60.0000005960464
111,320,116000,2,0,L|100:249,1,60.0000005960464
185,246,116400,1,0,0:0:0:0:
382,352,116800,5,0,0:0:0:0:
439,335,117000,1,0,0:0:0:0:
466,281,117200,1,0,0:0:0:0:
441,226,117400,1,0,0:0:0:0:
386,201,117600,1,0,0:0:0:0:
342,160,117800,1,0,0:0:0:0:
327,101,118000,1,0,0:0:0:0:
361,52,118200,1,0,0:0:0:0:
417,32,118400,6,0,P|406:89|386:164,1,120.000001192093
193,137,119200,2,0,L|185:77,3,60.0000005960464
