osu file format v14

[General]
AudioFilename: audio.mp3
AudioLeadIn: 0
PreviewTime: 83408
Countdown: 0
SampleSet: Normal
StackLeniency: 0.7
Mode: 3
LetterboxInBreaks: 0
SpecialStyle: 0
WidescreenStoryboard: 0

[Editor]
DistanceSpacing: 1.4
BeatDivisor: 4
GridSize: 32
TimelineZoom: 2.5

[Metadata]
Title:Blessed (Cut Ver.)
TitleUnicode:Blessed (Cut Ver.)
Artist:96-glass
ArtistUnicode:96-glass
Creator:Vortex-
Version:Heaven
Source:
Tags:Breakcore Psytrance Electronic Instrumental Brainvade miso-nicomi records MISO-011 4k jacks LN
BeatmapID:1787084
BeatmapSetID:855239

[Difficulty]
HPDrainRate:8.3
CircleSize:4
OverallDifficulty:8.2
ApproachRate:5
SliderMultiplier:1.4
SliderTickRate:1

[Events]
//Background and Video events
0,0,"Dj1kgdeVsAAwCYC.png",0,0
//Break Periods
//Storyboard Layer 0 (Background)
//Storyboard Layer 1 (Fail)
//Storyboard Layer 2 (Pass)
//Storyboard Layer 3 (Foreground)
//Storyboard Layer 4 (Overlay)
//Storyboard Sound Samples

[TimingPoints]
40,315.789473684211,4,1,0,25,1,0

[HitObjects]
320,192,42987,5,0,0:0:0:0:
448,192,42987,1,0,0:0:0:0:
192,192,43066,1,0,0:0:0:0:
320,192,43145,1,0,0:0:0:0:
64,192,43224,1,0,0:0:0:0:
320,192,43303,1,0,0:0:0:0:
448,192,43303,1,0,0:0:0:0:
192,192,43382,1,0,0:0:0:0:
320,192,43461,1,0,0:0:0:0:
64,192,43540,1,0,0:0:0:0:
320,192,43618,1,0,0:0:0:0:
448,192,43618,1,0,0:0:0:0:
192,192,43697,1,0,0:0:0:0:
320,192,43776,1,0,0:0:0:0:
64,192,43855,1,0,0:0:0:0:
320,192,43934,1,0,0:0:0:0:
448,192,43934,1,0,0:0:0:0:
192,192,44013,1,0,0:0:0:0:
320,192,44092,1,0,0:0:0:0:
64,192,44171,1,0,0:0:0:0:
320,192,44250,1,0,0:0:0:0:
448,192,44250,1,0,0:0:0:0:
192,192,44329,1,0,0:0:0:0:
320,192,44408,1,0,0:0:0:0:
64,192,44487,1,0,0:0:0:0:
320,192,44566,1,0,0:0:0:0:
448,192,44566,1,0,0:0:0:0:
192,192,44645,1,0,0:0:0:0:
320,192,44724,1,0,0:0:0:0:
64,192,44803,1,0,0:0:0:0:
320,192,44882,1,0,0:0:0:0:
448,192,44882,1,0,0:0:0:0:
192,192,44961,1,0,0:0:0:0:
320,192,45040,1,0,0:0:0:0:
448,192,45040,1,0,0:0:0:0:
192,192,45118,1,0,0:0:0:0:
64,192,45118,1,0,0:0:0:0:
448,192,45197,1,0,0:0:0:0:
192,192,45276,1,0,0:0:0:0:
320,192,45355,1,0,0:0:0:0:
192,192,45434,1,0,0:0:0:0:
64,192,45513,1,0,0:0:0:0:
448,192,45592,1,0,0:0:0:0:
64,192,45671,1,0,0:0:0:0:
448,192,45750,1,0,0:0:0:0:
64,192,45829,1,0,0:0:0:0:
192,192,45829,1,0,0:0:0:0:
320,192,45908,1,0,0:0:0:0:
192,192,45987,1,0,0:0:0:0:
448,192,46066,1,0,0:0:0:0:
192,192,46145,1,0,0:0:0:0:
64,192,46145,1,0,0:0:0:0:
320,192,46224,1,0,0:0:0:0:
192,192,46303,1,0,0:0:0:0:
448,192,46382,1,0,0:0:0:0:
192,192,46461,1,0,0:0:0:0:
64,192,46461,1,0,0:0:0:0:
320,192,46540,1,0,0:0:0:0:
192,192,46618,1,0,0:0:0:0:
448,192,46697,1,0,0:0:0:0:
192,192,46776,1,0,0:0:0:0:
64,192,46776,1,0,0:0:0:0:
320,192,46855,1,0,0:0:0:0:
192,192,46934,1,0,0:0:0:0:
448,192,47013,1,0,0:0:0:0:
320,192,47013,1,0,0:0:0:0:
192,192,47092,1,0,0:0:0:0:
320,192,47250,1,0,0:0:0:0:
448,192,47250,1,0,0:0:0:0:
192,192,47329,1,0,0:0:0:0:
64,192,47408,1,0,0:0:0:0:
448,192,47408,1,0,0:0:0:0:
320,192,47566,128,0,47645:0:0:0:0:
192,192,47586,128,0,47724:0:0:0:0:
64,192,47724,1,0,0:0:0:0:
320,192,47724,1,0,0:0:0:0:
448,192,47803,128,0,47842:0:0:0:0:
64,192,47882,1,0,0:0:0:0:
64,192,47961,1,0,0:0:0:0:
320,192,48040,1,0,0:0:0:0:
448,192,48040,1,0,0:0:0:0:
192,192,48118,1,0,0:0:0:0:
320,192,48197,1,0,0:0:0:0:
64,192,48276,1,0,0:0:0:0:
320,192,48355,128,0,48434:0:0:0:0:
192,192,48434,128,0,48513:0:0:0:0:
320,192,48513,128,0,48592:0:0:0:0:
192,192,48592,128,0,48671:0:0:0:0:
64,192,48671,1,0,0:0:0:0:
448,192,48671,1,0,0:0:0:0:
320,192,48724,1,0,0:0:0:0:
192,192,48776,1,0,0:0:0:0:
64,192,48829,1,0,0:0:0:0:
448,192,48882,1,0,0:0:0:0:
320,192,48934,1,0,0:0:0:0:
192,192,48987,1,0,0:0:0:0:
64,192,49040,1,0,0:0:0:0:
448,192,49092,1,0,0:0:0:0:
320,192,49145,1,0,0:0:0:0:
192,192,49197,1,0,0:0:0:0:
64,192,49250,1,0,0:0:0:0:
448,192,49303,1,0,0:0:0:0:
320,192,49355,1,0,0:0:0:0:
192,192,49408,1,0,0:0:0:0:
320,192,49461,1,0,0:0:0:0:
448,192,49513,1,0,0:0:0:0:
64,192,49566,1,0,0:0:0:0:
192,192,49618,1,0,0:0:0:0:
320,192,49671,1,0,0:0:0:0:
448,192,49724,1,0,0:0:0:0:
64,192,49776,1,0,0:0:0:0:
320,192,49855,1,0,0:0:0:0:
192,192,49934,128,0,50013:0:0:0:0:
320,192,50013,128,0,50066:0:0:0:0:
192,192,50092,128,0,50132:0:0:0:0:
320,192,50171,128,0,50250:0:0:0:0:
448,192,50250,128,0,50290:0:0:0:0:
192,192,50290,128,0,50329:0:0:0:0:
320,192,50329,128,0,50408:0:0:0:0:
64,192,50408,128,0,50487:0:0:0:0:
448,192,50487,128,0,50566:0:0:0:0:
64,192,50566,1,0,0:0:0:0:
192,192,50566,1,0,0:0:0:0:
320,192,50645,1,0,0:0:0:0:
192,192,50724,1,0,0:0:0:0:
64,192,50724,1,0,0:0:0:0:
320,192,50803,1,0,0:0:0:0:
192,192,50882,1,0,0:0:0:0:
64,192,50882,1,0,0:0:0:0:
320,192,50961,1,0,0:0:0:0:
192,192,51040,1,0,0:0:0:0:
448,192,51118,1,0,0:0:0:0:
192,192,51197,1,0,0:0:0:0:
64,192,51197,1,0,0:0:0:0:
320,192,51276,1,0,0:0:0:0:
192,192,51355,1,0,0:0:0:0:
320,192,51434,1,0,0:0:0:0:
192,192,51513,1,0,0:0:0:0:
64,192,51513,1,0,0:0:0:0:
320,192,51592,128,0,51632:0:0:0:0:
64,192,51697,128,0,51750:0:0:0:0:
320,192,51829,1,0,0:0:0:0:
448,192,51829,1,0,0:0:0:0:
192,192,51908,1,0,0:0:0:0:
320,192,51987,1,0,0:0:0:0:
64,192,52066,1,0,0:0:0:0:
192,192,52145,1,0,0:0:0:0:
320,192,52303,1,0,0:0:0:0:
448,192,52303,1,0,0:0:0:0:
192,192,52382,1,0,0:0:0:0:
320,192,52461,1,0,0:0:0:0:
64,192,52540,1,0,0:0:0:0:
192,192,52540,1,0,0:0:0:0:
448,192,52618,1,0,0:0:0:0:
320,192,52697,1,0,0:0:0:0:
448,192,52776,1,0,0:0:0:0:
320,192,52855,1,0,0:0:0:0:
192,192,52934,1,0,0:0:0:0:
64,192,53013,1,0,0:0:0:0:
448,192,53092,1,0,0:0:0:0:
320,192,53092,1,0,0:0:0:0:
192,192,53171,1,0,0:0:0:0:
64,192,53250,1,0,0:0:0:0:
192,192,53329,1,0,0:0:0:0:
320,192,53408,1,0,0:0:0:0:
448,192,53408,1,0,0:0:0:0:
192,192,53487,1,0,0:0:0:0:
64,192,53566,1,0,0:0:0:0:
192,192,53645,1,0,0:0:0:0:
320,192,53724,1,0,0:0:0:0:
448,192,53724,1,0,0:0:0:0:
64,192,53803,1,0,0:0:0:0:
448,192,53882,1,0,0:0:0:0:
64,192,53961,1,0,0:0:0:0:
320,192,54040,128,0,54355:0:0:0:0:
448,192,54059,128,0,54355:0:0:0:0:
64,192,54355,1,0,0:0:0:0:
192,192,54355,1,0,0:0:0:0:
320,192,54434,1,0,0:0:0:0:
448,192,54513,1,0,0:0:0:0:
320,192,54592,1,0,0:0:0:0:
64,192,54671,1,0,0:0:0:0:
192,192,54671,1,0,0:0:0:0:
320,192,54750,1,0,0:0:0:0:
64,192,54829,1,0,0:0:0:0:
192,192,54868,1,0,0:0:0:0:
448,192,54908,1,0,0:0:0:0:
320,192,54947,1,0,0:0:0:0:
192,192,54987,1,0,0:0:0:0:
64,192,55066,1,0,0:0:0:0:
192,192,55145,128,0,55224:0:0:0:0:
448,192,55145,128,0,55224:0:0:0:0:
320,192,55224,1,0,0:0:0:0:
64,192,55303,1,0,0:0:0:0:
192,192,55382,128,0,55461:0:0:0:0:
448,192,55382,128,0,55461:0:0:0:0:
320,192,55461,1,0,0:0:0:0:
64,192,55540,1,0,0:0:0:0:
320,192,55618,1,0,0:0:0:0:
448,192,55618,1,0,0:0:0:0:
192,192,55697,1,0,0:0:0:0:
64,192,55776,1,0,0:0:0:0:
192,192,55855,1,0,0:0:0:0:
320,192,55934,1,0,0:0:0:0:
448,192,55934,1,0,0:0:0:0:
192,192,56013,1,0,0:0:0:0:
64,192,56092,1,0,0:0:0:0:
192,192,56171,1,0,0:0:0:0:
64,192,56250,128,0,56329:0:0:0:0:
448,192,56329,1,0,0:0:0:0:
64,192,56408,128,0,56487:0:0:0:0:
448,192,56487,1,0,0:0:0:0:
64,192,56566,128,0,56724:0:0:0:0:
192,192,56566,128,0,56724:0:0:0:0:
320,192,56724,1,0,0:0:0:0:
448,192,56724,1,0,0:0:0:0:
320,192,56803,1,0,0:0:0:0:
448,192,56803,1,0,0:0:0:0:
64,192,56882,1,0,0:0:0:0:
192,192,56882,1,0,0:0:0:0:
320,192,56961,1,0,0:0:0:0:
448,192,57040,1,0,0:0:0:0:
320,192,57118,1,0,0:0:0:0:
192,192,57197,1,0,0:0:0:0:
64,192,57197,1,0,0:0:0:0:
320,192,57276,1,0,0:0:0:0:
448,192,57355,1,0,0:0:0:0:
320,192,57434,1,0,0:0:0:0:
64,192,57513,1,0,0:0:0:0:
192,192,57592,1,0,0:0:0:0:
320,192,57671,128,0,57750:0:0:0:0:
64,192,57750,1,0,0:0:0:0:
192,192,57829,1,0,0:0:0:0:
320,192,57908,128,0,57987:0:0:0:0:
192,192,57987,1,0,0:0:0:0:
192,192,58066,1,0,0:0:0:0:
320,192,58145,1,0,0:0:0:0:
448,192,58145,1,0,0:0:0:0:
192,192,58224,1,0,0:0:0:0:
64,192,58303,1,0,0:0:0:0:
192,192,58382,1,0,0:0:0:0:
320,192,58461,1,0,0:0:0:0:
448,192,58461,1,0,0:0:0:0:
192,192,58540,1,0,0:0:0:0:
64,192,58618,1,0,0:0:0:0:
192,192,58697,1,0,0:0:0:0:
320,192,58776,1,0,0:0:0:0:
448,192,58776,1,0,0:0:0:0:
192,192,58855,1,0,0:0:0:0:
64,192,58934,1,0,0:0:0:0:
192,192,59013,1,0,0:0:0:0:
320,192,59092,1,0,0:0:0:0:
448,192,59092,1,0,0:0:0:0:
192,192,59171,1,0,0:0:0:0:
64,192,59250,1,0,0:0:0:0:
192,192,59329,1,0,0:0:0:0:
320,192,59408,1,0,0:0:0:0:
448,192,59408,1,0,0:0:0:0:
192,192,59487,1,0,0:0:0:0:
64,192,59566,1,0,0:0:0:0:
192,192,59645,1,0,0:0:0:0:
320,192,59724,1,0,0:0:0:0:
448,192,59724,1,0,0:0:0:0:
192,192,59803,1,0,0:0:0:0:
64,192,59882,1,0,0:0:0:0:
192,192,59961,1,0,0:0:0:0:
320,192,60040,1,0,0:0:0:0:
448,192,60040,128,0,60276:0:0:0:0:
192,192,60118,1,0,0:0:0:0:
64,192,60197,1,0,0:0:0:0:
192,192,60276,1,0,0:0:0:0:
320,192,60355,1,0,0:0:0:0:
448,192,60355,1,0,0:0:0:0:
64,192,60513,1,0,0:0:0:0:
448,192,60513,128,0,60750:0:0:0:0:
320,192,60671,1,0,0:0:0:0:
448,192,60829,128,0,60908:0:0:0:0:
64,192,60908,1,0,0:0:0:0:
448,192,60987,128,0,61066:0:0:0:0:
320,192,60987,1,0,0:0:0:0:
448,192,61145,128,0,61224:0:0:0:0:
64,192,61224,1,0,0:0:0:0:
448,192,61303,128,0,61382:0:0:0:0:
320,192,61303,1,0,0:0:0:0:
64,192,61382,128,0,61461:0:0:0:0:
448,192,61461,128,0,61540:0:0:0:0:
64,192,61540,128,0,61618:0:0:0:0:
448,192,61618,128,0,61697:0:0:0:0:
64,192,61697,128,0,61776:0:0:0:0:
448,192,61776,128,0,61855:0:0:0:0:
64,192,61855,128,0,61934:0:0:0:0:
448,192,61934,128,0,62013:0:0:0:0:
320,192,61974,1,0,0:0:0:0:
192,192,62013,1,0,0:0:0:0:
64,192,62053,1,0,0:0:0:0:
448,192,62092,128,0,62171:0:0:0:0:
192,192,62132,1,0,0:0:0:0:
64,192,62171,128,0,62250:0:0:0:0:
320,192,62250,128,0,62329:0:0:0:0:
64,192,62329,128,0,62408:0:0:0:0:
448,192,62408,128,0,62487:0:0:0:0:
64,192,62487,128,0,62566:0:0:0:0:
192,192,62566,128,0,62724:0:0:0:0:
448,192,62724,128,0,62882:0:0:0:0:
320,192,62724,128,0,62882:0:0:0:0:
64,192,62882,128,0,62961:0:0:0:0:
192,192,62961,128,0,63040:0:0:0:0:
320,192,63040,1,0,0:0:0:0:
448,192,63079,1,0,0:0:0:0:
192,192,63118,1,0,0:0:0:0:
320,192,63158,1,0,0:0:0:0:
448,192,63197,128,0,63250:0:0:0:0:
64,192,63197,128,0,63250:0:0:0:0:
192,192,63276,1,0,0:0:0:0:
320,192,63355,1,0,0:0:0:0:
192,192,63434,1,0,0:0:0:0:
448,192,63513,128,0,63566:0:0:0:0:
64,192,63513,128,0,63566:0:0:0:0:
320,192,63592,1,0,0:0:0:0:
192,192,63671,1,0,0:0:0:0:
320,192,63750,1,0,0:0:0:0:
64,192,63829,128,0,63882:0:0:0:0:
448,192,63829,128,0,63882:0:0:0:0:
192,192,63908,1,0,0:0:0:0:
320,192,63987,1,0,0:0:0:0:
192,192,64066,1,0,0:0:0:0:
64,192,64145,128,0,64197:0:0:0:0:
448,192,64145,128,0,64197:0:0:0:0:
320,192,64224,1,0,0:0:0:0:
192,192,64303,1,0,0:0:0:0:
320,192,64382,1,0,0:0:0:0:
448,192,64461,128,0,64513:0:0:0:0:
64,192,64461,128,0,64513:0:0:0:0:
192,192,64540,1,0,0:0:0:0:
320,192,64618,1,0,0:0:0:0:
64,192,64697,128,0,64750:0:0:0:0:
448,192,64697,128,0,64750:0:0:0:0:
192,192,64776,1,0,0:0:0:0:
320,192,64855,1,0,0:0:0:0:
448,192,64934,128,0,64987:0:0:0:0:
64,192,64934,128,0,64987:0:0:0:0:
192,192,65013,1,0,0:0:0:0:
448,192,65092,1,0,0:0:0:0:
64,192,65092,1,0,0:0:0:0:
320,192,65171,1,0,0:0:0:0:
320,192,65250,1,0,0:0:0:0:
320,192,65329,1,0,0:0:0:0:
64,192,65408,1,0,0:0:0:0:
192,192,65408,1,0,0:0:0:0:
448,192,65487,128,0,65526:0:0:0:0:
64,192,65566,128,0,65605:0:0:0:0:
320,192,65645,128,0,65684:0:0:0:0:
64,192,65724,128,0,65803:0:0:0:0:
448,192,65724,128,0,65803:0:0:0:0:
192,192,65803,128,0,65882:0:0:0:0:
320,192,65803,128,0,65882:0:0:0:0:
64,192,65882,128,0,65961:0:0:0:0:
448,192,65961,128,0,66040:0:0:0:0:
320,192,65961,128,0,66040:0:0:0:0:
64,192,66040,128,0,66118:0:0:0:0:
320,192,66118,1,0,0:0:0:0:
192,192,66197,1,0,0:0:0:0:
320,192,66276,1,0,0:0:0:0:
192,192,66355,1,0,0:0:0:0:
320,192,66434,1,0,0:0:0:0:
192,192,66513,1,0,0:0:0:0:
320,192,66592,1,0,0:0:0:0:
448,192,66592,1,0,0:0:0:0:
192,192,66671,1,0,0:0:0:0:
320,192,66750,1,0,0:0:0:0:
448,192,66750,1,0,0:0:0:0:
64,192,66829,1,0,0:0:0:0:
448,192,66908,1,0,0:0:0:0:
64,192,66987,1,0,0:0:0:0:
320,192,66987,1,0,0:0:0:0:
192,192,67066,1,0,0:0:0:0:
320,192,67105,1,0,0:0:0:0:
64,192,67145,1,0,0:0:0:0:
448,192,67145,1,0,0:0:0:0:
320,192,67224,1,0,0:0:0:0:
192,192,67303,1,0,0:0:0:0:
448,192,67382,1,0,0:0:0:0:
64,192,67382,1,0,0:0:0:0:
192,192,67461,1,0,0:0:0:0:
448,192,67540,1,0,0:0:0:0:
64,192,67540,1,0,0:0:0:0:
320,192,67618,1,0,0:0:0:0:
192,192,67697,1,0,0:0:0:0:
64,192,67776,1,0,0:0:0:0:
448,192,67855,1,0,0:0:0:0:
192,192,67855,1,0,0:0:0:0:
320,192,67934,1,0,0:0:0:0:
192,192,68013,1,0,0:0:0:0:
64,192,68092,1,0,0:0:0:0:
320,192,68171,1,0,0:0:0:0:
64,192,68250,1,0,0:0:0:0:
448,192,68250,1,0,0:0:0:0:
64,192,68329,128,0,68382:0:0:0:0:
448,192,68329,128,0,68382:0:0:0:0:
320,192,68408,128,0,68461:0:0:0:0:
192,192,68408,128,0,68461:0:0:0:0:
64,192,68566,128,0,68618:0:0:0:0:
448,192,68566,128,0,68618:0:0:0:0:
192,192,68645,1,0,0:0:0:0:
320,192,68724,1,0,0:0:0:0:
192,192,68803,1,0,0:0:0:0:
64,192,68882,128,0,68934:0:0:0:0:
448,192,68882,128,0,68934:0:0:0:0:
320,192,68961,1,0,0:0:0:0:
192,192,69040,1,0,0:0:0:0:
320,192,69118,1,0,0:0:0:0:
448,192,69197,128,0,69250:0:0:0:0:
64,192,69197,128,0,69250:0:0:0:0:
192,192,69276,1,0,0:0:0:0:
320,192,69355,1,0,0:0:0:0:
64,192,69434,128,0,69487:0:0:0:0:
448,192,69434,128,0,69487:0:0:0:0:
192,192,69513,1,0,0:0:0:0:
320,192,69592,1,0,0:0:0:0:
192,192,69671,1,0,0:0:0:0:
192,192,69750,1,0,0:0:0:0:
448,192,69829,128,0,69882:0:0:0:0:
64,192,69829,128,0,69882:0:0:0:0:
192,192,69908,1,0,0:0:0:0:
320,192,69987,1,0,0:0:0:0:
192,192,70066,1,0,0:0:0:0:
320,192,70145,1,0,0:0:0:0:
64,192,70224,1,0,0:0:0:0:
448,192,70224,1,0,0:0:0:0:
64,192,70303,128,0,70355:0:0:0:0:
448,192,70303,128,0,70355:0:0:0:0:
320,192,70382,1,0,0:0:0:0:
64,192,70461,1,0,0:0:0:0:
448,192,70540,1,0,0:0:0:0:
448,192,70776,128,0,70934:0:0:0:0:
64,192,70776,128,0,70934:0:0:0:0:
320,192,70855,128,0,71092:0:0:0:0:
192,192,70987,128,0,71092:0:0:0:0:
64,192,71092,128,0,71145:0:0:0:0:
448,192,71092,128,0,71145:0:0:0:0:
192,192,71171,1,0,0:0:0:0:
320,192,71250,1,0,0:0:0:0:
192,192,71329,1,0,0:0:0:0:
320,192,71408,1,0,0:0:0:0:
192,192,71487,1,0,0:0:0:0:
320,192,71566,1,0,0:0:0:0:
192,192,71645,1,0,0:0:0:0:
448,192,71724,128,0,71776:0:0:0:0:
64,192,71724,128,0,71776:0:0:0:0:
320,192,71803,1,0,0:0:0:0:
192,192,71882,1,0,0:0:0:0:
320,192,71961,1,0,0:0:0:0:
64,192,72040,128,0,72092:0:0:0:0:
192,192,72040,128,0,72092:0:0:0:0:
448,192,72118,128,0,72197:0:0:0:0:
192,192,72197,128,0,72250:0:0:0:0:
320,192,72197,128,0,72250:0:0:0:0:
64,192,72276,128,0,72355:0:0:0:0:
320,192,72355,128,0,72408:0:0:0:0:
448,192,72355,128,0,72408:0:0:0:0:
64,192,72434,128,0,72513:0:0:0:0:
320,192,72513,128,0,72566:0:0:0:0:
192,192,72513,128,0,72566:0:0:0:0:
448,192,72592,128,0,72671:0:0:0:0:
64,192,72671,1,0,0:0:0:0:
192,192,72750,1,0,0:0:0:0:
192,192,72829,1,0,0:0:0:0:
64,192,72908,1,0,0:0:0:0:
448,192,72987,128,0,73066:0:0:0:0:
192,192,73066,1,0,0:0:0:0:
448,192,73145,128,0,73224:0:0:0:0:
192,192,73224,1,0,0:0:0:0:
448,192,73303,128,0,73355:0:0:0:0:
64,192,73303,1,0,0:0:0:0:
192,192,73342,1,0,0:0:0:0:
320,192,73382,1,0,0:0:0:0:
448,192,73421,1,0,0:0:0:0:
192,192,73461,1,0,0:0:0:0:
448,192,73540,1,0,0:0:0:0:
64,192,73618,128,0,73671:0:0:0:0:
320,192,73618,1,0,0:0:0:0:
192,192,73697,1,0,0:0:0:0:
320,192,73776,1,0,0:0:0:0:
192,192,73855,1,0,0:0:0:0:
448,192,73934,128,0,73987:0:0:0:0:
64,192,74013,1,0,0:0:0:0:
192,192,74092,1,0,0:0:0:0:
320,192,74171,1,0,0:0:0:0:
64,192,74250,128,0,74303:0:0:0:0:
320,192,74329,1,0,0:0:0:0:
448,192,74349,1,0,0:0:0:0:
64,192,74408,128,0,74461:0:0:0:0:
192,192,74428,1,0,0:0:0:0:
320,192,74487,1,0,0:0:0:0:
448,192,74507,1,0,0:0:0:0:
64,192,74566,128,0,74618:0:0:0:0:
192,192,74586,1,0,0:0:0:0:
320,192,74645,1,0,0:0:0:0:
448,192,74665,1,0,0:0:0:0:
192,192,74724,1,0,0:0:0:0:
320,192,74803,1,0,0:0:0:0:
64,192,74882,128,0,74934:0:0:0:0:
448,192,74961,1,0,0:0:0:0:
192,192,75040,1,0,0:0:0:0:
448,192,75118,128,0,75171:0:0:0:0:
64,192,75118,1,0,0:0:0:0:
320,192,75276,128,0,75454:0:0:0:0:
192,192,75296,128,0,75474:0:0:0:0:
64,192,75316,128,0,75493:0:0:0:0:
448,192,75513,128,0,75566:0:0:0:0:
64,192,75592,128,0,75645:0:0:0:0:
192,192,75592,1,0,0:0:0:0:
448,192,75671,1,0,0:0:0:0:
320,192,75671,1,0,0:0:0:0:
64,192,75750,128,0,75803:0:0:0:0:
448,192,75829,128,0,75882:0:0:0:0:
320,192,75829,1,0,0:0:0:0:
64,192,75908,1,0,0:0:0:0:
192,192,75908,1,0,0:0:0:0:
448,192,75987,1,0,0:0:0:0:
320,192,76013,1,0,0:0:0:0:
64,192,76066,1,0,0:0:0:0:
192,192,76092,1,0,0:0:0:0:
448,192,76145,128,0,76197:0:0:0:0:
320,192,76171,1,0,0:0:0:0:
192,192,76224,1,0,0:0:0:0:
64,192,76263,1,0,0:0:0:0:
448,192,76303,1,0,0:0:0:0:
320,192,76329,1,0,0:0:0:0:
64,192,76382,1,0,0:0:0:0:
192,192,76408,1,0,0:0:0:0:
448,192,76461,128,0,76513:0:0:0:0:
64,192,76540,128,0,76592:0:0:0:0:
448,192,76618,128,0,76671:0:0:0:0:
64,192,76697,128,0,76750:0:0:0:0:
448,192,76776,128,0,76961:0:0:0:0:
320,192,76776,1,0,0:0:0:0:
64,192,76855,1,0,0:0:0:0:
192,192,76855,1,0,0:0:0:0:
320,192,76934,1,0,0:0:0:0:
64,192,77013,1,0,0:0:0:0:
192,192,77013,1,0,0:0:0:0:
320,192,77092,1,0,0:0:0:0:
448,192,77092,128,0,77145:0:0:0:0:
192,192,77250,1,0,0:0:0:0:
448,192,77329,1,0,0:0:0:0:
320,192,77329,1,0,0:0:0:0:
64,192,77408,128,0,77461:0:0:0:0:
320,192,77487,1,0,0:0:0:0:
64,192,77566,128,0,77618:0:0:0:0:
448,192,77645,1,0,0:0:0:0:
64,192,77724,128,0,77776:0:0:0:0:
320,192,77803,1,0,0:0:0:0:
64,192,77882,1,0,0:0:0:0:
320,192,77961,1,0,0:0:0:0:
192,192,78040,1,0,0:0:0:0:
192,192,78118,1,0,0:0:0:0:
448,192,78197,128,0,78250:0:0:0:0:
320,192,78197,1,0,0:0:0:0:
192,192,78276,1,0,0:0:0:0:
64,192,78355,128,0,78408:0:0:0:0:
448,192,78434,1,0,0:0:0:0:
448,192,78513,1,0,0:0:0:0:
192,192,78592,1,0,0:0:0:0:
448,192,78671,128,0,78724:0:0:0:0:
192,192,78750,1,0,0:0:0:0:
448,192,78829,1,0,0:0:0:0:
64,192,78868,1,0,0:0:0:0:
320,192,78908,1,0,0:0:0:0:
192,192,78987,128,0,79066:0:0:0:0:
64,192,78987,128,0,79040:0:0:0:0:
448,192,79066,128,0,79145:0:0:0:0:
64,192,79145,128,0,79224:0:0:0:0:
192,192,79224,128,0,79303:0:0:0:0:
64,192,79303,128,0,79382:0:0:0:0:
448,192,79382,1,0,0:0:0:0:
192,192,79382,1,0,0:0:0:0:
320,192,79461,1,0,0:0:0:0:
448,192,79540,1,0,0:0:0:0:
192,192,79540,1,0,0:0:0:0:
64,192,79618,128,0,79671:0:0:0:0:
320,192,79697,1,0,0:0:0:0:
64,192,79776,1,0,0:0:0:0:
320,192,79855,1,0,0:0:0:0:
448,192,79875,1,0,0:0:0:0:
64,192,79934,128,0,79987:0:0:0:0:
192,192,79954,1,0,0:0:0:0:
320,192,80013,1,0,0:0:0:0:
192,192,80092,1,0,0:0:0:0:
320,192,80171,1,0,0:0:0:0:
448,192,80191,1,0,0:0:0:0:
64,192,80250,128,0,80303:0:0:0:0:
448,192,80329,1,0,0:0:0:0:
192,192,80408,1,0,0:0:0:0:
192,192,80487,1,0,0:0:0:0:
64,192,80566,1,0,0:0:0:0:
448,192,80566,128,0,80618:0:0:0:0:
320,192,80645,1,0,0:0:0:0:
192,192,80684,1,0,0:0:0:0:
448,192,80724,1,0,0:0:0:0:
64,192,80803,1,0,0:0:0:0:
192,192,80803,1,0,0:0:0:0:
448,192,80882,128,0,80934:0:0:0:0:
320,192,80882,1,0,0:0:0:0:
192,192,80961,1,0,0:0:0:0:
448,192,81040,1,0,0:0:0:0:
320,192,81040,1,0,0:0:0:0:
64,192,81118,128,0,81171:0:0:0:0:
192,192,81118,1,0,0:0:0:0:
320,192,81197,1,0,0:0:0:0:
448,192,81217,1,0,0:0:0:0:
64,192,81276,1,0,0:0:0:0:
448,192,81355,128,0,81408:0:0:0:0:
192,192,81434,1,0,0:0:0:0:
320,192,81513,1,0,0:0:0:0:
64,192,81592,128,0,81645:0:0:0:0:
320,192,81671,1,0,0:0:0:0:
64,192,81750,1,0,0:0:0:0:
448,192,81829,128,0,81882:0:0:0:0:
192,192,81908,1,0,0:0:0:0:
64,192,81987,1,0,0:0:0:0:
448,192,82066,128,0,82118:0:0:0:0:
64,192,82145,1,0,0:0:0:0:
192,192,82171,1,0,0:0:0:0:
448,192,82224,1,0,0:0:0:0:
320,192,82250,1,0,0:0:0:0:
64,192,82303,128,0,82355:0:0:0:0:
192,192,82329,1,0,0:0:0:0:
320,192,82382,1,0,0:0:0:0:
448,192,82382,1,0,0:0:0:0:
64,192,82461,1,0,0:0:0:0:
448,192,82540,128,0,82592:0:0:0:0:
64,192,82618,1,0,0:0:0:0:
192,192,82618,1,0,0:0:0:0:
320,192,82697,1,0,0:0:0:0:
448,192,82697,1,0,0:0:0:0:
64,192,82776,128,0,82829:0:0:0:0:
448,192,82855,1,0,0:0:0:0:
64,192,82934,128,0,82987:0:0:0:0:
448,192,83013,1,0,0:0:0:0:
64,192,83092,128,0,83145:0:0:0:0:
448,192,83171,128,0,83224:0:0:0:0:
320,192,83171,128,0,83224:0:0:0:0:
64,192,83250,128,0,83303:0:0:0:0:
192,192,83250,128,0,83303:0:0:0:0:
448,192,83329,128,0,83382:0:0:0:0:
320,192,83329,128,0,83382:0:0:0:0:
64,192,83408,1,0,0:0:0:0:
192,192,83408,1,0,0:0:0:0:
320,192,83487,1,0,0:0:0:0:
192,192,83566,1,0,0:0:0:0:
192,192,83645,1,0,0:0:0:0:
320,192,83724,1,0,0:0:0:0:
448,192,83724,1,0,0:0:0:0:
64,192,83803,1,0,0:0:0:0:
192,192,83882,1,0,0:0:0:0:
320,192,83961,1,0,0:0:0:0:
64,192,84040,1,0,0:0:0:0:
192,192,84040,1,0,0:0:0:0:
320,192,84118,1,0,0:0:0:0:
448,192,84197,1,0,0:0:0:0:
320,192,84237,1,0,0:0:0:0:
192,192,84276,1,0,0:0:0:0:
64,192,84316,1,0,0:0:0:0:
320,192,84355,1,0,0:0:0:0:
448,192,84355,1,0,0:0:0:0:
64,192,84434,1,0,0:0:0:0:
192,192,84474,1,0,0:0:0:0:
320,192,84513,1,0,0:0:0:0:
320,192,84592,1,0,0:0:0:0:
192,192,84671,1,0,0:0:0:0:
64,192,84671,1,0,0:0:0:0:
192,192,84750,1,0,0:0:0:0:
448,192,84829,1,0,0:0:0:0:
448,192,84908,1,0,0:0:0:0:
192,192,84987,1,0,0:0:0:0:
64,192,84987,128,0,85145:0:0:0:0:
320,192,85066,1,0,0:0:0:0:
448,192,85145,1,0,0:0:0:0:
192,192,85224,1,0,0:0:0:0:
320,192,85303,1,0,0:0:0:0:
448,192,85303,1,0,0:0:0:0:
64,192,85382,1,0,0:0:0:0:
320,192,85461,1,0,0:0:0:0:
320,192,85540,1,0,0:0:0:0:
64,192,85618,1,0,0:0:0:0:
192,192,85618,128,0,85697:0:0:0:0:
192,192,85776,128,0,85855:0:0:0:0:
320,192,85934,1,0,0:0:0:0:
448,192,85934,1,0,0:0:0:0:
192,192,86013,1,0,0:0:0:0:
64,192,86092,1,0,0:0:0:0:
320,192,86171,1,0,0:0:0:0:
64,192,86250,1,0,0:0:0:0:
192,192,86250,1,0,0:0:0:0:
448,192,86329,1,0,0:0:0:0:
448,192,86408,1,0,0:0:0:0:
192,192,86487,1,0,0:0:0:0:
320,192,86566,1,0,0:0:0:0:
448,192,86566,1,0,0:0:0:0:
192,192,86645,1,0,0:0:0:0:
320,192,86724,1,0,0:0:0:0:
320,192,86803,1,0,0:0:0:0:
192,192,86882,1,0,0:0:0:0:
64,192,86882,1,0,0:0:0:0:
448,192,86961,1,0,0:0:0:0:
320,192,87040,1,0,0:0:0:0:
192,192,87118,1,0,0:0:0:0:
320,192,87197,1,0,0:0:0:0:
448,192,87197,1,0,0:0:0:0:
192,192,87276,1,0,0:0:0:0:
64,192,87355,1,0,0:0:0:0:
320,192,87434,1,0,0:0:0:0:
192,192,87513,1,0,0:0:0:0:
64,192,87513,1,0,0:0:0:0:
448,192,87592,1,0,0:0:0:0:
192,192,87671,1,0,0:0:0:0:
192,192,87750,1,0,0:0:0:0:
320,192,87829,128,0,88461:0:0:0:0:
192,192,88461,1,0,0:0:0:0:
64,192,88461,1,0,0:0:0:0:
320,192,88540,1,0,0:0:0:0:
448,192,88618,1,0,0:0:0:0:
192,192,88697,1,0,0:0:0:0:
320,192,88776,1,0,0:0:0:0:
448,192,88776,1,0,0:0:0:0:
64,192,88855,1,0,0:0:0:0:
320,192,88934,1,0,0:0:0:0:
320,192,89013,1,0,0:0:0:0:
64,192,89092,1,0,0:0:0:0:
192,192,89092,1,0,0:0:0:0:
320,192,89171,1,0,0:0:0:0:
448,192,89250,1,0,0:0:0:0:
320,192,89290,1,0,0:0:0:0:
192,192,89329,1,0,0:0:0:0:
64,192,89368,1,0,0:0:0:0:
448,192,89408,1,0,0:0:0:0:
192,192,89461,1,0,0:0:0:0:
448,192,89513,1,0,0:0:0:0:
192,192,89566,1,0,0:0:0:0:
320,192,89645,1,0,0:0:0:0:
448,192,89724,1,0,0:0:0:0:
192,192,89763,1,0,0:0:0:0:
64,192,89803,1,0,0:0:0:0:
320,192,89842,1,0,0:0:0:0:
448,192,89882,1,0,0:0:0:0:
192,192,89921,1,0,0:0:0:0:
64,192,89961,1,0,0:0:0:0:
320,192,90000,1,0,0:0:0:0:
192,192,90040,1,0,0:0:0:0:
448,192,90040,1,0,0:0:0:0:
320,192,90118,1,0,0:0:0:0:
64,192,90197,1,0,0:0:0:0:
320,192,90276,1,0,0:0:0:0:
192,192,90355,1,0,0:0:0:0:
64,192,90355,1,0,0:0:0:0:
320,192,90434,1,0,0:0:0:0:
448,192,90513,1,0,0:0:0:0:
192,192,90513,1,0,0:0:0:0:
64,192,90592,1,0,0:0:0:0:
320,192,90671,128,0,90829:0:0:0:0:
64,192,90987,1,0,0:0:0:0:
192,192,90987,1,0,0:0:0:0:
320,192,91066,1,0,0:0:0:0:
64,192,91145,1,0,0:0:0:0:
192,192,91145,1,0,0:0:0:0:
320,192,91224,1,0,0:0:0:0:
64,192,91303,1,0,0:0:0:0:
448,192,91303,1,0,0:0:0:0:
192,192,91382,1,0,0:0:0:0:
320,192,91461,1,0,0:0:0:0:
64,192,91540,1,0,0:0:0:0:
448,192,91540,1,0,0:0:0:0:
192,192,91618,1,0,0:0:0:0:
320,192,91697,1,0,0:0:0:0:
448,192,91776,1,0,0:0:0:0:
64,192,91776,1,0,0:0:0:0:
192,192,91855,1,0,0:0:0:0:
320,192,91934,128,0,92092:0:0:0:0:
448,192,91961,128,0,92066:0:0:0:0:
64,192,92092,128,0,92250:0:0:0:0:
320,192,92250,1,0,0:0:0:0:
448,192,92250,1,0,0:0:0:0:
192,192,92329,1,0,0:0:0:0:
64,192,92408,1,0,0:0:0:0:
320,192,92487,1,0,0:0:0:0:
192,192,92566,128,0,92645:0:0:0:0:
64,192,92566,128,0,92645:0:0:0:0:
320,192,92645,128,0,92684:0:0:0:0:
448,192,92645,128,0,92684:0:0:0:0:
192,192,92724,128,0,92776:0:0:0:0:
64,192,92724,128,0,92776:0:0:0:0:
320,192,92803,128,0,92882:0:0:0:0:
448,192,92803,128,0,92882:0:0:0:0:
192,192,92882,128,0,93040:0:0:0:0:
64,192,92882,128,0,93040:0:0:0:0:
448,192,93040,128,0,93118:0:0:0:0:
192,192,93118,1,0,0:0:0:0:
64,192,93118,1,0,0:0:0:0:
320,192,93197,1,0,0:0:0:0:
192,192,93276,1,0,0:0:0:0:
320,192,93355,128,0,93513:0:0:0:0:
64,192,93355,128,0,93434:0:0:0:0:
64,192,93513,1,0,0:0:0:0:
192,192,93513,1,0,0:0:0:0:
320,192,93592,1,0,0:0:0:0:
192,192,93671,1,0,0:0:0:0:
192,192,93750,1,0,0:0:0:0:
448,192,93829,1,0,0:0:0:0:
320,192,93829,1,0,0:0:0:0:
192,192,93908,1,0,0:0:0:0:
64,192,93987,1,0,0:0:0:0:
320,192,94066,1,0,0:0:0:0:
192,192,94145,1,0,0:0:0:0:
64,192,94145,1,0,0:0:0:0:
320,192,94224,1,0,0:0:0:0:
448,192,94303,1,0,0:0:0:0:
320,192,94342,1,0,0:0:0:0:
192,192,94382,1,0,0:0:0:0:
64,192,94421,1,0,0:0:0:0:
320,192,94461,1,0,0:0:0:0:
448,192,94461,1,0,0:0:0:0:
192,192,94540,1,0,0:0:0:0:
64,192,94618,1,0,0:0:0:0:
192,192,94658,1,0,0:0:0:0:
320,192,94697,1,0,0:0:0:0:
192,192,94776,1,0,0:0:0:0:
64,192,94776,1,0,0:0:0:0:
320,192,94855,1,0,0:0:0:0:
192,192,94934,1,0,0:0:0:0:
64,192,94934,1,0,0:0:0:0:
448,192,95013,1,0,0:0:0:0:
320,192,95092,1,0,0:0:0:0:
64,192,95171,1,0,0:0:0:0:
192,192,95171,1,0,0:0:0:0:
192,192,95250,1,0,0:0:0:0:
192,192,95329,1,0,0:0:0:0:
320,192,95408,1,0,0:0:0:0:
448,192,95408,1,0,0:0:0:0:
320,192,95487,1,0,0:0:0:0:
320,192,95566,1,0,0:0:0:0:
192,192,95645,1,0,0:0:0:0:
320,192,95724,1,0,0:0:0:0:
448,192,95724,1,0,0:0:0:0:
192,192,95803,1,0,0:0:0:0:
64,192,95882,1,0,0:0:0:0:
64,192,95961,1,0,0:0:0:0:
320,192,96040,1,0,0:0:0:0:
448,192,96040,1,0,0:0:0:0:
64,192,96118,128,0,96171:0:0:0:0:
192,192,96197,128,0,96250:0:0:0:0:
320,192,96276,1,0,0:0:0:0:
64,192,96355,1,0,0:0:0:0:
192,192,96355,128,0,96408:0:0:0:0:
320,192,96434,128,0,96487:0:0:0:0:
448,192,96513,1,0,0:0:0:0:
192,192,96592,128,0,96645:0:0:0:0:
320,192,96671,1,0,0:0:0:0:
448,192,96671,128,0,96724:0:0:0:0:
64,192,96750,1,0,0:0:0:0:
192,192,96829,128,0,96882:0:0:0:0:
320,192,96908,128,0,96961:0:0:0:0:
192,192,96987,1,0,0:0:0:0:
64,192,96987,1,0,0:0:0:0:
320,192,97066,128,0,97118:0:0:0:0:
448,192,97145,128,0,97197:0:0:0:0:
192,192,97224,128,0,97276:0:0:0:0:
320,192,97303,1,0,0:0:0:0:
448,192,97303,1,0,0:0:0:0:
192,192,97382,1,0,0:0:0:0:
448,192,97461,128,0,97540:0:0:0:0:
320,192,97540,128,0,97618:0:0:0:0:
64,192,97618,1,0,0:0:0:0:
192,192,97618,128,0,97697:0:0:0:0:
320,192,97697,128,0,97776:0:0:0:0:
192,192,97776,128,0,97855:0:0:0:0:
64,192,97855,128,0,97934:0:0:0:0:
320,192,97934,1,0,0:0:0:0:
448,192,97934,1,0,0:0:0:0:
192,192,98013,1,0,0:0:0:0:
64,192,98092,1,0,0:0:0:0:
320,192,98171,1,0,0:0:0:0:
192,192,98250,1,0,0:0:0:0:
64,192,98250,1,0,0:0:0:0:
448,192,98329,1,0,0:0:0:0:
320,192,98408,1,0,0:0:0:0:
192,192,98487,1,0,0:0:0:0:
64,192,98566,1,0,0:0:0:0:
448,192,102355,1,0,0:0:0:0:
320,192,102395,1,0,0:0:0:0:
192,192,102434,1,0,0:0:0:0:
320,192,102513,1,0,0:0:0:0:
192,192,102592,1,0,0:0:0:0:
320,192,102671,1,0,0:0:0:0:
192,192,102750,1,0,0:0:0:0:
320,192,102829,1,0,0:0:0:0:
192,192,102908,1,0,0:0:0:0:
320,192,102987,128,0,103066:0:0:0:0:
192,192,103066,128,0,103145:0:0:0:0:
320,192,103145,128,0,103224:0:0:0:0:
192,192,103224,128,0,103303:0:0:0:0:
64,192,103618,1,0,0:0:0:0:
192,192,103618,1,0,0:0:0:0:
448,192,103618,1,0,0:0:0:0:
320,192,103697,1,0,0:0:0:0:
64,192,103776,1,0,0:0:0:0:
192,192,103776,1,0,0:0:0:0:
448,192,103776,1,0,0:0:0:0:
320,192,103855,1,0,0:0:0:0:
64,192,103934,1,0,0:0:0:0:
320,192,104013,1,0,0:0:0:0:
64,192,104092,1,0,0:0:0:0:
448,192,104171,1,0,0:0:0:0:
192,192,104250,1,0,0:0:0:0:
64,192,104250,1,0,0:0:0:0:
320,192,104329,1,0,0:0:0:0:
448,192,104408,1,0,0:0:0:0:
64,192,104487,1,0,0:0:0:0:
192,192,104487,1,0,0:0:0:0:
64,192,104566,1,0,0:0:0:0:
192,192,104566,1,0,0:0:0:0:
320,192,104645,1,0,0:0:0:0:
448,192,104645,1,0,0:0:0:0:
64,192,104724,1,0,0:0:0:0:
448,192,104803,1,0,0:0:0:0:
192,192,104882,1,0,0:0:0:0:
64,192,104882,1,0,0:0:0:0:
320,192,104961,1,0,0:0:0:0:
448,192,105040,1,0,0:0:0:0:
64,192,105118,1,0,0:0:0:0:
192,192,105197,1,0,0:0:0:0:
320,192,105276,1,0,0:0:0:0:
320,192,105355,1,0,0:0:0:0:
192,192,105434,1,0,0:0:0:0:
320,192,105513,1,0,0:0:0:0:
320,192,105592,1,0,0:0:0:0:
448,192,105671,1,0,0:0:0:0:
192,192,105671,1,0,0:0:0:0:
320,192,105750,128,0,105829:0:0:0:0:
64,192,105750,128,0,105829:0:0:0:0:
192,192,105829,1,0,0:0:0:0:
192,192,105908,1,0,0:0:0:0:
320,192,105987,128,0,106066:0:0:0:0:
64,192,105987,128,0,106066:0:0:0:0:
448,192,106066,128,0,106145:0:0:0:0:
64,192,106145,128,0,106224:0:0:0:0:
192,192,106145,128,0,106303:0:0:0:0:
320,192,106303,1,0,0:0:0:0:
448,192,106322,1,0,0:0:0:0:
192,192,106382,1,0,0:0:0:0:
64,192,106401,1,0,0:0:0:0:
320,192,106461,1,0,0:0:0:0:
448,192,106461,1,0,0:0:0:0:
192,192,106540,1,0,0:0:0:0:
64,192,106566,1,0,0:0:0:0:
448,192,106618,1,0,0:0:0:0:
192,192,106697,1,0,0:0:0:0:
64,192,106737,1,0,0:0:0:0:
320,192,106776,1,0,0:0:0:0:
448,192,106776,1,0,0:0:0:0:
192,192,106855,1,0,0:0:0:0:
64,192,106934,1,0,0:0:0:0:
320,192,107013,1,0,0:0:0:0:
192,192,107092,1,0,0:0:0:0:
64,192,107092,1,0,0:0:0:0:
64,192,107197,1,0,0:0:0:0:
192,192,107197,1,0,0:0:0:0:
192,192,107303,1,0,0:0:0:0:
64,192,107303,1,0,0:0:0:0:
320,192,107408,1,0,0:0:0:0:
448,192,107408,1,0,0:0:0:0:
320,192,107487,1,0,0:0:0:0:
64,192,107566,1,0,0:0:0:0:
448,192,107645,1,0,0:0:0:0:
192,192,107724,128,0,107803:0:0:0:0:
64,192,107803,1,0,0:0:0:0:
448,192,107882,1,0,0:0:0:0:
192,192,107961,128,0,108040:0:0:0:0:
64,192,108040,1,0,0:0:0:0:
448,192,108118,1,0,0:0:0:0:
192,192,108197,1,0,0:0:0:0:
64,192,108276,1,0,0:0:0:0:
320,192,108355,1,0,0:0:0:0:
448,192,108355,1,0,0:0:0:0:
320,192,108434,1,0,0:0:0:0:
448,192,108434,1,0,0:0:0:0:
192,192,108513,1,0,0:0:0:0:
64,192,108513,1,0,0:0:0:0:
64,192,108592,1,0,0:0:0:0:
192,192,108592,1,0,0:0:0:0:
320,192,108671,1,0,0:0:0:0:
448,192,108671,1,0,0:0:0:0:
320,192,108750,1,0,0:0:0:0:
448,192,108829,1,0,0:0:0:0:
64,192,108908,1,0,0:0:0:0:
320,192,108987,128,0,109026:0:0:0:0:
448,192,109007,128,0,109046:0:0:0:0:
64,192,109145,1,0,0:0:0:0:
448,192,109224,1,0,0:0:0:0:
192,192,109303,1,0,0:0:0:0:
64,192,109303,1,0,0:0:0:0:
320,192,109382,1,0,0:0:0:0:
192,192,109461,1,0,0:0:0:0:
320,192,109540,1,0,0:0:0:0:
448,192,109618,1,0,0:0:0:0:
192,192,109618,128,0,109697:0:0:0:0:
320,192,109697,1,0,0:0:0:0:
64,192,109776,128,0,109855:0:0:0:0:
448,192,109855,128,0,109934:0:0:0:0:
192,192,109934,1,0,0:0:0:0:
64,192,109934,1,0,0:0:0:0:
320,192,110013,1,0,0:0:0:0:
448,192,110013,1,0,0:0:0:0:
64,192,110092,1,0,0:0:0:0:
448,192,110171,1,0,0:0:0:0:
320,192,110250,1,0,0:0:0:0:
320,192,110329,1,0,0:0:0:0:
64,192,110408,1,0,0:0:0:0:
64,192,110487,1,0,0:0:0:0:
320,192,110566,1,0,0:0:0:0:
448,192,110566,1,0,0:0:0:0:
192,192,110645,1,0,0:0:0:0:
448,192,110724,1,0,0:0:0:0:
64,192,110803,1,0,0:0:0:0:
448,192,110882,1,0,0:0:0:0:
64,192,110961,1,0,0:0:0:0:
192,192,111040,1,0,0:0:0:0:
448,192,111040,1,0,0:0:0:0:
192,192,111118,1,0,0:0:0:0:
448,192,111118,1,0,0:0:0:0:
320,192,111197,128,0,111276:0:0:0:0:
64,192,111276,128,0,111355:0:0:0:0:
320,192,111355,128,0,111434:0:0:0:0:
448,192,111355,128,0,111434:0:0:0:0:
192,192,111434,128,0,111513:0:0:0:0:
64,192,111434,128,0,111513:0:0:0:0:
320,192,111513,1,0,0:0:0:0:
448,192,111513,1,0,0:0:0:0:
320,192,111618,1,0,0:0:0:0:
448,192,111618,1,0,0:0:0:0:
320,192,111724,1,0,0:0:0:0:
448,192,111724,1,0,0:0:0:0:
192,192,111829,1,0,0:0:0:0:
64,192,111829,1,0,0:0:0:0:
320,192,111908,1,0,0:0:0:0:
448,192,111987,1,0,0:0:0:0:
192,192,112040,1,0,0:0:0:0:
64,192,112040,1,0,0:0:0:0:
320,192,112145,1,0,0:0:0:0:
448,192,112145,1,0,0:0:0:0:
64,192,112250,1,0,0:0:0:0:
192,192,112250,1,0,0:0:0:0:
320,192,112303,1,0,0:0:0:0:
448,192,112303,1,0,0:0:0:0:
192,192,112355,1,0,0:0:0:0:
64,192,112355,1,0,0:0:0:0:
320,192,112461,1,0,0:0:0:0:
448,192,112461,1,0,0:0:0:0:
192,192,112540,1,0,0:0:0:0:
64,192,112618,1,0,0:0:0:0:
320,192,112697,1,0,0:0:0:0:
192,192,112776,1,0,0:0:0:0:
64,192,112776,1,0,0:0:0:0:
448,192,112855,1,0,0:0:0:0:
320,192,112934,1,0,0:0:0:0:
192,192,113013,1,0,0:0:0:0:
320,192,113092,1,0,0:0:0:0:
448,192,113092,1,0,0:0:0:0:
192,192,113171,1,0,0:0:0:0:
64,192,113250,1,0,0:0:0:0:
448,192,113329,1,0,0:0:0:0:
320,192,113408,1,0,0:0:0:0:
192,192,113487,1,0,0:0:0:0:
64,192,113566,1,0,0:0:0:0:
192,192,113645,1,0,0:0:0:0:
320,192,113724,1,0,0:0:0:0:
448,192,113724,1,0,0:0:0:0:
64,192,113882,1,0,0:0:0:0:
192,192,113921,1,0,0:0:0:0:
320,192,113961,1,0,0:0:0:0:
448,192,114000,1,0,0:0:0:0:
64,192,114040,1,0,0:0:0:0:
320,192,114197,128,0,114316:0:0:0:0:
192,192,114197,128,0,114237:0:0:0:0:
448,192,114197,128,0,114237:0:0:0:0:
64,192,114355,1,0,0:0:0:0:
192,192,114355,1,0,0:0:0:0:
320,192,114434,1,0,0:0:0:0:
448,192,114513,1,0,0:0:0:0:
64,192,114592,1,0,0:0:0:0:
320,192,114592,1,0,0:0:0:0:
192,192,114671,1,0,0:0:0:0:
192,192,114750,1,0,0:0:0:0:
448,192,114829,1,0,0:0:0:0:
64,192,114908,1,0,0:0:0:0:
320,192,114987,1,0,0:0:0:0:
448,192,114987,1,0,0:0:0:0:
192,192,115066,1,0,0:0:0:0:
64,192,115145,1,0,0:0:0:0:
320,192,115224,1,0,0:0:0:0:
448,192,115224,1,0,0:0:0:0:
192,192,115303,128,0,115382:0:0:0:0:
64,192,115461,128,0,115618:0:0:0:0:
192,192,115461,128,0,115697:0:0:0:0:
320,192,115776,1,0,0:0:0:0:
448,192,115776,1,0,0:0:0:0:
64,192,115776,1,0,0:0:0:0:
192,192,115776,1,0,0:0:0:0:
448,192,115934,1,0,0:0:0:0:
192,192,115934,1,0,0:0:0:0:
320,192,116013,128,0,116092:0:0:0:0:
64,192,116250,1,0,0:0:0:0:
64,192,116329,1,0,0:0:0:0:
320,192,116408,1,0,0:0:0:0:
448,192,116408,1,0,0:0:0:0:
64,192,116487,1,0,0:0:0:0:
320,192,116566,1,0,0:0:0:0:
448,192,116566,1,0,0:0:0:0:
192,192,116645,1,0,0:0:0:0:
448,192,116724,1,0,0:0:0:0:
64,192,116803,1,0,0:0:0:0:
320,192,116882,1,0,0:0:0:0:
448,192,116882,1,0,0:0:0:0:
192,192,116961,1,0,0:0:0:0:
448,192,117040,1,0,0:0:0:0:
64,192,117040,1,0,0:0:0:0:
448,192,117197,1,0,0:0:0:0:
448,192,117276,1,0,0:0:0:0:
192,192,117355,1,0,0:0:0:0:
64,192,117434,1,0,0:0:0:0:
448,192,117513,1,0,0:0:0:0:
320,192,117566,1,0,0:0:0:0:
192,192,117618,1,0,0:0:0:0:
64,192,117671,1,0,0:0:0:0:
448,192,117724,1,0,0:0:0:0:
320,192,117776,1,0,0:0:0:0:
64,192,117829,1,0,0:0:0:0:
320,192,117987,1,0,0:0:0:0:
64,192,118066,1,0,0:0:0:0:
448,192,118224,1,0,0:0:0:0:
64,192,118303,1,0,0:0:0:0:
64,192,118461,1,0,0:0:0:0:
192,192,118618,1,0,0:0:0:0:
64,192,118697,1,0,0:0:0:0:
320,192,118776,1,0,0:0:0:0:
