osu file format v14

[General]
AudioFilename: audio.mp3
AudioLeadIn: 0
PreviewTime: 136593
Countdown: 0
SampleSet: None
StackLeniency: 0.4
Mode: 0
LetterboxInBreaks: 0
WidescreenStoryboard: 0

[Editor]
DistanceSpacing: 1.5
BeatDivisor: 8
GridSize: 32
TimelineZoom: 1.4

[Metadata]
Title:Mousou Kanshou Daishou Renmei
TitleUnicode:妄想感傷代償連盟
Artist:96 neko & AMATSUKI
ArtistUnicode:96猫 & 天月
Creator:jimmy55555
Version:Insane
Source:
Tags:DECO*27 初音 ミク miku
BeatmapID:1804509
BeatmapSetID:862667

[Difficulty]
HPDrainRate:5
CircleSize:4
OverallDifficulty:8
ApproachRate:9
SliderMultiplier:2
SliderTickRate:1

[Events]
//Background and Video events
Video,0,"妄想感傷代償連盟.avi"
0,0,"3.png",0,0
//Break Periods
2,28656,35765
//Storyboard Layer 0 (Background)
//Storyboard Layer 1 (Fail)
//Storyboard Layer 2 (Pass)
//Storyboard Layer 3 (Foreground)
//Storyboard Sound Samples

[TimingPoints]
2275,545.454545454546,4,2,4,60,1,0
2275,-100,4,2,4,60,0,0
11002,-90.9090909090909,4,2,4,60,0,0
17547,-100,4,2,4,60,0,0
19729,-90.9090909090909,4,2,4,60,0,0
26275,-100,4,2,4,60,0,0
37184,-86.9565217391304,4,2,4,60,0,0
43729,-95.2380952380952,4,2,4,60,0,0
45911,-83.3333333333333,4,2,4,60,0,0
52456,-90.9090909090909,4,2,4,60,0,0
54638,-80,4,2,4,60,0,0
60365,-74.0740740740741,4,3,1,85,0,0
61184,-66.6666666666667,4,3,1,90,0,1
78570,-66.6666666666667,4,3,1,90,0,0
78638,-66.6666666666667,4,3,1,90,0,1
96093,-100,4,3,1,100,0,0
113547,-86.9565217391304,4,3,1,100,0,0
120093,-95.2380952380952,4,3,1,100,0,0
122275,-83.3333333333333,4,3,1,100,0,0
131002,-80,4,3,1,100,0,0
136729,-74.0740740740741,4,3,1,100,0,0
137547,-66.6666666666667,4,3,1,100,0,1
172456,-90.9090909090909,4,3,1,100,0,0
176820,-80,4,3,1,100,0,0
181184,-111.111111111111,4,3,1,100,0,0
189911,-95.2380952380952,4,3,1,100,0,0
198638,-66.6666666666667,4,3,1,100,0,1
233547,-100,4,3,1,100,0,0

[Colours]
Combo1 : 243,54,83
Combo2 : 43,138,255

[HitObjects]
122,172,2275,6,0,L|141:284,1,100
187,63,2820,1,8,0:0:0:0:
326,186,3093,1,0,0:0:0:0:
358,199,3229,1,0,0:0:0:0:
390,212,3365,6,0,L|370:99,1,100
325,321,3910,1,8,0:0:0:0:
390,212,4184,1,0,0:0:0:0:
249,264,4456,6,0,L|136:244,1,100
358,199,5001,1,8,0:0:0:0:
216,105,5274,1,0,0:0:0:0:
203,73,5410,1,0,0:0:0:0:
190,41,5547,6,0,L|302:60,1,100
81,106,6093,1,8,0:0:0:0:
190,41,6365,1,0,0:0:0:0:
171,188,6638,6,0,L|190:299,1,100
311,138,7184,1,8,0:0:0:0:
171,188,7456,1,0,0:0:0:0:
139,175,7593,1,0,0:0:0:0:
107,162,7729,6,0,L|89:63,1,100
40,265,8275,1,8,0:0:0:0:
107,162,8547,1,0,0:0:0:0:
188,286,8820,6,0,L|299:266,1,100
107,162,9365,1,8,0:0:0:0:
188,286,9638,1,0,0:0:0:0:
175,318,9775,1,0,0:0:0:0:
162,350,9911,5,0,0:0:0:0:
107,162,10184,1,0,0:0:0:0:
295,107,10456,1,0,0:0:0:0:
350,295,10729,1,0,0:0:0:0:
107,162,11002,5,2,0:0:0:0:
350,295,11275,1,0,0:0:0:0:
175,273,11547,2,0,L|120:273,1,55.0000016784668,8|0,0:0|0:0,0:0:0:0:
257,239,11820,2,0,L|202:239,1,55.0000016784668
120,150,12093,6,0,L|175:150,1,55.0000016784668,2|0,0:0|0:0,0:0:0:0:
38,116,12366,2,0,L|93:116,1,55.0000016784668,2|0,0:0|0:0,0:0:0:0:
268,63,12638,2,0,L|323:63,1,55.0000016784668,8|0,0:0|0:0,0:0:0:0:
427,241,13047,1,0,0:0:0:0:
454,275,13184,6,0,L|454:330,1,55.0000016784668,2|0,0:0|0:0,0:0:0:0:
427,186,13456,2,0,L|427:241,1,55.0000016784668
349,99,13729,6,0,L|404:99,1,55.0000016784668,8|0,0:0|0:0,0:0:0:0:
260,126,14001,2,0,L|315:126,1,55.0000016784668
171,153,14275,1,2,0:0:0:0:
349,99,14547,1,2,0:0:0:0:
82,180,14820,2,0,L|137:180,1,55.0000016784668,8|0,0:0|0:0,0:0:0:0:
322,215,15229,1,0,0:0:0:0:
349,181,15366,6,0,L|349:95,1,82.5000025177003,2|0,0:0|0:0,0:0:0:0:
322,64,15638,1,0,0:0:0:0:
405,33,15775,2,0,L|460:33,1,55.0000016784668,0|8,0:0|0:0,0:0:0:0:
322,64,16320,1,0,0:0:0:0:
295,98,16457,6,0,L|295:183,1,82.5000025177003,2|0,0:0|0:0,0:0:0:0:
322,215,16729,1,0,0:0:0:0:
253,263,16866,2,0,L|198:263,1,55.0000016784668,0|8,0:0|0:0,0:0:0:0:
63,356,17411,1,0,0:0:0:0:
36,322,17548,6,0,L|36:237,1,75,2|0,0:0|0:0,0:0:0:0:
83,225,17820,2,0,L|83:140,1,75
46,119,18093,2,0,L|46:44,1,75,8|0,0:0|0:0,0:0:0:0:
94,73,18365,2,0,L|149:73,1,50
262,131,18638,2,0,L|317:131,1,50,2|0,0:0|0:0,0:0:0:0:
178,102,18911,2,0,L|233:102,1,50,2|0,0:0|0:0,0:0:0:0:
346,160,19184,1,8,0:0:0:0:
307,320,19593,1,0,0:0:0:0:
281,293,19729,5,2,0:0:0:0:
412,236,20002,1,0,0:0:0:0:
412,236,20138,2,0,L|467:236,1,55.0000016784668,0|8,0:0|0:0,0:0:0:0:
346,160,20411,1,0,0:0:0:0:
346,160,20547,2,0,L|291:160,1,55.0000016784668
117,233,20820,6,0,L|172:233,1,55.0000016784668,2|0,0:0|0:0,0:0:0:0:
35,199,21093,2,0,L|90:199,1,55.0000016784668,2|0,0:0|0:0,0:0:0:0:
199,267,21365,2,0,L|199:322,1,55.0000016784668,8|0,0:0|0:0,0:0:0:0:
264,194,21774,1,0,0:0:0:0:
291,160,21911,6,0,L|291:105,1,55.0000016784668,2|0,0:0|0:0,0:0:0:0:
374,236,22184,1,0,0:0:0:0:
374,236,22320,2,0,L|374:294,1,55.0000016784668,0|8,0:0|0:0,0:0:0:0:
408,145,22593,2,0,L|408:200,2,55.0000016784668
293,33,23002,2,0,L|348:33,1,55.0000016784668,2|0,0:0|0:0,0:0:0:0:
211,67,23275,2,0,L|266:67,1,55.0000016784668,2|0,0:0|0:0,0:0:0:0:
129,101,23547,2,0,L|184:101,1,55.0000016784668,8|0,0:0|0:0,0:0:0:0:
347,325,23956,1,0,0:0:0:0:
374,291,24093,6,0,L|374:205,1,82.5000025177003,2|0,0:0|0:0,0:0:0:0:
347,174,24365,1,0,0:0:0:0:
430,143,24502,2,0,L|485:143,1,55.0000016784668,0|8,0:0|0:0,0:0:0:0:
347,174,25047,1,0,0:0:0:0:
320,208,25184,6,0,L|320:293,1,82.5000025177003,2|0,0:0|0:0,0:0:0:0:
347,325,25456,1,0,0:0:0:0:
278,373,25593,2,0,L|223:373,1,55.0000016784668,0|8,0:0|0:0,0:0:0:0:
31,174,26138,1,0,0:0:0:0:
220,202,26274,6,0,L|275:202,1,55.0000016784668,2|0,0:0|0:0,0:0:0:0:
131,175,26547,2,0,L|186:175,1,50
310,105,26820,2,0,L|255:105,1,50,8|0,0:0|0:0,0:0:0:0:
399,78,27093,2,0,L|349:78,1,50
512,11,27366,2,0,L|512:66,1,50,2|0,0:0|0:0,0:0:0:0:
391,199,27638,2,0,L|466:199,1,75,2|0,0:0|0:0,0:0:0:0:
508,172,27911,1,8,0:0:0:0:
310,105,28184,1,0,0:0:0:0:
349,226,28456,5,2,0:0:0:0:
395,204,36365,5,0,0:0:0:0:
195,263,36637,1,0,0:0:0:0:
136,63,36910,1,0,0:0:0:0:
395,204,37183,5,2,0:0:0:0:
195,263,37456,2,0,L|136:263,2,57.5000010967255,0|0|8,0:0|0:0|0:0,0:0:0:0:
77,177,37865,1,0,0:0:0:0:
77,177,38001,2,0,L|136:177,1,57.5000010967255
219,88,38274,6,0,L|161:88,1,57.5000010967255,2|0,0:0|0:0,0:0:0:0:
305,127,38547,2,0,L|247:127,1,57.5000010967255,2|0,0:0|0:0,0:0:0:0:
358,25,38820,1,8,0:0:0:0:
358,25,38956,2,0,L|481:25,1,115.000002193451
415,157,39365,6,0,L|415:215,1,57.5000010967255,2|0,0:2|0:2,0:2:0:0:
386,62,39638,2,0,L|386:120,1,57.5000010967255,0|0,0:2|0:2,0:2:0:0:
227,198,39910,6,0,L|169:198,1,57.5000010967255,8|0,0:2|0:2,0:2:0:0:
321,227,40184,2,0,L|263:227,1,57.5000010967255,0|0,0:2|0:2,0:2:0:0:
395,302,40456,2,0,L|453:302,1,57.5000010967255,2|0,0:2|0:2,0:2:0:0:
301,331,40730,2,0,L|359:331,1,57.5000010967255,2|0,0:2|0:2,0:2:0:0:
207,302,41002,1,8,0:0:0:0:
207,302,41138,2,0,L|86:302,1,115.000002193451,0|0,0:2|0:2,0:2:0:0:
185,184,41548,6,0,L|185:94,1,86.2500016450882,2|0,0:0|0:0,0:0:0:0:
156,62,41820,1,0,0:0:0:0:
243,30,41957,2,0,L|300:30,1,57.5000010967255,0|8,0:0|0:0,0:0:0:0:
156,62,42502,1,0,0:0:0:0:
128,98,42639,6,0,L|128:186,1,86.2500016450882,2|0,0:0|0:0,0:0:0:0:
156,220,42911,1,0,0:0:0:0:
84,270,43048,2,0,L|27:270,1,57.5000010967255,0|8,0:0|0:0,0:0:0:0:
222,310,43592,1,0,0:0:0:0:
261,278,43729,6,0,L|319:278,1,52.4999983978272,2|0,0:0|0:0,0:0:0:0:
169,310,44002,2,0,L|227:310,1,52.4999983978272
72,252,44275,2,0,L|72:310,2,52.4999983978272,8|0|0,0:0|0:0|0:0,0:0:0:0:
179,164,44684,1,0,0:0:0:0:
179,164,44820,2,0,L|237:164,1,52.4999983978272,2|0,0:0|0:0,0:0:0:0:
333,98,45093,1,2,0:0:0:0:
333,98,45229,1,0,0:0:0:0:
314,206,45365,1,8,0:0:0:0:
52,98,45911,5,2,0:0:0:0:
237,21,46184,1,0,0:0:0:0:
314,206,46456,2,0,L|314:265,1,59.9999981689454,8|0,0:0|0:0,0:0:0:0:
279,118,46729,2,0,L|279:177,1,59.9999981689454
237,21,47002,5,2,0:0:0:0:
171,233,47275,1,2,0:0:0:0:
171,233,47411,1,0,0:0:0:0:
115,152,47547,1,8,0:0:0:0:
115,152,47684,2,0,L|115:29,1,119.999996337891
256,97,48093,5,2,0:0:0:0:
136,270,48365,2,0,L|75:270,1,59.9999981689454,0|0,0:2|0:2,0:2:0:0:
231,233,48638,2,0,L|171:233,1,59.9999981689454,8|0,0:2|0:2,0:2:0:0:
326,196,48911,1,0,0:0:0:0:
326,196,49047,1,0,0:0:0:0:
266,270,49184,6,0,L|327:270,1,59.9999981689454,2|0,0:2|0:2,0:2:0:0:
171,233,49457,2,0,L|231:233,1,59.9999981689454,2|0,0:2|0:2,0:2:0:0:
76,270,49729,1,8,0:0:0:0:
76,270,49865,2,0,L|76:146,1,119.999996337891,0|0,0:2|0:2,0:2:0:0:
199,198,50275,6,0,L|288:198,1,89.9999972534181,2|0,0:0|0:0,0:0:0:0:
321,227,50547,1,0,0:0:0:0:
358,137,50684,2,0,L|358:76,1,59.9999981689454,0|8,0:0|0:0,0:0:0:0:
321,227,51229,1,0,0:0:0:0:
285,255,51366,6,0,L|196:255,1,89.9999972534181,2|0,0:0|0:0,0:0:0:0:
163,227,51638,1,0,0:0:0:0:
106,304,51775,2,0,L|106:363,1,59.9999981689454,0|8,0:0|0:0,0:0:0:0:
270,124,52320,1,0,0:0:0:0:
311,154,52457,6,0,L|369:154,1,55.0000016784668,2|0,0:0|0:0,0:0:0:0:
215,124,52730,2,0,L|273:124,1,55.0000016784668
133,195,53002,2,0,L|75:195,1,55.0000016784668,8|0,0:0|0:0,0:0:0:0:
229,225,53275,2,0,L|171:225,1,55.0000016784668
145,326,53547,5,2,0:0:0:0:
145,326,53684,1,0,0:0:0:0:
231,359,53820,2,0,L|321:359,1,82.5000025177003,2|0,0:0|0:0,0:0:0:0:
344,321,54093,1,8,0:0:0:0:
207,136,54365,1,0,0:0:0:0:
207,136,54502,1,0,0:0:0:0:
303,74,54638,6,0,P|368:66|440:99,1,125,2|0,0:0|0:0,0:0:0:0:
209,310,55184,2,0,P|144:318|72:285,1,125,8|8,0:0|0:0,0:0:0:0:
163,189,55593,1,2,0:0:0:0:
236,276,55729,6,0,P|301:272|366:227,1,125,8|0,0:0|0:0,0:0:0:0:
141,66,56275,2,0,P|107:55|67:62,1,62.5,8|0,0:0|0:0,0:0:0:0:
239,72,56547,6,0,P|294:39|359:38,1,125
147,186,57093,2,0,P|112:174|88:149,1,62.5
301,128,57365,2,0,P|330:147|346:175,1,62.5,8|0,0:0|0:0,0:0:0:0:
239,72,57638,2,0,P|273:71|303:84,1,62.5
147,186,57911,5,8,0:0:0:0:
338,356,58184,2,0,P|309:376|277:382,1,62.5
411,317,58457,2,0,P|399:350|376:373,1,62.5,8|0,0:0|0:0,0:0:0:0:
498,222,58729,2,0,P|510:254|507:287,1,62.5
383,103,59002,6,0,P|424:57|488:35,1,125,10|0,0:0|0:0,0:0:0:0:
132,61,59547,1,10,0:0:0:0:
286,309,59820,2,0,P|295:345|287:384,1,62.5
159,246,60093,1,10,0:0:0:0:
383,103,60365,6,0,L|518:114,2,135.000000514984,0|0|0,0:2|0:2|0:2,0:2:0:0:
159,246,61184,6,0,L|71:237,1,75.0000028610231,6|0,0:2|0:2,0:2:0:0:
352,137,61456,2,0,L|440:146,1,75.0000028610231,0|0,0:2|0:2,0:2:0:0:
202,95,61729,6,0,L|211:7,1,75.0000028610231,10|0,0:2|0:2,0:2:0:0:
311,288,62001,2,0,L|302:376,1,75.0000028610231,0|0,0:2|0:2,0:2:0:0:
178,112,62275,6,0,L|164:24,1,75.0000028610231,2|0,0:2|0:2,0:2:0:0:
333,270,62547,2,0,L|348:357,1,75.0000028610231,0|0,0:2|0:2,0:2:0:0:
256,192,62820,6,0,P|287:154|329:141,1,75.0000028610231,10|0,0:2|0:2,0:2:0:0:
311,288,63093,2,0,P|280:326|238:339,1,75.0000028610231,0|0,0:2|0:2,0:2:0:0:
304,29,63365,6,0,P|352:36|384:66,1,75.0000028610231,2|0,0:2|0:2,0:2:0:0:
178,112,63638,2,0,P|129:104|97:74,1,75.0000028610231,0|0,0:2|0:2,0:2:0:0:
381,202,63911,6,0,P|349:240|308:253,1,75.0000028610231,10|0,0:2|0:2,0:2:0:0:
372,51,64184,2,0,P|403:12|445:0,1,75.0000028610231,0|0,0:2|0:2,0:2:0:0:
178,112,64456,6,0,P|160:66|170:23,1,75.0000028610231,2|0,0:2|0:2,0:2:0:0:
258,166,64729,1,0,0:2:0:0:
103,164,64865,1,0,0:2:0:0:
263,70,65002,6,0,P|304:81|336:111,1,75.0000028610231,10|0,0:2|0:2,0:2:0:0:
98,260,65275,2,0,P|57:249|10:190,1,112.500004291535,0|0,0:2|0:2,0:2:0:0:
7,153,65547,5,2,0:2:0:0:
386,285,65820,2,0,L|370:374,1,75.0000028610231,0|0,0:2|0:2,0:2:0:0:
184,225,66093,2,0,L|199:314,1,75.0000028610231,10|0,0:2|0:2,0:2:0:0:
435,187,66365,2,0,L|419:276,1,75.0000028610231,0|0,0:2|0:2,0:2:0:0:
355,56,66638,6,0,P|386:34|446:34,1,75.0000028610231,2|0,0:2|0:2,0:2:0:0:
258,129,66911,2,0,P|222:115|164:131,1,75.0000028610231,0|0,0:2|0:2,0:2:0:0:
435,187,67184,2,0,P|472:183|524:213,1,75.0000028610231,10|0,0:2|0:2,0:2:0:0:
197,298,67456,2,0,P|160:307|121:353,1,75.0000028610231,0|0,0:2|0:2,0:2:0:0:
354,199,67729,6,0,P|390:208|429:254,1,75.0000028610231,2|0,0:2|0:2,0:2:0:0:
258,129,68002,2,0,P|219:128|170:163,1,75.0000028610231,0|0,0:2|0:2,0:2:0:0:
439,19,68275,2,0,P|475:8|532:29,1,75.0000028610231,10|0,0:2|0:2,0:2:0:0:
308,41,68547,2,0,P|273:24|214:35,1,75.0000028610231,0|0,0:2|0:2,0:2:0:0:
354,199,68820,6,0,P|411:143|491:124,1,150.000005722046,2|0,0:2|0:2,0:2:0:0:
104,74,69365,1,10,0:2:0:0:
396,332,69638,2,0,P|436:312|468:258,1,75.0000028610231,0|0,0:2|0:2,0:2:0:0:
202,289,69911,6,0,L|211:377,1,75.0000028610231,2|0,0:2|0:2,0:2:0:0:
311,96,70183,2,0,L|302:8,1,75.0000028610231,0|0,0:2|0:2,0:2:0:0:
172,264,70456,6,0,L|150:350,1,75.0000028610231,10|0,0:2|0:2,0:2:0:0:
340,120,70728,2,0,L|362:34,1,75.0000028610231,0|0,0:2|0:2,0:2:0:0:
152,231,71002,6,0,L|102:304,1,75.0000028610231,2|0,0:2|0:2,0:2:0:0:
359,153,71274,2,0,L|409:80,1,75.0000028610231,0|0,0:2|0:2,0:2:0:0:
152,231,71547,6,0,P|183:269|225:282,1,75.0000028610231,10|0,0:2|0:2,0:2:0:0:
209,90,71820,2,0,P|178:52|136:39,1,75.0000028610231,0|0,0:2|0:2,0:2:0:0:
201,377,72092,6,0,P|249:370|281:340,1,75.0000028610231,2|0,0:2|0:2,0:2:0:0:
75,294,72365,2,0,P|26:302|-6:332,1,75.0000028610231,0|0,0:2|0:2,0:2:0:0:
209,90,72638,6,0,P|177:52|136:39,1,75.0000028610231,10|0,0:2|0:2,0:2:0:0:
206,193,72911,1,0,0:2:0:0:
301,70,73047,1,0,0:2:0:0:
119,139,73184,6,0,P|102:185|111:227,1,75.0000028610231,2|0,0:2|0:2,0:2:0:0:
209,90,73456,1,0,0:2:0:0:
54,69,73592,1,0,0:2:0:0:
206,193,73729,6,0,P|254:184|286:155,1,75.0000028610231,10|0,0:2|0:2,0:2:0:0:
135,324,74002,2,0,P|105:354|31:367,1,112.500004291535,0|0,0:2|0:2,0:2:0:0:
0,352,74274,5,2,0:2:0:0:
324,310,74547,2,0,L|308:399,1,75.0000028610231,0|0,0:2|0:2,0:2:0:0:
400,189,74820,2,0,L|415:278,1,75.0000028610231,10|0,0:2|0:2,0:2:0:0:
443,25,75092,2,0,L|488:103,1,75.0000028610231,0|0,0:2|0:2,0:2:0:0:
270,32,75365,6,0,P|301:10|361:10,1,75.0000028610231,2|0,0:2|0:2,0:2:0:0:
400,189,75638,2,0,P|436:203|494:187,1,75.0000028610231,0|0,0:2|0:2,0:2:0:0:
220,86,75911,2,0,P|253:69|312:79,1,75.0000028610231,10|0,0:2|0:2,0:2:0:0:
44,243,76183,2,0,P|70:270|129:281,1,75.0000028610231,0|0,0:2|0:2,0:2:0:0:
360,208,76456,6,0,P|357:245|318:291,1,75.0000028610231,2|0,0:2|0:2,0:2:0:0:
225,128,76729,2,0,P|186:133|144:176,1,75.0000028610231,0|0,0:2|0:2,0:2:0:0:
440,42,77002,2,0,P|476:50|515:97,1,75.0000028610231,10|0,0:2|0:2,0:2:0:0:
308,66,77274,2,0,P|280:38|221:28,1,75.0000028610231,0|0,0:2|0:2,0:2:0:0:
360,208,77547,6,0,P|416:151|435:71,1,150.000005722046,2|0,0:2|0:2,0:2:0:0:
38,29,78092,1,8,0:2:0:0:
309,303,78365,2,0,P|352:313|411:292,1,75.0000028610231,0|0,0:2|0:2,0:2:0:0:
216,238,78638,5,6,0:2:0:0:
243,371,78775,1,0,0:2:0:0:
216,238,78911,1,0,0:2:0:0:
243,371,79048,1,0,0:2:0:0:
142,186,79184,2,0,P|62:173|-11:209,1,150.000005722046,10|0,0:2|0:0,0:0:0:0:
296,146,79729,5,2,0:2:0:0:
273,35,79866,1,0,0:2:0:0:
296,146,80002,1,0,0:2:0:0:
273,35,80139,1,0,0:2:0:0:
370,198,80275,2,0,P|450:211|523:175,1,150.000005722046,10|0,0:2|0:0,0:0:0:0:
273,35,80820,5,2,0:2:0:0:
448,328,81093,2,0,P|380:361|298:350,1,150.000005722046,0|10,0:0|0:2,0:0:0:0:
177,208,81502,2,0,P|213:182|272:182,1,75.0000028610231
246,271,81775,1,0,0:0:0:0:
176,169,81911,6,0,P|116:137|12:160,1,150.000005722046,2|0,0:2|0:0,0:0:0:0:
337,42,82456,2,0,P|393:4|499:18,1,150.000005722046,10|0,0:2|0:0,0:0:0:0:
139,136,83001,5,2,0:2:0:0:
39,45,83138,1,0,0:2:0:0:
139,136,83274,1,0,0:2:0:0:
39,45,83411,1,0,0:2:0:0:
230,135,83547,2,0,P|302:98|340:26,1,150.000005722046,10|0,0:2|0:0,0:0:0:0:
373,248,84093,5,2,0:2:0:0:
457,324,84230,1,0,0:2:0:0:
373,248,84366,1,0,0:2:0:0:
457,324,84503,1,0,0:2:0:0:
282,249,84639,2,0,P|209:285|171:357,1,150.000005722046,10|0,0:2|0:0,0:0:0:0:
274,147,85184,6,0,P|306:165|361:164,1,75.0000028610231,2|0,0:2|0:2,0:2:0:0:
238,237,85456,2,0,P|206:219|151:220,1,75.0000028610231,0|0,0:2|0:2,0:2:0:0:
230,135,85729,2,0,P|265:126|305:88,1,75.0000028610231,10|0,0:2|0:2,0:2:0:0:
282,249,86002,2,0,P|246:257|206:295,1,75.0000028610231,0|0,0:2|0:2,0:2:0:0:
184,138,86275,6,0,P|225:52|216:-3,1,150.000005722046,2|0,0:2|0:2,0:2:0:0:
76,218,86820,2,0,P|84:253|122:293,1,75.0000028610231,10|0,0:2|0:2,0:2:0:0:
57,133,87093,2,0,P|37:164|36:219,1,75.0000028610231,0|0,0:2|0:2,0:2:0:0:
184,138,87365,5,2,0:2:0:0:
99,30,87502,1,0,0:2:0:0:
184,138,87638,1,0,0:2:0:0:
99,30,87775,1,0,0:2:0:0:
176,227,87911,2,0,P|134:296|60:329,1,150.000005722046,10|0,0:2|0:0,0:0:0:0:
328,246,88456,5,2,0:2:0:0:
399,336,88593,1,0,0:2:0:0:
328,246,88729,1,0,0:2:0:0:
399,336,88866,1,0,0:2:0:0:
336,157,89002,2,0,P|377:87|451:54,1,150.000005722046,10|0,0:2|0:0,0:0:0:0:
399,336,89547,5,2,0:2:0:0:
141,246,89820,2,0,P|70:271|20:338,1,150.000005722046,0|10,0:0|0:2,0:0:0:0:
202,318,90229,2,0,P|229:282|231:223,1,75.0000028610231
141,246,90502,1,0,0:0:0:0:
244,331,90638,6,0,P|307:305|356:211,1,150.000005722046,2|0,0:2|0:0,0:0:0:0:
72,51,91184,2,0,P|30:104|34:210,1,150.000005722046,10|0,0:2|0:0,0:0:0:0:
204,265,91729,5,2,0:2:0:0:
71,293,91866,1,0,0:2:0:0:
204,265,92002,1,0,0:2:0:0:
71,293,92139,1,0,0:2:0:0:
256,192,92275,2,0,P|269:112|233:39,1,150.000005722046,10|0,0:2|0:0,0:0:0:0:
308,119,92820,5,2,0:2:0:0:
419,96,92957,1,0,0:2:0:0:
308,119,93093,1,0,0:2:0:0:
419,96,93230,1,0,0:2:0:0:
256,192,93365,2,0,P|243:272|279:345,1,150.000005722046,10|0,0:2|0:0,0:0:0:0:
308,119,93911,5,2,0:2:0:0:
294,275,94047,1,8,0:2:0:0:
165,184,94184,1,8,0:2:0:0:
308,119,94320,1,8,0:2:0:0:
256,192,94456,1,2,0:2:0:0:
256,192,94729,1,8,0:2:0:0:
112,258,94866,1,8,0:2:0:0:
165,183,95002,5,2,0:2:0:0:
151,339,95138,1,8,0:2:0:0:
23,249,95275,1,8,0:2:0:0:
165,183,95411,1,8,0:2:0:0:
112,258,95547,1,2,0:2:0:0:
