osu file format v14

[General]
AudioFilename: audio.mp3
AudioLeadIn: 0
PreviewTime: 11209
Countdown: 0
SampleSet: Soft
StackLeniency: 0.7
Mode: 0
LetterboxInBreaks: 0
WidescreenStoryboard: 0

[Editor]
DistanceSpacing: 0.7
BeatDivisor: 8
GridSize: 16
TimelineZoom: 1.7

[Metadata]
Title:Elmo freestyle (Sped up ver.)
TitleUnicode:Elmo freestyle (Sped up ver.)
Artist:912djsupastar
ArtistUnicode:912djsupastar
Creator:Alphabet
Version:#oceangang
Source:
Tags:joey trap sesame street english rap explicit fursum venax bloggle
BeatmapID:2008173
BeatmapSetID:959185

[Difficulty]
HPDrainRate:6.9
CircleSize:4.2
OverallDifficulty:8.7
ApproachRate:9.2
SliderMultiplier:3.13
SliderTickRate:1

[Events]
//Background and Video events
0,0,"erlmo.jpg",0,0
//Break Periods
//Storyboard Layer 0 (Background)
//Storyboard Layer 1 (Fail)
//Storyboard Layer 2 (Pass)
//Storyboard Layer 3 (Foreground)
//Storyboard Sound Samples

[TimingPoints]
83,709.018718094158,4,2,1,30,1,0
83,-100,4,2,1,30,0,0
2892,681.818181818182,4,2,1,30,1,0
2892,-100,4,2,1,30,0,0
5619,695.857905815632,4,2,1,30,1,0
5619,-100,4,2,1,30,0,0
7706,814.614200418724,4,2,1,30,1,0
7706,-100,4,2,1,30,0,0
8481,681.701982616599,4,2,1,30,1,0
8481,-208.333333333333,4,2,1,30,0,0
11207,684.618895481515,4,2,1,50,1,0
11207,-80,4,2,1,50,0,0
17368,-166.666666666667,4,2,1,50,0,0
17710,-66.6666666666667,4,2,1,50,0,0
18053,-80,4,2,1,50,0,0
33799,-80,4,2,1,40,0,0
34484,-80,4,2,1,30,0,0
35168,-80,4,2,1,20,0,0
35853,-80,4,2,1,10,0,0

[Colours]
Combo1 : 128,0,0
Combo2 : 254,217,139
Combo3 : 128,41,0
Combo4 : 255,96,96

[HitObjects]
67,177,260,5,2,0:0:0:0:
146,36,437,1,2,0:0:0:0:
7,84,614,1,2,0:0:0:0:
213,144,792,2,0,B|131:119|145:208|37:168,1,156.5,2|0,0:0|0:0,0:0:0:0:
411,364,1501,6,0,P|396:336|399:277,1,78.25,0|2,0:0|0:0,0:0:0:0:
496,180,1855,1,2,0:0:0:0:
473,313,2032,1,2,0:0:0:0:
401,137,2210,1,2,0:0:0:0:
317,257,2387,1,2,0:0:0:0:
256,54,2564,5,2,0:0:0:0:
277,184,2741,1,2,0:0:0:0:
140,197,2892,6,0,P|103:194|54:165,1,78.25,4|2,0:3|0:0,0:0:0:0:
167,113,3232,1,2,0:0:0:0:
195,269,3403,1,2,0:0:0:0:
255,56,3573,2,0,B|338:50|309:125|401:126,1,156.5,2|0,0:0|0:0,0:0:0:0:
439,317,4255,6,0,P|386:306|344:306,1,78.25,0|2,0:0|0:0,0:0:0:0:
207,317,4596,1,2,0:0:0:0:
318,376,4767,1,2,0:0:0:0:
245,232,4937,1,2,0:0:0:0:
66,283,5107,1,2,0:0:0:0:
58,116,5278,5,2,0:0:0:0:
222,145,5448,1,2,0:0:0:0:
336,13,5619,6,0,P|330:72|341:113,1,78.25,4|2,0:3|0:0,0:0:0:0:
404,227,5966,1,2,0:0:0:0:
459,130,6140,1,2,0:0:0:0:
295,208,6314,2,0,B|225:183|214:259|138:226,1,156.5,10|0,0:0|0:0,0:0:0:0:
82,186,6836,1,0,0:0:0:0:
134,339,7010,5,2,0:0:0:0:
66,171,7184,2,0,P|61:113|75:67,1,78.25,10|2,0:0|0:0,0:0:0:0:
173,17,7532,1,2,0:0:0:0:
274,93,7706,6,0,P|306:101|359:90,1,78.25,10|2,0:0|0:0,0:0:0:0:
391,257,8113,5,2,0:0:0:0:
474,154,8316,1,2,0:0:0:0:
480,314,8481,6,0,B|419:352|345:325|345:325|281:271|275:170|347:112|442:167|425:247|368:275,1,450.720011003907,0|8,0:0|0:0,0:0:0:0:
116,327,11207,6,0,P|71:323|15:288,1,97.8125,6|0,2:3|0:0,0:0:0:0:
168,196,11549,2,0,P|210:172|258:167,1,97.8125,2|0,0:0|0:0,0:0:0:0:
393,249,11806,1,0,0:0:0:0:
399,258,11891,2,0,B|325:234|335:310|242:273,1,146.71875,10|0,0:0|0:0,0:0:0:0:
246,273,12233,1,2,0:0:0:0:
449,325,12405,1,2,0:0:0:0:
226,361,12576,5,2,0:0:0:0:
425,185,12747,1,10,0:0:0:0:
218,370,12918,6,0,P|247:373|274:363,1,48.90625,2|0,0:0|0:0,0:0:0:0:
433,178,13089,2,0,P|409:172|385:175,1,48.90625,2|0,0:0|0:0,0:0:0:0:
235,281,13260,6,0,P|218:214|263:89,1,195.625,10|2,0:0|0:0,0:0:0:0:
357,11,13774,1,2,0:0:0:0:
204,4,13945,5,4,0:3:0:0:
419,66,14116,1,2,0:0:0:0:
256,97,14287,2,0,P|184:96|154:84,1,97.8125,2|0,0:0|0:0,0:0:0:0:
66,16,14544,1,0,0:0:0:0:
57,7,14630,2,0,P|63:61|65:121,1,97.8125,10|2,0:0|0:0,0:0:0:0:
0,347,14972,2,0,P|0:295|8:233,1,97.8125,2|2,0:0|0:0,0:0:0:0:
29,183,15229,1,0,0:0:0:0:
35,174,15314,5,2,0:0:0:0:
195,294,15485,1,10,0:0:0:0:
195,294,15571,1,0,0:0:0:0:
195,294,15657,2,0,P|221:301|252:301,1,48.90625,2|0,0:0|0:0,0:0:0:0:
336,148,15828,2,0,P|312:141|288:140,1,48.90625,2|0,0:0|0:0,0:0:0:0:
115,337,15999,6,0,P|180:330|307:388,1,195.625,10|2,0:0|0:0,0:0:0:0:
446,16,16683,5,4,0:3:0:0:
336,148,16855,1,2,0:0:0:0:
499,116,17026,1,2,0:0:0:0:
345,41,17197,1,2,0:0:0:0:
339,36,17282,1,0,0:0:0:0:
331,29,17368,6,0,P|293:28|245:35,1,70.4249978507996,10|0,0:0|0:0,0:0:0:0:
194,143,17710,6,0,P|231:174|226:128,1,117.375004477501,2|0,0:0|0:0,0:0:0:0:
183,22,17967,1,0,0:0:0:0:
173,15,18053,2,0,P|139:16|69:49,1,97.8125,2|8,0:0|0:0,0:0:0:0:
7,93,18309,1,0,0:0:0:0:
17,86,18395,2,0,P|51:87|121:120,1,97.8125,2|0,0:0|0:0,0:0:0:0:
47,366,18737,2,0,P|11:290|43:179,1,195.625,10|2,0:0|0:0,0:0:0:0:
186,108,19251,1,2,0:0:0:0:
267,293,19422,5,4,0:3:0:0:
134,227,19593,1,2,0:0:0:0:
324,193,19764,1,2,0:0:0:0:
183,332,19935,1,0,0:0:0:0:
181,323,20021,1,0,0:0:0:0:
180,315,20107,5,10,0:0:0:0:
242,157,20278,1,2,0:0:0:0:
361,309,20449,1,2,0:0:0:0:
330,96,20620,1,2,0:0:0:0:
327,86,20706,1,0,0:0:0:0:
326,77,20791,6,0,P|360:77|386:82,1,48.90625,2|0,0:0|0:0,0:0:0:0:
464,217,20962,2,0,P|430:217|404:212,1,48.90625,8|0,0:0|0:0,0:0:0:0:
233,147,21133,2,0,P|206:150|179:160,1,48.90625,2|0,0:0|0:0,0:0:0:0:
109,311,21305,2,0,P|132:318|156:320,1,48.90625
45,132,21476,6,0,L|42:88,6,32.6041666666667,10|0|0|0|0|0|2,0:0|0:0|0:0|0:0|0:0|0:0|0:0,0:0:0:0:
132,30,21989,1,0,0:0:0:0:
176,220,22160,5,6,0:3:0:0:
275,111,22332,1,2,0:0:0:0:
253,340,22503,2,0,P|246:278|253:228,1,97.8125,2|0,0:0|0:0,0:0:0:0:
255,231,22759,1,0,0:0:0:0:
264,222,22845,1,10,0:0:0:0:
396,302,23016,1,2,0:0:0:0:
497,139,23187,1,2,0:0:0:0:
367,205,23358,1,2,0:0:0:0:
362,196,23444,1,0,0:0:0:0:
359,186,23530,6,0,P|359:141|385:79,1,97.8125,2|8,0:0|0:0,0:0:0:0:
260,30,23786,1,0,0:0:0:0:
257,40,23872,2,0,P|257:85|283:147,1,97.8125,2|0,0:0|0:0,0:0:0:0:
224,239,24129,1,0,0:0:0:0:
218,249,24214,2,0,B|127:216|120:303|20:260,1,195.625,10|2,0:0|0:0,0:0:0:0:
224,359,24728,1,2,0:0:0:0:
316,163,24899,5,4,0:3:0:0:
384,305,25070,1,2,0:0:0:0:
218,166,25241,2,0,P|202:114|202:62,1,97.8125,2|2,0:0|0:0,0:0:0:0:
207,59,25498,1,0,0:0:0:0:
215,49,25583,1,10,0:0:0:0:
325,176,25755,1,0,0:0:0:0:
83,116,25926,1,2,0:0:0:0:
302,32,26097,1,2,0:0:0:0:
317,39,26183,1,0,0:0:0:0:
330,49,26268,6,0,P|343:101|343:148,1,97.8125,2|8,0:0|0:0,0:0:0:0:
242,204,26525,1,0,0:0:0:0:
229,214,26610,2,0,P|216:266|216:313,1,97.8125,2|0,0:0|0:0,0:0:0:0:
350,368,26868,1,0,0:0:0:0:
360,366,26953,2,0,P|390:321|294:319,1,195.625,10|2,0:0|0:0,0:0:0:0:
147,365,27466,1,2,0:0:0:0:
97,174,27637,5,4,0:3:0:0:
221,275,27809,1,2,0:0:0:0:
34,326,27980,2,0,P|27:247|9:204,1,97.8125,2|2,0:0|0:0,0:0:0:0:
15,220,28236,1,0,0:0:0:0:
7,211,28322,1,10,0:0:0:0:
85,72,28493,1,0,0:0:0:0:
176,238,28664,1,2,0:0:0:0:
232,62,28835,1,2,0:0:0:0:
252,54,28921,1,0,0:0:0:0:
276,53,29007,6,0,P|321:71|364:117,1,97.8125,2|8,0:0|0:0,0:0:0:0:
294,278,29263,1,0,0:0:0:0:
281,257,29349,2,0,P|274:208|285:161,1,97.8125,2|0,0:0|0:0,0:0:0:0:
421,58,29606,1,0,0:0:0:0:
442,51,29691,1,10,0:0:0:0:
410,217,29862,1,2,0:0:0:0:
232,62,30034,1,2,0:0:0:0:
113,230,30205,1,2,0:0:0:0:
43,29,30376,5,4,0:3:0:0:
207,138,30547,1,2,0:0:0:0:
39,284,30718,2,0,P|19:221|33:185,1,97.8125,2|0,0:0|0:0,0:0:0:0:
49,169,30975,1,0,0:0:0:0:
79,157,31060,1,10,0:0:0:0:
176,300,31232,1,0,0:0:0:0:
263,141,31403,1,2,0:0:0:0:
255,133,31488,2,0,L|199:138,2,48.90625,0|2|0,0:0|0:0|0:0,0:0:0:0:
338,223,31745,6,0,P|355:226|394:222,1,48.90625,2|0,0:0|0:0,0:0:0:0:
453,45,31916,2,0,P|428:42|404:45,1,48.90625,8|0,0:0|0:0,0:0:0:0:
381,256,32087,6,0,P|401:248|441:219,1,48.90625,2|0,0:0|0:0,0:0:0:0:
417,6,32258,2,0,P|389:18|364:37,1,48.90625
302,314,32430,6,0,L|307:358,6,32.6041666666667,10|0|0|2|0|0|2,0:0|0:0|0:0|0:0|0:0|0:0|0:0,0:0:0:0:
236,64,32943,1,0,0:0:0:0:
138,357,33114,5,6,0:3:0:0:
256,192,33285,12,0,35853,0:0:0:0:
