osu file format v14

[General]
AudioFilename: audio.mp3
AudioLeadIn: 0
PreviewTime: 58150
Countdown: 0
SampleSet: Soft
StackLeniency: 0.7
Mode: 0
LetterboxInBreaks: 0
WidescreenStoryboard: 0

[Editor]
Bookmarks: 74420
DistanceSpacing: 1.1
BeatDivisor: 8
GridSize: 32
TimelineZoom: 1.6

[Metadata]
Title:Naked Blue (TV Size)
TitleUnicode:Naked Blue (TV Size)
Artist:9-tie
ArtistUnicode:9-tie
Creator:HeTo
Version:Say it!
Source:SELECTION PROJECT
Tags:japanese anime jpop j-pop pop idol セレクション・プロジェクト セレプロ serepuro selepro opening 美山鈴音 miyama suzune 矢野妃菜喜 yano hinaki 花野井玲那 hananoi rena 水野朔 mizuno saku 濱栗広海 hamaguri hiromi 南雲希美 nagumo nozomi 今鵜凪咲 imau nagisa 荒井瑠里 arai ruri 八木野土香 yagi nodoka 羊宮妃那 youmiya yomiya hina 淀川逢生 yodogawa ao 岩橋由佳 iwahashi yuka 小泉詩 koizumi uta 白河みずな shirakawa mizuna 山鹿栞 yamaga shiori 花井美春 hanai miharu 当麻まこ toma mako 下地紫野 Shimoji Shino キューティー cutie kyuutie saggin
BeatmapID:3327981
BeatmapSetID:1630206

[Difficulty]
HPDrainRate:6
CircleSize:4
OverallDifficulty:8
ApproachRate:9.2
SliderMultiplier:2.8
SliderTickRate:1

[Events]
//Background and Video events
Video,1550,"Naked Blue.mp4"
0,0,"bg.jpg",0,0
//Break Periods
//Storyboard Layer 0 (Background)
//Storyboard Layer 1 (Fail)
//Storyboard Layer 2 (Pass)
//Storyboard Layer 3 (Foreground)
//Storyboard Layer 4 (Overlay)
//Storyboard Sound Samples

[TimingPoints]
1680,504.201680672269,4,2,1,40,1,0
1680,-158.730158730159,4,2,1,40,0,0
7730,-102.040816326531,4,2,5,65,0,0
9747,-158.730158730159,4,2,1,55,0,0
25881,-136.986301369863,4,2,1,55,0,0
42016,-158.730158730159,4,2,1,55,0,0
50083,-113.636363636364,4,2,1,65,0,0
50272,-113.636363636364,4,2,1,5,0,0
50335,-113.636363636364,4,2,1,65,0,0
50524,-113.636363636364,4,2,1,5,0,0
50587,-113.636363636364,4,2,1,65,0,0
52289,-113.636363636364,4,2,1,5,0,0
52352,-113.636363636364,4,2,1,65,0,0
52541,-113.636363636364,4,2,1,5,0,0
52604,-113.636363636364,4,2,1,65,0,0
54116,-102.040816326531,4,2,1,65,0,0
54306,-102.040816326531,4,2,1,5,0,0
54369,-102.040816326531,4,2,1,65,0,0
56133,-208.333333333335,4,2,1,65,0,0
56637,-113.636363636364,4,2,1,65,0,0
57142,-102.040816326531,4,2,1,65,0,0
57646,-232.558139534884,4,2,5,65,0,0
58087,-232.558139534884,4,2,5,5,0,0
58150,-312.5,4,2,1,70,0,0
58654,-384.615384615385,4,2,1,70,0,0
59158,-89.2857142857143,4,2,1,70,0,0
62184,-312.5,4,2,1,70,0,0
62688,-384.615384615385,4,2,1,70,0,0
63192,-89.2857142857143,4,2,1,70,0,0
65209,-75.7575757575758,4,2,1,70,0,0
65398,-75.7575757575758,4,2,1,5,0,0
65461,-75.7575757575758,4,2,1,70,0,0
65902,-75.7575757575758,4,2,1,5,0,0
65965,-75.7575757575758,4,2,1,70,0,0
66217,-312.5,4,2,1,70,0,0
66722,-384.615384615385,4,2,1,70,0,0
67226,-89.2857142857143,4,2,1,70,0,0
70251,-312.5,4,2,1,70,0,0
70755,-384.615384615385,4,2,1,70,0,0
71259,-89.2857142857143,4,2,1,70,0,0
73213,-89.2857142857143,4,2,1,5,0,0
73276,-89.2857142857143,4,2,1,70,0,0
74285,-75.7575757575758,4,2,1,70,0,0
75041,-89.2857142857143,4,2,1,70,0,0
75986,-89.2857142857143,4,2,1,5,0,0
76049,-89.2857142857143,4,2,1,70,0,0
76301,-75.7575757575758,4,2,1,70,0,0
77058,-89.2857142857143,4,2,1,70,0,0
78003,-89.2857142857143,4,2,1,5,0,0
78066,-89.2857142857143,4,2,1,70,0,0
78318,-75.7575757575758,4,2,1,70,0,0
79074,-89.2857142857143,4,2,1,70,0,0
80020,-89.2857142857143,4,2,1,5,0,0
80083,-89.2857142857143,4,2,1,70,0,0
82352,-138.888888888889,4,2,1,60,0,0
88402,-161.290322580645,4,2,1,50,0,0
89411,-108.695652173913,4,2,1,70,0,0

[Colours]
Combo1 : 179,102,255
Combo2 : 196,185,200
Combo3 : 251,168,113
Combo4 : 183,183,255

[HitObjects]
410,42,1680,6,0,P|355:43|305:112,1,132.299995962525,6|0,0:0|0:0,0:0:0:0:
274,170,2184,1,8,0:0:0:0:
274,170,2436,2,0,P|277:203|278:223,1,44.0999986541748,2|2,0:0|0:0,0:0:0:0:
426,272,2688,6,0,P|427:249|429:228,1,44.0999986541748,2|0,0:0|0:0,0:0:0:0:
436,281,2940,2,0,P|437:258|439:237,1,44.0999986541748,2|0,0:0|0:0,0:0:0:0:
318,323,3192,2,0,B|229:324|279:372|188:375,1,132.299995962525,10|0,0:0|0:0,0:0:0:0:
88,240,3696,6,0,P|100:194|181:189,1,132.299995962525,2|0,0:0|0:0,0:0:0:0:
246,221,4201,1,8,0:0:0:0:
246,221,4453,2,0,P|253:178|253:167,1,44.0999986541748,2|2,0:0|0:0,0:0:0:0:
170,52,4705,6,0,P|174:73|177:95,1,44.0999986541748,2|0,0:0|0:0,0:0:0:0:
179,46,4957,2,0,P|183:67|186:89,1,44.0999986541748,2|0,0:0|0:0,0:0:0:0:
290,9,5209,2,0,P|338:20|427:30,1,132.299995962525,10|0,0:0|0:0,0:0:0:0:
252,177,5713,6,0,P|186:183|121:197,1,132.299995962525,2|0,0:0|0:0,0:0:0:0:
58,246,6217,1,8,0:0:0:0:
58,246,6469,2,0,P|61:277|63:305,1,44.0999986541748,2|2,0:0|0:0,0:0:0:0:
188,369,6722,6,0,P|191:338|193:310,1,44.0999986541748,2|0,0:0|0:0,0:0:0:0:
198,376,6974,2,0,P|201:345|203:317,1,44.0999986541748,2|0,0:0|0:0,0:0:0:0:
249,178,7226,2,0,P|297:170|341:234,1,132.299995962525,10|0,0:0|0:0,0:0:0:0:
87,99,7730,6,0,B|39:64|59:13|59:13|64:31|84:42,1,137.199998743896,6|0,1:2|0:0,0:0:0:0:
182,242,8108,2,0,B|175:300|121:308|121:308|134:295|133:272,1,137.199998743896,6|0,1:2|0:0,0:0:0:0:
286,91,8486,1,6,1:2:0:0:
286,91,8738,6,0,P|288:42|290:15,1,68.5999993719482,0|0,1:2|1:2,0:0:0:0:
187,127,8990,1,10,0:0:0:0:
329,240,9116,1,0,1:2:0:0:
219,344,9243,5,10,0:0:0:0:
256,276,9369,2,0,P|311:280|401:339,1,137.199998743896,8|0,0:3|0:0,0:0:0:0:
442,376,9747,6,0,P|463:326|447:285,1,88.1999973083497,6|2,1:2|0:0,0:0:0:0:
407,201,10125,1,2,0:0:0:0:
407,201,10251,2,0,P|410:155|412:98,1,88.1999973083497,10|0,0:0|0:0,0:0:0:0:
411,112,10755,6,0,P|432:97|454:97,1,44.0999986541748,2|2,0:0|0:0,0:0:0:0:
510,149,11007,1,2,0:0:0:0:
344,62,11133,2,0,P|289:75|207:87,1,132.299995962525,2|2,0:0|0:0,0:0:0:0:
80,23,11764,5,2,0:0:0:0:
80,23,12016,2,0,P|85:63|86:85,1,44.0999986541748,2|0,0:0|0:0,0:0:0:0:
223,173,12268,2,0,P|214:104|212:67,1,88.1999973083497,10|0,0:0|0:0,0:0:0:0:
213,85,12772,2,0,B|127:103|174:133|87:152,2,132.299995962525,2|2|2,0:0|0:0|0:0,0:0:0:0:
354,182,13780,6,0,P|345:267|345:279,1,88.1999973083497,2|0,0:0|0:0,0:0:0:0:
269,355,14158,1,2,0:0:0:0:
269,355,14285,2,0,P|218:357|202:324,1,88.1999973083497,10|0,0:0|0:0,0:0:0:0:
202,328,14789,5,2,0:0:0:0:
344,269,14915,2,0,P|390:278|439:294,1,88.1999973083497,2|0,0:0|0:0,0:0:0:0:
496,327,15293,1,10,0:0:0:0:
351,178,15545,1,2,0:3:0:0:
351,178,15671,1,2,0:3:0:0:
276,141,15797,6,0,P|233:153|190:162,1,88.1999973083497,2|0,0:0|0:0,0:0:0:0:
383,35,16175,2,0,P|425:46|468:55,1,88.1999973083497,2|0,0:0|0:0,0:0:0:0:
273,151,16553,2,0,P|230:163|187:172,1,88.1999973083497,2|0,0:0|0:0,0:0:0:0:
337,278,16932,6,0,P|380:290|423:299,1,88.1999973083497,2|0,0:0|0:0,0:0:0:0:
263,339,17310,2,0,P|231:347|199:354,1,44.0999986541748,10|0,0:0|0:0,0:0:0:0:
363,198,17562,2,0,P|384:204|405:209,1,44.0999986541748,2|0,0:0|0:0,0:0:0:0:
307,80,17814,6,0,P|282:96|278:161,1,88.1999973083497,2|2,0:0|0:0,0:0:0:0:
191,243,18192,1,2,0:0:0:0:
191,243,18318,2,0,P|150:234|91:228,1,88.1999973083497,10|0,0:0|0:0,0:0:0:0:
104,228,18822,5,2,0:0:0:0:
220,349,18948,2,0,P|268:352|297:319,1,88.1999973083497,2|0,0:0|0:0,0:0:0:0:
340,262,19327,1,10,0:0:0:0:
249,160,19579,1,10,0:0:0:0:
249,160,19705,1,2,0:0:0:0:
203,92,19831,6,0,P|205:44|205:-7,1,88.1999973083497,2|2,0:0|0:0,0:0:0:0:
205,3,20209,1,2,0:0:0:0:
342,105,20335,1,10,0:0:0:0:
348,114,20461,2,0,P|348:158|350:202,1,88.1999973083497,2|0,0:0|0:0,0:0:0:0:
232,290,20839,5,2,0:0:0:0:
162,258,20965,2,0,P|114:267|69:298,1,88.1999973083497,2|0,0:0|0:0,0:0:0:0:
10,325,21343,1,10,0:0:0:0:
10,325,21595,2,0,P|1:290|3:277,1,44.0999986541748,2|0,0:0|0:0,0:0:0:0:
84,153,21848,5,2,0:0:0:0:
84,153,22100,2,0,P|112:160|140:165,1,44.0999986541748,2|0,0:0|0:0,0:0:0:0:
46,42,22352,2,0,P|12:56|0:105,1,88.1999973083497,10|2,0:0|0:0,0:0:0:0:
130,256,22730,1,0,0:0:0:0:
203,289,22856,5,2,0:0:0:0:
213,294,22982,2,0,P|261:280|302:277,1,88.1999973083497,2|2,0:0|0:0,0:0:0:0:
126,162,23360,2,0,P|78:176|37:179,1,88.1999973083497,10|2,0:0|0:0,0:0:0:0:
40,179,23864,6,0,P|52:227|54:271,1,88.1999973083497,2|0,0:0|0:0,0:0:0:0:
242,112,24243,2,0,P|194:98|155:78,1,88.1999973083497,2|0,0:0|0:0,0:0:0:0:
32,185,24621,2,0,P|44:233|46:277,1,88.1999973083497,2|0,0:0|0:0,0:0:0:0:
220,372,24999,2,0,P|208:324|206:281,1,88.1999973083497,2|0,0:0|0:0,0:0:0:0:
246,218,25377,1,8,0:0:0:0:
368,53,25629,6,0,L|371:9,1,44.0999986541748,2|0,0:0|0:0,0:0:0:0:
372,66,25881,6,0,P|441:72|481:146,1,153.30000421051,6|0,1:2|0:0,0:0:0:0:
328,260,26385,2,0,P|264:274|212:288,1,102.200002807007,10|0,1:2|0:0,0:0:0:0:
315,175,26764,1,0,0:0:0:0:
257,122,26890,2,0,P|251:77|249:10,1,102.200002807007,2|0,1:2|0:0,0:0:0:0:
405,165,27268,1,0,0:0:0:0:
437,235,27394,2,0,P|435:286|428:336,1,102.200002807007,10|0,1:2|0:0,0:0:0:0:
241,370,27772,5,2,0:3:0:0:
241,370,27835,1,2,0:3:0:0:
241,370,27898,2,0,P|187:348|132:351,1,102.200002807007,2|0,1:2|0:0,0:0:0:0:
247,210,28276,2,0,P|280:211|314:278,1,102.200002807007,2|0,0:0|0:0,0:0:0:0:
139,195,28654,2,0,P|136:145|130:81,1,102.200002807007,2|0,0:0|1:2,0:0:0:0:
218,128,29032,1,2,0:0:0:0:
50,189,29158,6,0,P|21:199|-14:201,1,51.1000014035035,2|0,0:0|0:0,0:0:0:0:
191,279,29411,2,0,P|216:282|240:291,1,51.1000014035035,10|0,1:2|0:0,0:0:0:0:
82,374,29663,1,2,0:0:0:0:
82,374,29915,5,2,1:2:0:0:
48,331,30083,1,2,0:0:0:0:
75,283,30251,1,2,0:0:0:0:
189,189,30419,5,10,1:2:0:0:
223,146,30587,1,2,0:0:0:0:
196,98,30755,1,2,0:0:0:0:
76,13,30923,5,0,1:2:0:0:
65,13,31049,2,0,P|13:31|12:93,1,102.200002807007,2|0,0:0|0:0,0:0:0:0:
195,208,31427,2,0,L|277:224,2,68.1333352046713,8|2|2,1:2|0:0|0:0,0:0:0:0:
356,79,31932,5,2,1:2:0:0:
394,115,32100,1,2,0:0:0:0:
377,167,32268,1,2,0:0:0:0:
261,235,32436,5,10,1:2:0:0:
223,271,32604,1,2,0:0:0:0:
240,323,32772,1,2,0:0:0:0:
368,384,32940,5,2,1:2:0:0:
368,384,33192,2,0,P|377:353|365:313,1,51.1000014035035,2|0,0:0|0:0,0:0:0:0:
258,223,33444,2,0,P|249:192|261:152,1,51.1000014035035,10|0,1:2|0:0,0:0:0:0:
396,101,33696,2,0,P|405:70|393:30,1,51.1000014035035,2|0,0:0|0:0,0:0:0:0:
331,5,33948,6,0,P|279:20|211:24,1,102.200002807007,2|2,1:2|0:0,0:0:0:0:
82,120,34327,1,2,0:0:0:0:
141,174,34453,2,0,P|168:144|162:85,1,102.200002807007,10|2,1:2|0:0,0:0:0:0:
199,234,34831,1,0,0:0:0:0:
69,114,34957,6,0,P|24:126|2:127,1,51.1000014035035,2|0,1:2|0:0,0:0:0:0:
205,248,35209,2,0,P|230:252|254:260,1,51.1000014035035,2|0,0:0|0:0,0:0:0:0:
102,367,35461,2,0,P|51:313|70:275,1,102.200002807007,10|2,1:2|0:0,0:0:0:0:
221,144,35839,5,2,0:3:0:0:
221,144,35902,1,2,0:3:0:0:
221,144,35965,2,0,P|286:158|338:166,1,102.200002807007,2|2,1:2|0:0,0:0:0:0:
133,18,36343,2,0,P|82:26|32:37,1,102.200002807007,2|2,0:0|0:0,0:0:0:0:
213,245,36722,2,0,P|219:189|220:128,1,102.200002807007,2|0,0:0|1:2,0:0:0:0:
140,173,37100,1,2,0:0:0:0:
313,241,37226,2,0,P|360:230|371:230,1,51.1000014035035,2|0,0:0|0:0,0:0:0:0:
231,322,37478,2,0,P|175:319|143:267,1,102.200002807007,10|2,1:2|0:0,0:0:0:0:
320,139,37856,5,2,0:3:0:0:
320,139,37919,1,2,0:3:0:0:
320,139,37982,2,0,P|316:185|312:259,1,102.200002807007,6|0,1:2|0:0,0:0:0:0:
140,173,38360,2,0,P|137:121|132:71,1,102.200002807007,2|0,0:0|0:0,0:0:0:0:
284,4,38738,2,0,P|345:15|396:22,1,102.200002807007,2|0,0:0|1:2,0:0:0:0:
457,57,39116,1,2,0:0:0:0:
335,138,39243,2,0,P|317:107|317:82,1,51.1000014035035,2|0,0:0|0:0,0:0:0:0:
491,185,39495,2,0,P|483:256|482:298,1,102.200002807007,10|2,1:2|0:0,0:0:0:0:
327,376,39873,5,2,0:3:0:0:
327,376,39936,1,2,0:3:0:0:
327,376,39999,2,0,P|275:374|254:314,1,102.200002807007,6|0,1:2|0:0,0:0:0:0:
378,206,40377,1,2,0:0:0:0:
335,138,40503,2,0,P|323:69|324:27,1,102.200002807007,8|2,1:2|0:0,0:0:0:0:
256,204,40881,1,0,0:0:0:0:
123,88,41007,5,8,0:3:0:0:
162,24,41175,1,4,0:3:0:0:
234,43,41343,1,4,0:3:0:0:
111,209,41511,5,4,0:3:0:0:
73,225,41680,1,4,0:3:0:0:
39,201,41848,1,8,0:3:0:0:
31,188,42016,6,0,P|35:137|38:0,1,176.399994616699,6|10,1:2|0:0,0:0:0:0:
39,12,43024,2,0,P|84:11|133:48,1,88.1999973083497,10|0,0:0|0:0,0:0:0:0:
177,90,43402,1,2,0:0:0:0:
177,90,43528,2,0,P|222:91|271:54,1,88.1999973083497,10|2,0:0|0:0,0:0:0:0:
85,251,44032,5,10,0:0:0:0:
85,251,44285,2,0,P|81:200|69:141,2,88.1999973083497,2|10|2,0:0|0:0|0:0,0:0:0:0:
181,355,45041,2,0,P|226:356|275:319,1,88.1999973083497,10|0,0:0|0:0,0:0:0:0:
319,277,45419,1,2,0:0:0:0:
319,277,45545,2,0,P|364:276|413:313,1,88.1999973083497,10|2,0:0|0:0,0:0:0:0:
244,161,46049,5,10,0:0:0:0:
244,161,46301,2,0,P|247:102|244:66,1,88.1999973083497,2|8,0:0|0:0,0:0:0:0:
296,11,46806,1,2,0:0:0:0:
376,13,47058,2,0,P|423:35|507:37,2,132.299995962525,10|2|2,0:0|0:0|0:0,0:0:0:0:
244,161,48066,6,0,B|166:171|195:207|122:218,1,132.299995962525,10|2,0:0|0:0,0:0:0:0:
54,185,48570,2,0,P|34:142|52:96,1,88.1999973083497,10|2,0:0|0:0,0:0:0:0:
221,12,49074,6,0,P|275:29|316:26,1,88.1999973083497,10|0,0:0|0:0,0:0:0:0:
306,27,49453,1,0,0:0:0:0:
244,161,49579,1,10,0:0:0:0:
298,220,49705,1,2,0:0:0:0:
369,186,49831,2,0,P|376:153|374:117,1,44.0999986541748
179,288,50083,6,0,B|133:279|133:279|80:311,1,92.4000028198243,6|0,1:2|0:0,0:0:0:0:
79,308,50335,2,0,B|42:274|42:274|60:227,1,92.4000028198243,10|0,0:0|0:0,0:0:0:0:
70,223,50587,1,10,0:0:0:0:
326,38,50839,6,0,P|378:56|407:54,1,61.6000018798829,10|0,0:0|0:0,0:0:0:0:
488,174,51091,1,10,0:0:0:0:
432,230,51217,2,0,P|382:204|380:134,1,123.200003759766,2|2,0:0|0:0,0:0:0:0:
476,28,51595,6,0,P|475:60|474:97,1,61.6000018798829,10|0,0:0|0:0,0:0:0:0:
305,225,51848,2,0,P|293:193|296:164,1,61.6000018798829,10|0,0:0|0:0,0:0:0:0:
173,11,52100,6,0,B|127:2|127:2|74:34,1,92.4000028198243,6|0,1:2|0:0,0:0:0:0:
74,34,52352,2,0,B|53:80|53:80|83:118,1,92.4000028198243,10|0,0:0|0:0,0:0:0:0:
89,121,52604,1,10,0:0:0:0:
338,346,52856,6,0,P|393:332|420:334,1,61.6000018798829,10|0,0:0|0:0,0:0:0:0:
229,211,53108,1,10,0:0:0:0:
295,166,53234,2,0,P|338:185|345:276,1,123.200003759766,2|2,0:0|0:0,0:0:0:0:
213,350,53612,2,0,P|209:309|205:287,1,61.6000018798829,10|0,0:0|0:0,0:0:0:0:
295,166,53864,1,10,0:0:0:0:
177,78,53990,5,2,0:3:0:0:
177,78,54053,1,2,0:3:0:0:
177,78,54116,2,0,B|131:91|131:91|119:103|119:103|65:118,1,102.899999057922,6|0,1:2|0:0,0:0:0:0:
66,114,54369,2,0,B|48:151|48:151|63:184,1,68.5999993719482,2|0,1:2|0:0,0:0:0:0:
226,287,54621,6,0,L|229:204,1,68.5999993719482,2|0,1:2|0:0,0:0:0:0:
238,282,54873,2,0,L|241:199,1,68.5999993719482,2|0,1:2|0:0,0:0:0:0:
119,294,55125,5,2,1:2:0:0:
137,371,55251,1,0,1:2:0:0:
317,295,55377,5,2,1:2:0:0:
326,217,55503,1,0,1:2:0:0:
130,45,55629,5,2,1:2:0:0:
301,129,55755,1,0,1:2:0:0:
132,181,55881,5,2,1:2:0:0:
293,39,56007,1,0,1:2:0:0:
221,109,56133,6,0,P|213:62|213:-4,1,100.800002460938,6|2,1:2|0:0,0:0:0:0:
314,136,56637,5,10,1:2:0:0:
187,235,56764,1,8,1:2:0:0:
281,337,56890,2,0,P|293:308|284:274,1,61.6000018798829,0|0,1:2|0:0,0:0:0:0:
136,149,57142,5,12,0:3:0:0:
292,39,57268,1,0,1:2:0:0:
212,8,57394,2,0,B|194:43|194:43|220:80,1,68.5999993719482,4|0,1:2|0:0,0:0:0:0:
408,253,57646,6,0,P|448:244|451:182,1,105.350001607513,14|0,1:2|0:0,0:0:0:0:
401,124,58150,6,0,P|363:131|325:134,1,67.2,6|0,1:2|0:0,0:0:0:0:
52,265,58654,6,0,P|79:261|106:257,1,54.599999666748,10|0,1:2|0:0,0:0:0:0:
314,379,59158,6,0,P|326:318|298:217,1,156.800001914063,2|0,1:2|0:0,0:0:0:0:
165,102,59537,1,2,0:0:0:0:
226,17,59663,2,0,P|263:52|263:97,1,78.4000009570313,10|0,1:2|0:0,0:0:0:0:
229,294,59915,2,0,P|192:259|192:214,1,78.4000009570313,2|0,0:0|0:0,0:0:0:0:
398,123,60167,5,0,1:2:0:0:
398,123,60419,2,0,P|359:130|320:133,1,78.4000009570313,2|0,0:0|0:0,0:0:0:0:
110,244,60671,2,0,P|148:236|187:233,1,78.4000009570313,10|0,1:2|0:0,0:0:0:0:
348,373,60923,2,0,P|364:330|353:281,1,78.4000009570313,2|0,0:0|0:0,0:0:0:0:
244,107,61175,6,0,B|239:218|274:152|264:277,1,156.800001914063,2|0,1:2|0:0,0:0:0:0:
187,233,61553,1,2,0:0:0:0:
324,122,61680,2,0,P|363:119|402:112,1,78.4000009570313,10|0,1:2|0:0,0:0:0:0:
187,233,61932,2,0,P|147:235|109:243,1,78.4000009570313,2|0,0:0|0:0,0:0:0:0:
143,26,62184,6,0,P|146:69|148:97,1,67.2,2|0,1:2|0:0,0:0:0:0:
360,298,62688,6,0,P|357:260|355:235,1,54.599999666748,10|0,1:2|0:0,0:0:0:0:
504,84,63192,6,0,P|458:30|365:46,1,156.800001914063,2|0,1:2|0:0,0:0:0:0:
212,151,63570,1,2,0:0:0:0:
273,204,63696,2,0,P|293:154|279:120,1,78.4000009570313,10|0,1:2|0:0,0:0:0:0:
133,16,63948,2,0,P|113:49|118:87,1,78.4000009570313,2|0,0:0|0:0,0:0:0:0:
297,3,64201,5,0,1:2:0:0:
297,3,64453,2,0,P|367:15|392:18,1,78.4000009570313,2|0,0:0|0:0,0:0:0:0:
195,160,64705,2,0,P|156:165|117:172,1,78.4000009570313,10|0,1:2|0:0,0:0:0:0:
315,278,64957,2,0,P|385:290|410:293,1,78.4000009570313,2|0,0:0|0:0,0:0:0:0:
199,378,65209,6,0,P|160:328|172:252,1,138.599999577026,2|0,1:2|0:0,0:0:0:0:
181,243,65461,2,0,P|204:188|188:150,1,92.3999997180176,2|0,0:0|0:0,0:0:0:0:
396,72,65713,6,0,P|357:122|369:198,1,138.599999577026,10|0,1:2|0:0,0:0:0:0:
378,207,65965,2,0,P|401:262|385:300,1,92.3999997180176,2|0,0:0|0:0,0:0:0:0:
106,84,66217,6,0,P|144:80|177:72,1,67.2,2|0,1:2|0:0,0:0:0:0:
391,290,66722,6,0,P|360:293|334:299,1,54.599999666748,10|0,1:2|0:0,0:0:0:0:
218,381,67226,6,0,B|223:279|190:331|196:214,1,156.800001914063,2|0,1:2|0:0,0:0:0:0:
273,254,67604,1,2,0:0:0:0:
122,337,67730,2,0,P|97:299|101:255,1,78.4000009570313,10|0,1:2|0:0,0:0:0:0:
253,98,67982,2,0,P|278:136|274:180,1,78.4000009570313,2|0,0:0|0:0,0:0:0:0:
85,67,68234,5,0,1:2:0:0:
85,67,68486,2,0,P|128:62|165:53,1,78.4000009570313,2|0,0:0|0:0,0:0:0:0:
386,231,68738,2,0,P|343:236|306:245,1,78.4000009570313,10|0,1:2|0:0,0:0:0:0:
205,379,68990,2,0,P|199:336|192:297,1,78.4000009570313,2|0,0:0|0:0,0:0:0:0:
382,141,69243,6,0,P|433:152|465:255,1,156.800001914063,2|0,1:2|0:0,0:0:0:0:
277,170,69621,1,2,0:0:0:0:
235,101,69747,2,0,P|229:54|229:12,1,78.4000009570313,10|0,1:2|0:0,0:0:0:0:
386,231,69999,2,0,P|384:270|379:308,1,78.4000009570313,2|0,0:0|0:0,0:0:0:0:
107,207,70251,6,0,P|139:201|173:195,1,67.2,2|0,1:2|0:0,0:0:0:0:
416,54,70755,6,0,P|389:60|363:64,1,54.599999666748,10|0,1:2|0:0,0:0:0:0:
274,324,71259,6,0,P|261:242|262:164,1,156.800001914063,2|0,1:2|0:0,0:0:0:0:
177,293,71637,1,2,0:0:0:0:
430,203,71764,2,0,P|391:208|353:218,1,78.4000009570313,10|0,1:2|0:0,0:0:0:0:
93,125,72016,2,0,P|132:119|170:110,1,78.4000009570313,2|0,0:0|0:0,0:0:0:0:
305,9,72268,5,0,1:2:0:0:
305,9,72520,2,0,P|328:45|325:100,1,78.4000009570313,2|0,0:0|0:0,0:0:0:0:
187,267,72772,2,0,P|164:231|167:176,1,78.4000009570313,10|0,1:2|0:0,0:0:0:0:
364,352,73024,2,0,B|432:332|395:313|478:294,1,117.600001435547,2|0,0:0|0:0,0:0:0:0:
485,301,73276,6,0,P|517:240|482:145,1,156.800001914063,2|0,1:2|0:0,0:0:0:0:
260,120,73654,2,0,P|296:178|396:195,1,156.800001914063,2|0,0:0|0:0,0:0:0:0:
479,60,74032,2,0,P|437:61|398:108,1,78.4000009570313,2|0,0:0|0:0,0:0:0:0:
177,274,74285,6,0,B|122:237|76:279|76:279|64:323|12:328,1,184.799999436035,6|0,1:1|0:0,0:0:0:0:
132,156,74663,1,2,0:0:0:0:
174,90,74789,2,0,B|215:100|215:100|222:108|222:108|266:121,1,92.3999997180176,10|0,1:2|0:0,0:0:0:0:
421,264,75041,5,2,0:0:0:0:
421,264,75167,1,2,0:0:0:0:
298,369,75293,2,0,P|274:336|285:278,1,78.4000009570313,2|0,1:2|0:0,0:0:0:0:
420,101,75545,2,0,P|416:163|416:194,1,78.4000009570313,2|0,0:0|0:0,0:0:0:0:
190,296,75797,6,0,P|196:255|276:213,1,117.600001435547,10|0,1:2|0:0,0:0:0:0:
254,212,76049,2,0,P|294:221|341:232,1,78.4000009570313,2|0,0:0|0:0,0:0:0:0:
460,28,76301,6,0,B|405:-9|360:32|360:32|349:76|298:80,1,184.799999436035,2|0,1:1|0:0,0:0:0:0:
112,198,76680,1,2,0:0:0:0:
50,147,76806,2,0,B|26:109|26:109|51:63,1,92.3999997180176,10|0,1:2|0:0,0:0:0:0:
268,213,77058,6,0,P|280:259|265:299,1,78.4000009570313,2|0,0:0|0:0,0:0:0:0:
187,377,77310,2,0,P|138:369|79:369,1,78.4000009570313,2|0,1:2|0:0,0:0:0:0:
363,233,77562,2,0,P|402:230|440:223,1,78.4000009570313,2|0,0:0|0:0,0:0:0:0:
298,55,77814,6,0,P|252:84|262:162,1,117.600001435547,10|0,1:2|0:0,0:0:0:0:
248,142,78066,2,0,P|271:182|266:218,1,78.4000009570313,2|0,0:0|0:0,0:0:0:0:
34,326,78318,6,0,B|89:289|134:330|134:330|145:374|196:378,1,184.799999436035,2|0,1:1|0:0,0:0:0:0:
78,208,78696,1,2,0:0:0:0:
41,137,78822,2,0,B|44:93|44:93|40:85|40:85|42:39,1,92.3999997180176,10|0,1:2|0:0,0:0:0:0:
267,212,79074,5,2,0:0:0:0:
267,212,79201,1,2,0:0:0:0:
340,128,79327,2,0,P|301:93|256:104,1,78.4000009570313,2|0,1:2|0:0,0:0:0:0:
78,208,79579,2,0,P|136:199|174:192,1,78.4000009570313,2|0,0:0|0:0,0:0:0:0:
331,338,79831,6,0,P|360:291|321:211,1,117.600001435547,10|0,1:2|0:0,0:0:0:0:
347,234,80083,2,0,P|289:243|255:249,1,78.4000009570313,2|0,0:0|0:0,0:0:0:0:
455,177,80335,6,0,P|462:107|459:14,1,156.800001914063,2|2,1:2|0:0,0:0:0:0:
357,142,80713,1,0,0:0:0:0:
286,107,80839,2,0,P|244:114|209:128,1,78.4000009570313,10|0,1:2|0:0,0:0:0:0:
436,275,81091,2,0,P|472:288|511:295,1,78.4000009570313,2|0,0:0|0:0,0:0:0:0:
357,142,81343,6,0,P|357:226|349:302,1,156.800001914063,2|0,1:2|0:0,0:0:0:0:
207,376,81722,1,2,0:0:0:0:
213,297,81848,2,0,B|301:312|256:359|357:379,1,156.800001914063,10|0,0:0|0:0,0:0:0:0:
160,206,82226,5,2,0:0:0:0:
160,206,82289,1,2,0:0:0:0:
160,206,82352,2,0,P|129:134|150:65,1,151.200003691406,6|2,1:2|0:0,0:0:0:0:
248,9,82856,1,2,0:0:0:0:
248,9,83108,6,0,P|288:19|315:20,1,50.4000012304688,2|0,0:0|0:0,0:0:0:0:
148,67,83360,2,0,P|123:70|41:93,1,100.800002460938,2|2,0:0|0:0,0:0:0:0:
249,183,83738,2,0,B|344:198|293:233|391:251,1,151.200003691406,2|0,0:0|0:0,0:0:0:0:
381,248,84369,6,0,P|413:198|378:112,1,151.200003691406,2|2,0:0|0:0,0:0:0:0:
269,40,84873,1,2,0:0:0:0:
269,40,85125,2,0,P|234:53|210:56,1,50.4000012304688,2|2,0:0|0:0,0:0:0:0:
384,116,85377,2,0,P|434:122|497:134,1,100.800002460938,2|2,0:0|0:0,0:0:0:0:
312,302,85755,2,0,P|273:281|272:180,1,151.200003691406,2|0,0:0|0:0,0:0:0:0:
268,183,86385,6,0,P|301:119|259:43,1,151.200003691406,2|2,0:0|0:0,0:0:0:0:
160,1,86890,1,2,0:0:0:0:
160,1,87142,2,0,P|160:37|158:60,1,50.4000012304688,2|2,0:0|0:0,0:0:0:0:
268,183,87394,2,0,P|268:219|280:301,1,100.800002460938,2|2,0:0|0:0,0:0:0:0:
197,356,87772,2,0,P|133:367|91:285,1,151.200003691406,2|2,0:0|0:0,0:0:0:0:
112,218,88402,5,0,0:0:0:0:
112,218,88654,2,0,P|116:177|115:159,1,43.3999982781983,2|2,0:0|0:0,0:0:0:0:
203,251,88906,2,0,P|203:199|210:147,1,86.7999965563966,2|2,0:0|0:0,0:0:0:0:
126,32,89411,6,0,P|82:46|-4:56,1,128.79999567627,10|0,1:2|0:0,0:0:0:0:
213,155,89789,2,0,P|277:161|338:179,1,128.79999567627,10|0,1:2|0:0,0:0:0:0:
88,302,90167,1,14,1:2:0:0:
