osu file format v14

[General]
AudioFilename: audio.mp3
AudioLeadIn: 0
PreviewTime: 58150
Countdown: 0
SampleSet: Soft
StackLeniency: 0.7
Mode: 0
LetterboxInBreaks: 0
WidescreenStoryboard: 1

[Editor]
Bookmarks: 74420
DistanceSpacing: 1.1
BeatDivisor: 4
GridSize: 32
TimelineZoom: 1.6

[Metadata]
Title:Naked Blue (TV Size)
TitleUnicode:Naked Blue (TV Size)
Artist:9-tie
ArtistUnicode:9-tie
Creator:HeTo
Version:Saggin's Insane
Source:SELECTION PROJECT
Tags:japanese anime jpop j-pop pop idol セレクション・プロジェクト セレプロ serepuro selepro opening 美山鈴音 miyama suzune 矢野妃菜喜 yano hinaki 花野井玲那 hananoi rena 水野朔 mizuno saku 濱栗広海 hamaguri hiromi 南雲希美 nagumo nozomi 今鵜凪咲 imau nagisa 荒井瑠里 arai ruri 八木野土香 yagi nodoka 羊宮妃那 youmiya yomiya hina 淀川逢生 yodogawa ao 岩橋由佳 iwahashi yuka 小泉詩 koizumi uta 白河みずな shirakawa mizuna 山鹿栞 yamaga shiori 花井美春 hanai miharu 当麻まこ toma mako 下地紫野 Shimoji Shino キューティー cutie kyuutie saggin
BeatmapID:3329120
BeatmapSetID:1630206

[Difficulty]
HPDrainRate:5.5
CircleSize:4
OverallDifficulty:7.6
ApproachRate:8.7
SliderMultiplier:3.4
SliderTickRate:1

[Events]
//Background and Video events
0,0,"bg.jpg",0,0
Video,1550,"Naked Blue.mp4"
//Break Periods
//Storyboard Layer 0 (Background)
//Storyboard Layer 1 (Fail)
//Storyboard Layer 2 (Pass)
//Storyboard Layer 3 (Foreground)
//Storyboard Layer 4 (Overlay)
//Storyboard Sound Samples

[TimingPoints]
1680,504.201680672269,4,2,1,40,1,0
1680,-333.333333333333,4,2,1,40,0,0
7730,-100,4,2,5,65,0,0
9747,-133.333333333333,4,2,1,55,0,0
15797,-200,4,2,1,55,0,0
18066,-133.333333333333,4,2,1,55,0,0
23864,-200,4,2,1,55,0,0
25881,-111.111111111111,4,2,1,55,0,0
42016,-250,4,2,1,55,0,0
50083,-100,4,2,1,65,0,0
50272,-100,4,2,1,5,0,0
50335,-100,4,2,1,65,0,0
50524,-100,4,2,1,5,0,0
50587,-100,4,2,1,65,0,0
51217,-111.111111111111,4,2,1,65,0,0
52100,-100,4,2,1,65,0,0
52289,-100,4,2,1,5,0,0
52352,-100,4,2,1,65,0,0
52541,-100,4,2,1,5,0,0
52604,-100,4,2,1,65,0,0
53108,-111.111111111111,4,2,1,65,0,0
54306,-111.111111111111,4,2,1,5,0,0
54369,-111.111111111111,4,2,1,65,0,0
56133,-133.333333333333,4,2,1,65,0,0
56890,-200,4,2,1,65,0,0
57646,-200,4,2,5,65,0,0
58087,-200,4,2,5,5,0,0
58150,-90.9090909090909,4,2,1,70,0,0
65398,-90.9090909090909,4,2,1,5,0,0
65461,-90.9090909090909,4,2,1,70,0,0
65902,-90.9090909090909,4,2,1,5,0,0
65965,-90.9090909090909,4,2,1,70,0,0
73213,-90.9090909090909,4,2,1,5,0,0
73276,-90.9090909090909,4,2,1,70,0,0
75986,-90.9090909090909,4,2,1,5,0,0
76049,-90.9090909090909,4,2,1,70,0,0
78003,-90.9090909090909,4,2,1,5,0,0
78066,-90.9090909090909,4,2,1,70,0,0
80020,-90.9090909090909,4,2,1,5,0,0
80083,-90.9090909090909,4,2,1,70,0,0
82352,-200,4,2,1,60,0,0
88402,-200,4,2,1,50,0,0
89411,-133.333333333333,4,2,1,70,0,0

[Colours]
Combo1 : 179,102,255
Combo2 : 196,185,200
Combo3 : 251,168,113
Combo4 : 183,183,255

[HitObjects]
458,65,1680,6,0,P|449:127|448:141,1,76.5,6|0,0:0|0:0,0:0:0:0:
448,140,2184,1,8,0:0:0:0:
356,244,2436,5,2,0:0:0:0:
356,244,2562,1,2,0:0:0:0:
356,244,2688,2,0,P|359:279|360:297,2,50.9999984436036,2|2|10,0:0|0:0|0:0,0:0:0:0:
109,65,3696,6,0,P|115:102|118:140,1,76.5,2|0,0:0|0:0,0:0:0:0:
118,140,4201,1,8,0:0:0:0:
205,252,4453,5,2,0:0:0:0:
205,252,4579,1,2,0:0:0:0:
205,252,4705,2,0,P|202:287|201:305,2,50.9999984436036,2|2|10,0:0|0:0|0:0,0:0:0:0:
333,59,5713,6,0,P|370:65|398:103,1,76.4999976654054,2|0,0:0|0:0,0:0:0:0:
394,93,6217,1,8,0:0:0:0:
512,190,6469,5,2,0:0:0:0:
512,190,6595,1,2,0:0:0:0:
512,190,6722,2,0,P|486:194|454:203,1,50.9999984436036,2|2,0:0|0:0,0:0:0:0:
462,200,7226,6,0,P|428:207|391:256,1,89.2499972763063,10|0,0:0|0:0,0:0:0:0:
406,330,7730,6,0,B|301:314|362:265|253:259,1,170,6|0,1:2|0:0,0:0:0:0:
176,136,8108,6,0,B|214:234|141:206|191:304,1,170,6|0,1:2|0:0,0:0:0:0:
188,377,8486,6,0,P|234:367|258:339,1,85,6|0,1:2|0:0,0:0:0:0:
394,248,8738,5,0,1:2:0:0:
385,171,8864,1,0,1:2:0:0:
262,99,8990,5,10,0:0:0:0:
253,176,9116,1,0,1:2:0:0:
372,72,9243,5,10,0:0:0:0:
372,72,9369,1,8,0:3:0:0:
385,58,9621,5,0,0:0:0:0:
282,9,9747,6,0,P|239:21|149:36,1,127.500004863739,6|2,1:2|0:0,0:0:0:0:
42,133,10125,1,2,0:0:0:0:
42,133,10251,2,0,P|79:141|115:162,1,63.7500024318696,10|0,0:0|0:0,0:0:0:0:
228,208,10503,1,0,0:0:0:0:
228,208,10755,5,2,0:0:0:0:
151,288,10881,2,0,P|141:257|159:216,1,63.7500024318696,2|2,0:0|0:0,0:0:0:0:
275,298,11133,1,2,0:0:0:0:
275,298,11259,2,0,P|267:348|266:379,1,63.7500024318696,8|0,0:0|0:0,0:0:0:0:
369,234,11511,6,0,P|430:247|446:292,1,95.6250036478044,2|0,0:0|0:0,0:0:0:0:
512,305,11764,6,0,P|471:310|389:346,1,127.500004863739,2|2,0:0|0:0,0:0:0:0:
306,219,12142,1,0,0:0:0:0:
306,219,12268,2,0,P|360:232|390:236,1,63.7500024318696,10|0,0:0|0:0,0:0:0:0:
468,181,12520,2,0,P|482:145|465:110,1,63.7500024318696
392,24,12772,5,2,0:0:0:0:
316,0,12898,2,0,P|320:53|323:81,1,63.7500024318696
236,175,13150,1,2,0:0:0:0:
236,175,13276,2,0,P|233:143|230:111,1,63.7500024318696,8|0,0:0|0:0,0:0:0:0:
139,19,13528,6,0,P|97:26|65:87,1,95.6250036478044,2|0,0:0|0:0,0:0:0:0:
0,97,13780,6,0,P|48:108|125:147,1,127.500004863739,2|0,0:0|0:0,0:0:0:0:
224,238,14158,1,2,0:0:0:0:
224,238,14285,2,0,P|218:281|218:312,1,63.7500024318696,10|0,0:0|0:0,0:0:0:0:
108,363,14537,2,0,P|98:331|116:291,1,63.7500024318696
236,379,14789,5,2,0:0:0:0:
291,323,14915,2,0,P|333:333|373:340,1,63.7500024318696,2|0,0:0|0:0,0:0:0:0:
472,252,15167,1,0,0:0:0:0:
430,185,15293,2,0,P|412:138|438:50,1,127.500004863739,10|2,0:0|0:3,0:0:0:0:
427,64,15797,6,0,P|400:102|309:119,1,127.5,2|2,0:0|0:0,0:0:0:0:
195,153,16301,1,8,0:0:0:0:
195,153,16553,6,0,P|241:157|274:194,1,85,2|0,0:0|0:0,0:0:0:0:
352,319,16932,2,0,P|332:276|364:188,1,127.5,2|10,0:0|0:0,0:0:0:0:
229,42,17562,5,2,0:0:0:0:
229,42,17688,1,0,0:0:0:0:
229,42,17814,1,2,0:0:0:0:
209,49,18066,6,0,P|172:61|143:62,1,63.7500024318696,2|2,0:0|0:0,0:0:0:0:
35,155,18318,2,0,P|66:157|160:207,1,127.500004863739,10|0,0:0|0:0,0:0:0:0:
291,336,18822,5,2,0:0:0:0:
350,286,18948,2,0,P|344:236|343:206,1,63.7500024318696,2|0,0:0|0:0,0:0:0:0:
221,134,19201,1,0,0:0:0:0:
221,134,19327,2,0,P|223:165|227:197,1,63.7500024318696,10|0,0:0|0:0,0:0:0:0:
321,94,19579,6,0,P|376:108|394:155,1,95.6250036478044,10|0,0:0|0:0,0:0:0:0:
462,178,19831,6,0,P|410:191|332:229,1,127.500004863739,2|2,0:0|0:0,0:0:0:0:
220,317,20209,1,2,0:0:0:0:
286,354,20335,2,0,P|300:315|287:282,1,63.7500024318696,10|2,0:0|0:0,0:0:0:0:
294,294,20587,1,0,0:0:0:0:
127,107,20839,5,2,0:0:0:0:
127,107,20965,2,0,P|86:123|62:126,1,63.7500024318696,2|0,0:0|0:0,0:0:0:0:
139,264,21217,1,0,0:0:0:0:
139,264,21343,2,0,P|170:269|199:282,1,63.7500024318696,10|0,0:0|0:0,0:0:0:0:
310,160,21595,6,0,P|266:175|246:238,1,95.6250036478044,2|0,0:0|0:0,0:0:0:0:
319,243,21848,6,0,P|269:253|182:293,1,127.500004863739,2|2,0:0|0:0,0:0:0:0:
67,364,22226,1,0,0:0:0:0:
67,364,22352,2,0,P|59:325|79:293,1,63.7500024318696,10|0,0:0|0:0,0:0:0:0:
149,219,22604,2,0,P|157:180|137:148,1,63.7500024318696,2|0,0:0|0:0,0:0:0:0:
17,97,22856,5,2,0:0:0:0:
17,97,22982,2,0,P|20:145|21:177,1,63.7500024318696,2|0,0:0|0:0,0:0:0:0:
116,68,23234,1,2,0:0:0:0:
176,23,23360,2,0,P|223:27|252:98,1,127.500004863739,10|2,0:0|0:0,0:0:0:0:
252,94,23864,6,0,P|242:135|237:192,1,85,2|0,0:0|0:0,0:0:0:0:
82,204,24243,1,2,0:0:0:0:
82,204,24369,2,0,P|122:192|174:167,1,85,8|2,0:0|0:0,0:0:0:0:
161,174,24747,1,0,0:0:0:0:
265,300,24999,5,2,0:0:0:0:
265,300,25125,2,0,P|234:270|187:238,1,85,0|10,0:0|0:0,0:0:0:0:
375,140,25629,5,2,0:0:0:0:
191,24,25881,5,6,1:2:0:0:
191,24,26133,5,0,0:0:0:0:
191,24,26259,1,0,0:0:0:0:
191,24,26385,2,0,B|199:73|205:179|205:178,1,152.999995330811,10|0,1:2|0:0,0:0:0:0:
337,281,26764,1,0,0:0:0:0:
337,281,26890,2,0,P|394:273|421:178,1,152.999995330811,2|0,1:2|0:0,0:0:0:0:
493,37,27268,5,0,0:0:0:0:
493,37,27394,2,0,P|451:51|404:52,1,76.4999976654053,10|0,1:2|0:0,0:0:0:0:
354,144,27646,2,0,P|312:130|265:129,1,76.4999976654053,0|2,0:0|0:3,0:0:0:0:
94,22,27898,6,0,P|156:37|162:139,1,152.999995330811,2|0,1:2|0:0,0:0:0:0:
100,247,28276,5,2,0:0:0:0:
52,195,28402,2,0,P|73:156|106:149,1,76.4999976654053,8|0,0:0|0:0,0:0:0:0:
236,211,28654,1,2,0:0:0:0:
236,211,28780,1,0,0:0:0:0:
236,211,28906,2,0,P|191:212|169:187,1,76.4999976654053,0|2,1:2|0:0,0:0:0:0:
284,44,29158,6,0,B|380:55|327:96|439:118,2,152.999995330811,2|10|2,0:0|1:2|0:0,0:0:0:0:
281,46,29915,5,2,1:2:0:0:
263,86,30083,5,2,0:0:0:0:
278,126,30251,5,2,0:0:0:0:
371,207,30419,5,10,1:2:0:0:
389,247,30587,5,2,0:0:0:0:
374,287,30755,5,2,0:0:0:0:
271,361,30923,5,0,1:2:0:0:
209,315,31049,2,0,P|162:335|62:357,1,152.999995330811,2|0,0:0|0:0,0:0:0:0:
0,249,31427,5,8,1:2:0:0:
5,234,31595,5,2,0:0:0:0:
15,246,31764,5,2,0:0:0:0:
98,169,31932,5,2,1:2:0:0:
139,152,32100,5,2,0:0:0:0:
182,166,32268,5,2,0:0:0:0:
268,271,32436,5,10,1:2:0:0:
311,285,32604,5,2,0:0:0:0:
352,268,32772,5,2,0:0:0:0:
464,187,32940,6,0,P|457:151|453:104,1,76.4999976654053,2|0,1:2|0:0,0:0:0:0:
308,9,33192,6,0,P|324:102|332:182,2,152.999995330811,2|10|2,0:0|1:2|0:0,0:0:0:0:
189,115,33948,5,2,1:2:0:0:
179,108,34201,5,2,0:0:0:0:
179,108,34327,1,2,0:0:0:0:
179,108,34453,2,0,P|132:123|104:126,1,76.4999976654053,10|0,1:2|0:0,0:0:0:0:
7,255,34705,2,0,P|44:260|80:272,1,76.4999976654053,2|0,0:0|0:0,0:0:0:0:
235,377,34957,6,0,P|262:317|234:251,1,114.749996498108,2|0,1:2|0:0,0:0:0:0:
237,265,35209,2,0,P|228:216|248:183,1,76.4999976654053,2|0,0:0|0:0,0:0:0:0:
354,74,35461,2,0,B|438:88|392:128|509:151,1,152.999995330811,10|2,1:2|0:0,0:0:0:0:
361,226,35839,5,2,0:3:0:0:
361,226,35965,2,0,P|347:180|364:144,1,76.4999976654053,2|0,1:2|0:0,0:0:0:0:
492,69,36217,1,2,0:0:0:0:
492,69,36343,2,0,P|486:128|483:169,1,76.4999976654053,2|8,0:0|0:0,0:0:0:0:
362,244,36595,5,2,0:0:0:0:
309,300,36722,2,0,P|240:286|147:282,1,152.999995330811,2|0,0:0|1:2,0:0:0:0:
17,131,37226,5,2,0:0:0:0:
17,131,37352,1,0,0:0:0:0:
87,83,37478,2,0,P|135:101|144:139,1,76.4999976654053,10|0,1:2|0:0,0:0:0:0:
20,226,37730,1,2,0:0:0:0:
20,226,37982,6,0,P|30:321|30:387,1,152.999995330811,6|0,1:2|0:0,0:0:0:0:
176,275,38360,1,2,0:0:0:0:
233,224,38486,2,0,P|227:184|221:140,1,76.4999976654053,8|0,0:0|0:0,0:0:0:0:
102,259,38738,5,2,0:0:0:0:
102,259,38864,1,0,0:0:0:0:
102,259,38990,2,0,P|175:276|258:337,1,152.999995330811,0|2,1:2|0:0,0:0:0:0:
373,167,39369,1,0,0:0:0:0:
373,167,39495,2,0,P|320:185|296:187,1,76.4999976654053,10|0,1:2|0:0,0:0:0:0:
448,314,39747,1,2,0:0:0:0:
448,314,39999,6,0,P|469:263|437:146,1,152.999995330811,6|0,1:2|0:0,0:0:0:0:
336,56,40377,1,2,0:0:0:0:
391,3,40503,2,0,P|456:18|490:18,1,76.4999976654053,8|0,1:2|0:0,0:0:0:0:
363,137,40755,2,0,P|324:144|288:158,1,76.4999976654053,2|0,0:0|0:0,0:0:0:0:
184,46,41007,5,8,0:3:0:0:
113,76,41175,5,4,0:3:0:0:
96,148,41343,5,4,0:3:0:0:
229,235,41511,5,4,0:3:0:0:
217,197,41680,5,4,0:3:0:0:
176,182,41848,5,8,0:3:0:0:
45,249,42016,6,0,P|56:334|59:405,2,136,6|10|10,1:2|0:0|0:0,0:0:0:0:
156,59,43528,2,0,P|188:76|231:81,1,68,10|2,0:0|0:0,0:0:0:0:
333,174,44032,5,10,0:0:0:0:
333,174,44285,2,0,P|289:184|246:207,2,68,2|10|2,0:0|0:0|0:0,0:0:0:0:
426,33,45041,6,0,P|481:41|501:105,1,102,10|2,0:0|0:0,0:0:0:0:
511,90,45545,2,0,P|507:131|504:166,1,68,10|2,0:0|0:0,0:0:0:0:
353,253,46049,5,10,0:0:0:0:
353,253,46301,2,0,P|355:219|359:185,2,68,2|8|2,0:0|0:0|0:0,0:0:0:0:
258,345,47058,6,0,B|196:337|220:312|145:312,1,102,10|2,0:0|0:0,0:0:0:0:
150,305,47562,2,0,P|137:267|155:232,1,68,8|2,0:0|0:0,0:0:0:0:
288,129,48066,6,0,P|279:183|267:256,1,102,10|2,0:0|0:0,0:0:0:0:
271,229,48570,1,10,0:0:0:0:
182,134,48822,5,2,0:0:0:0:
125,79,49074,2,0,P|73:86|40:182,1,136,10|10,0:0|0:0,0:0:0:0:
33,153,49831,1,0,0:0:0:0:
169,274,50083,6,0,P|159:330|156:365,1,85,6|0,1:2|0:0,0:0:0:0:
80,349,50335,2,0,P|84:306|92:265,1,85,10|0,0:0|0:0,0:0:0:0:
201,162,50587,2,0,B|303:173|238:229|383:258,1,170,10|10,0:0|0:0,0:0:0:0:
466,121,51091,5,10,0:0:0:0:
409,77,51217,2,0,P|379:88|357:125,1,76.4999976654053,2|0,0:0|0:0,0:0:0:0:
500,195,51469,2,0,B|487:277|483:352|483:351,1,152.999995330811,2|0,0:0|0:0,0:0:0:0:
350,252,51848,6,0,L|306:243,3,38.2499988327027,10|0|0|0,0:0|0:0|0:0|0:0,0:0:0:0:
356,240,52100,6,0,B|300:232|244:221|244:220,1,85,6|0,1:2|0:0,0:0:0:0:
258,318,52352,2,0,B|341:331,1,85,10|0,0:0|0:0,0:0:0:0:
258,149,52604,2,0,B|156:160|221:216|74:237,1,170,10|10,0:0|0:0,0:0:0:0:
0,144,52982,5,0,0:0:0:0:
0,144,53108,2,0,P|-9:97|14:63,1,76.4999976654053,10|2,0:0|0:0,0:0:0:0:
119,152,53360,1,8,0:0:0:0:
187,195,53486,2,0,P|176:262|173:299,1,76.4999976654053,2|10,0:0|0:0,0:0:0:0:
23,350,53738,6,0,L|31:300,2,38.2499988327027,0|0|10,0:0|0:0|0:0,0:0:0:0:
45,336,53927,6,0,L|51:298,2,38.2499988327027,0|2|2,0:0|0:3|0:3,0:0:0:0:
68,328,54116,6,0,P|128:338|166:360,1,76.4999976654053,6|0,1:2|0:0,0:0:0:0:
248,183,54369,2,0,P|212:195|174:199,1,76.4999976654053,2|0,1:2|0:0,0:0:0:0:
257,344,54621,6,0,P|270:300|255:262,1,76.4999976654053,2|0,1:2|0:0,0:0:0:0:
96,159,54873,2,0,P|105:229|104:263,1,76.4999976654053,2|0,1:2|0:0,0:0:0:0:
251,102,55125,5,2,1:2:0:0:
119,14,55251,1,0,1:2:0:0:
204,17,55377,5,2,1:2:0:0:
44,101,55503,1,0,1:2:0:0:
206,178,55629,5,2,1:2:0:0:
184,252,55755,1,0,1:2:0:0:
35,267,55881,5,2,1:2:0:0:
56,341,56007,1,0,1:2:0:0:
169,353,56133,6,0,B|276:341|218:282|357:280,1,191.250007295609,6|2,1:2|0:0,0:0:0:0:
435,173,56637,5,10,1:2:0:0:
435,173,56764,1,8,1:2:0:0:
435,173,56890,2,0,P|484:180|510:258,1,127.5,0|0,1:2|1:2,0:0:0:0:
426,340,57394,5,4,1:2:0:0:
426,340,57520,2,0,L|388:335,2,21.25,0|0|14,0:0|0:0|1:2,0:0:0:0:
280,158,57898,5,0,0:0:0:0:
280,158,58150,6,0,B|289:106|375:81|413:197|289:312,1,280.500008560181,6|0,1:2|0:0,0:0:0:0:
129,340,58654,6,0,B|79:358|14:296|96:205|257:255,1,280.500008560181,10|0,1:2|0:0,0:0:0:0:
302,372,59158,6,0,P|240:351|235:307,1,93.5000028533936,2|0,1:2|0:0,0:0:0:0:
157,203,59411,5,0,0:0:0:0:
98,152,59537,2,0,P|36:173|31:217,1,93.5000028533936,2|10,0:0|1:2,0:0:0:0:
157,28,59789,5,0,0:0:0:0:
157,28,59915,2,0,P|213:43|261:46,1,93.5000028533936,2|0,0:0|0:0,0:0:0:0:
420,90,60167,6,0,P|437:58|392:75,1,93.5000028533936,0|0,1:2|0:0,0:0:0:0:
220,146,60419,6,0,P|227:210|230:252,1,93.5000028533936,2|0,0:0|0:0,0:0:0:0:
386,339,60671,2,0,P|382:292|376:245,1,93.5000028533936,10|0,1:2|0:0,0:0:0:0:
240,363,60923,2,0,P|186:348|123:349,1,93.5000028533936,2|0,0:0|0:0,0:0:0:0:
316,178,61175,6,0,B|423:186|354:257|511:265,1,187.000005706787,2|0,1:2|0:0,0:0:0:0:
367,55,61553,1,2,0:0:0:0:
303,16,61680,2,0,P|244:29|231:90,1,93.5000028533936,10|0,1:2|0:0,0:0:0:0:
232,223,61932,2,0,P|291:210|304:149,1,93.5000028533936,2|0,0:0|0:0,0:0:0:0:
110,57,62184,6,0,B|101:5|15:-20|-23:96|101:211,1,280.500008560181,2|0,1:2|0:0,0:0:0:0:
261,233,62688,6,0,B|310:251|375:189|293:98|132:148,1,280.500008560181,10|0,1:2|0:0,0:0:0:0:
94,268,63192,6,0,P|149:255|164:213,1,93.5000028533936,2|0,1:2|0:0,0:0:0:0:
255,62,63444,5,0,0:0:0:0:
320,23,63570,2,0,P|375:36|390:78,1,93.5000028533936,2|10,0:0|1:2,0:0:0:0:
232,182,63822,5,0,0:0:0:0:
232,182,63948,2,0,P|240:243|242:282,1,93.5000028533936,2|0,0:0|0:0,0:0:0:0:
393,370,64201,6,0,P|436:359|411:331,1,93.5000028533936,0|0,1:2|0:0,0:0:0:0:
303,132,64453,6,0,P|255:147|229:198,1,93.5000028533936,2|0,0:0|0:0,0:0:0:0:
146,88,64705,2,0,P|118:130|131:186,1,93.5000028533936,10|0,1:2|0:0,0:0:0:0:
0,193,64957,2,0,P|6:242|52:277,1,93.5000028533936,2|0,0:0|0:0,0:0:0:0:
195,377,65209,6,0,B|262:369|239:314|337:319,1,140.25000428009,2|0,1:2|0:0,0:0:0:0:
332,324,65461,6,0,P|350:277|329:231,1,93.5000028533936,2|0,0:0|0:0,0:0:0:0:
236,38,65713,6,0,P|163:56|152:135,1,140.25000428009,10|0,1:2|0:0,0:0:0:0:
135,117,65965,6,0,P|144:183|147:221,1,93.5000028533936,2|0,0:0|0:0,0:0:0:0:
374,146,66217,6,0,B|424:131|440:43|321:17|219:153,1,280.500008560181,2|0,1:2|0:0,0:0:0:0:
224,304,66722,6,0,B|211:355|279:412|361:322|294:166,1,280.500008560181,10|0,1:2|0:0,0:0:0:0:
162,167,67226,6,0,P|198:215|256:215,1,93.5000028533936,2|0,1:2|0:0,0:0:0:0:
409,282,67478,5,0,0:0:0:0:
354,330,67604,2,0,P|310:345|287:384,1,93.5000028533936,2|10,0:0|1:2,0:0:0:0:
106,285,67856,5,0,0:0:0:0:
106,285,67982,2,0,P|47:305|15:308,1,93.5000028533936,2|0,0:0|0:0,0:0:0:0:
159,115,68234,6,0,P|194:111|180:156,1,93.5000028533936,0|0,1:2|0:0,0:0:0:0:
39,105,68486,6,0,P|48:46|49:-5,1,93.5000028533936,2|0,0:0|0:0,0:0:0:0:
186,154,68738,2,0,P|183:200|175:246,1,93.5000028533936,10|0,1:2|0:0,0:0:0:0:
15,338,68990,2,0,P|44:291|107:292,1,93.5000028533936,2|0,0:0|0:0,0:0:0:0:
287,383,69243,6,0,B|391:389|351:305|493:316,1,187.000005706787,2|0,1:2|0:0,0:0:0:0:
317,165,69621,1,2,0:0:0:0:
251,123,69747,2,0,P|201:138|180:181,1,93.5000028533936,10|0,1:2|0:0,0:0:0:0:
159,371,69999,2,0,P|209:356|230:313,1,93.5000028533936,2|0,0:0|0:0,0:0:0:0:
362,95,70251,6,0,B|376:44|464:28|490:147|354:249,1,280.500008560181,2|0,1:2|0:0,0:0:0:0:
195,252,70755,6,0,B|143:264|86:196|176:114|332:181,1,280.500008560181,10|0,1:2|0:0,0:0:0:0:
351,312,71259,6,0,P|296:284|290:238,1,93.5000028533936,2|0,1:2|0:0,0:0:0:0:
193,131,71511,5,0,0:0:0:0:
129,90,71637,2,0,P|74:118|68:164,1,93.5000028533936,2|10,0:0|1:2,0:0:0:0:
212,272,71890,5,0,0:0:0:0:
212,272,72016,2,0,P|202:335|198:387,1,93.5000028533936,2|0,0:0|0:0,0:0:0:0:
0,252,72268,6,0,P|0:211|39:218,1,93.5000028533936,0|0,1:2|0:0,0:0:0:0:
199,364,72520,6,0,P|242:363|279:290,1,93.5000028533936,2|0,0:0|0:0,0:0:0:0:
414,370,72772,2,0,P|434:332|389:263,1,93.5000028533936,10|0,1:2|0:0,0:0:0:0:
509,199,73024,2,0,P|486:162|404:166,1,93.5000028533936,2|0,0:0|0:0,0:0:0:0:
261,246,73276,6,0,B|255:122|255:122|283:99|344:122,1,187.000005706787,2|0,1:2|0:0,0:0:0:0:
189,282,73654,1,2,0:0:0:0:
129,231,73780,2,0,P|79:247|27:252,1,93.5000028533936,8|0,0:0|0:0,0:0:0:0:
141,76,74032,2,0,P|197:98|202:147,1,93.5000028533936,2|0,0:0|0:0,0:0:0:0:
342,277,74285,6,0,P|407:274|437:158,1,187.000005706787,6|0,1:1|0:0,0:0:0:0:
293,43,74663,1,2,0:0:0:0:
353,3,74789,2,0,P|405:17|446:19,1,93.5000028533936,10|0,1:2|0:0,0:0:0:0:
300,126,75041,5,2,0:0:0:0:
300,126,75167,1,2,0:0:0:0:
368,182,75293,2,0,P|372:125|379:78,1,93.5000028533936,2|0,1:2|0:0,0:0:0:0:
214,0,75545,2,0,P|207:46|204:92,1,93.5000028533936,2|0,0:0|0:0,0:0:0:0:
42,222,75797,6,0,P|62:170|161:166,1,140.25000428009,10|0,1:2|0:0,0:0:0:0:
147,161,76049,2,0,P|207:181|244:184,1,93.5000028533936,2|0,0:0|0:0,0:0:0:0:
334,354,76301,6,0,P|353:307|339:263,1,93.5000028533936,2|0,1:1|0:0,0:0:0:0:
483,233,76553,2,0,P|467:184|428:160,1,93.5000028533936,0|2,0:0|0:0,0:0:0:0:
512,34,76806,2,0,P|469:7|423:13,1,93.5000028533936,10|0,1:2|0:0,0:0:0:0:
287,121,77058,5,2,0:0:0:0:
287,121,77184,1,0,0:0:0:0:
357,187,77310,6,0,P|363:128|375:66,1,93.5000028533936,2|0,1:2|0:0,0:0:0:0:
203,2,77562,2,0,P|195:48|191:94,1,93.5000028533936,2|0,0:0|0:0,0:0:0:0:
311,248,77814,6,0,B|224:257|271:311|147:319,1,140.25000428009,10|0,1:2|0:0,0:0:0:0:
179,305,78066,2,0,P|162:257|189:208,1,93.5000028533936,2|0,0:0|0:0,0:0:0:0:
107,8,78318,6,0,P|24:24|14:125,1,187.000005706787,2|0,1:1|0:0,0:0:0:0:
165,220,78696,1,2,0:0:0:0:
106,274,78822,2,0,P|53:283|5:298,1,93.5000028533936,10|0,1:2|0:0,0:0:0:0:
200,138,79074,5,2,0:0:0:0:
200,138,79201,1,2,0:0:0:0:
115,105,79327,2,0,P|123:167|127:216,1,93.5000028533936,2|0,1:2|0:0,0:0:0:0:
291,267,79579,2,0,P|286:220|280:174,1,93.5000028533936,2|0,0:0|0:0,0:0:0:0:
155,335,79831,6,0,P|226:341|306:379,1,140.25000428009,10|0,1:2|0:0,0:0:0:0:
305,368,80083,2,0,P|364:367|402:339,1,93.5000028533936,2|0,0:0|0:0,0:0:0:0:
510,208,80335,6,0,B|409:197|463:128|316:134,1,187.000005706787,2|2,1:2|0:0,0:0:0:0:
179,48,80713,1,0,0:0:0:0:
246,3,80839,6,0,P|302:24|310:63,1,93.5000028533936,10|0,1:2|0:0,0:0:0:0:
445,39,81091,2,0,P|454:97|425:124,1,93.5000028533936,2|0,0:0|0:0,0:0:0:0:
310,237,81343,6,0,P|242:212|105:202,1,187.000005706787,2|0,1:2|0:0,0:0:0:0:
6,327,81722,1,2,0:0:0:0:
66,373,81848,2,0,P|87:320|58:236,1,140.25000428009,10|0,0:0|0:0,0:0:0:0:
52,232,82100,2,0,P|36:181|62:137,1,93.5000028533936,0|2,0:0|0:0,0:0:0:0:
241,32,82352,6,0,P|233:95|229:161,1,127.5,6|2,1:2|0:0,0:0:0:0:
229,158,82856,1,2,0:0:0:0:
365,314,83108,5,2,0:0:0:0:
415,371,83360,2,0,P|458:363|509:355,1,85,2|2,0:0|0:0,0:0:0:0:
350,229,83738,2,0,P|315:239|283:317,1,127.5,2|0,0:0|0:0,0:0:0:0:
161,368,84243,5,0,0:0:0:0:
161,368,84369,2,0,P|164:304|172:241,1,127.5,2|2,0:0|0:0,0:0:0:0:
171,241,84873,1,2,0:0:0:0:
123,52,85125,5,2,0:0:0:0:
123,52,85251,1,2,0:0:0:0:
123,52,85377,2,0,P|80:65|64:111,1,85,2|2,0:0|0:0,0:0:0:0:
154,213,85755,2,0,B|213:206|197:165|283:164,1,127.5,2|0,0:0|0:0,0:0:0:0:
452,40,86385,6,0,P|443:103|441:166,1,127.5,2|2,0:0|0:0,0:0:0:0:
441,166,86890,1,2,0:0:0:0:
351,332,87142,5,2,0:0:0:0:
351,332,87268,1,2,0:0:0:0:
351,332,87394,2,0,P|309:317|291:271,1,85,2|2,0:0|0:0,0:0:0:0:
425,183,87772,1,2,0:0:0:0:
425,183,87898,1,0,0:0:0:0:
272,97,88150,5,2,0:0:0:0:
314,162,88276,1,0,0:0:0:0:
314,162,88402,1,0,0:0:0:0:
192,290,88654,6,0,P|158:282|138:282,1,42.5,2|2,0:0|0:0,0:0:0:0:
69,200,88906,6,0,P|115:196|160:181,1,85,2|2,0:0|0:0,0:0:0:0:
295,22,89411,6,0,P|260:17|208:140,2,191.250007295609,10|10|14,1:2|1:2|1:2,0:0:0:0:
