osu file format v14

[General]
AudioFilename: audio.mp3
AudioLeadIn: 0
PreviewTime: 58150
Countdown: 0
SampleSet: Soft
StackLeniency: 0.7
Mode: 0
LetterboxInBreaks: 0
WidescreenStoryboard: 1

[Editor]
Bookmarks: 74420
DistanceSpacing: 1.1
BeatDivisor: 8
GridSize: 16
TimelineZoom: 1.6

[Metadata]
Title:Naked Blue (TV Size)
TitleUnicode:Naked Blue (TV Size)
Artist:9-tie
ArtistUnicode:9-tie
Creator:HeTo
Version:Normal
Source:SELECTION PROJECT
Tags:japanese anime jpop j-pop pop idol セレクション・プロジェクト セレプロ serepuro selepro opening 美山鈴音 miyama suzune 矢野妃菜喜 yano hinaki 花野井玲那 hananoi rena 水野朔 mizuno saku 濱栗広海 hamaguri hiromi 南雲希美 nagumo nozomi 今鵜凪咲 imau nagisa 荒井瑠里 arai ruri 八木野土香 yagi nodoka 羊宮妃那 youmiya yomiya hina 淀川逢生 yodogawa ao 岩橋由佳 iwahashi yuka 小泉詩 koizumi uta 白河みずな shirakawa mizuna 山鹿栞 yamaga shiori 花井美春 hanai miharu 当麻まこ toma mako 下地紫野 Shimoji Shino キューティー cutie kyuutie saggin
BeatmapID:3327980
BeatmapSetID:1630206

[Difficulty]
HPDrainRate:4
CircleSize:3
OverallDifficulty:4
ApproachRate:5
SliderMultiplier:1.43
SliderTickRate:1

[Events]
//Background and Video events
Video,1550,"Naked Blue.mp4"
0,0,"bg.jpg",0,0
//Break Periods
//Storyboard Layer 0 (Background)
//Storyboard Layer 1 (Fail)
//Storyboard Layer 2 (Pass)
//Storyboard Layer 3 (Foreground)
//Storyboard Layer 4 (Overlay)
//Storyboard Sound Samples

[TimingPoints]
1680,504.201680672269,4,2,1,40,1,0
1680,-100,4,2,1,40,0,0
7730,-100,4,2,5,65,0,0
9747,-100,4,2,1,55,0,0
25881,-100,4,2,1,55,0,0
42016,-100,4,2,1,55,0,0
50083,-100,4,2,1,65,0,0
50272,-100,4,2,1,5,0,0
50335,-100,4,2,1,65,0,0
50524,-100,4,2,1,5,0,0
50587,-100,4,2,1,65,0,0
52289,-100,4,2,1,5,0,0
52352,-100,4,2,1,65,0,0
52541,-100,4,2,1,5,0,0
52604,-100,4,2,1,65,0,0
54116,-100,4,2,1,65,0,0
54306,-100,4,2,1,5,0,0
54369,-100,4,2,1,65,0,0
56133,-100,4,2,1,65,0,0
56637,-100,4,2,1,65,0,0
57142,-100,4,2,1,65,0,0
57646,-100,4,2,5,65,0,0
58087,-100,4,2,5,5,0,0
58150,-90.9090909090909,4,2,1,70,0,0
58591,-90.9090909090909,4,2,1,70,0,0
58654,-90.9090909090909,4,2,1,70,0,0
59095,-90.9090909090909,4,2,1,70,0,0
59158,-90.9090909090909,4,2,1,70,0,0
62184,-90.9090909090909,4,2,1,70,0,0
62625,-90.9090909090909,4,2,1,70,0,0
62688,-90.9090909090909,4,2,1,70,0,0
63129,-90.9090909090909,4,2,1,70,0,0
63192,-90.9090909090909,4,2,1,70,0,0
65209,-90.9090909090909,4,2,1,70,0,0
65398,-90.9090909090909,4,2,1,5,0,0
65461,-90.9090909090909,4,2,1,70,0,0
65902,-90.9090909090909,4,2,1,5,0,0
65965,-90.9090909090909,4,2,1,70,0,0
66217,-90.9090909090909,4,2,1,70,0,0
73213,-90.9090909090909,4,2,1,5,0,0
73276,-90.9090909090909,4,2,1,70,0,0
74285,-90.9090909090909,4,2,1,70,0,0
75041,-90.9090909090909,4,2,1,70,0,0
75986,-90.9090909090909,4,2,1,5,0,0
76049,-90.9090909090909,4,2,1,70,0,0
76301,-90.9090909090909,4,2,1,70,0,0
77058,-90.9090909090909,4,2,1,70,0,0
78003,-90.9090909090909,4,2,1,5,0,0
78066,-90.9090909090909,4,2,1,70,0,0
78318,-90.9090909090909,4,2,1,70,0,0
79074,-90.9090909090909,4,2,1,70,0,0
80020,-90.9090909090909,4,2,1,5,0,0
80083,-90.9090909090909,4,2,1,70,0,0
82352,-90.9090909090909,4,2,1,60,0,0
88402,-90.9090909090909,4,2,1,50,0,0
89411,-90.9090909090909,4,2,1,70,0,0

[Colours]
Combo1 : 179,102,255
Combo2 : 196,185,200
Combo3 : 251,168,113
Combo4 : 183,183,255

[HitObjects]
486,66,1680,6,0,P|394:77|375:142,1,143,6|8,0:0|0:0,0:0:0:0:
427,182,2436,2,0,P|425:213|424:245,1,35.75,2|2,0:0|0:0,0:0:0:0:
428,260,2688,2,0,P|458:292|505:285,2,71.5,2|2|10,0:0|0:0|0:0,0:0:0:0:
265,205,3696,6,0,P|207:226|104:249,1,143,2|8,0:0|0:0,0:0:0:0:
70,181,4453,2,0,L|66:137,1,35.75,2|2,0:0|0:0,0:0:0:0:
58,103,4705,2,0,P|18:111|-6:153,2,71.5,2|2|10,0:0|0:0|0:0,0:0:0:0:
209,22,5713,6,0,P|256:31|297:119,1,143,2|8,0:0|0:0,0:0:0:0:
265,188,6469,2,0,L|269:247,1,35.75,2|2,0:0|0:0,0:0:0:0:
274,266,6722,2,0,P|337:277|357:287,2,71.5,2|2|10,0:0|0:0|0:0,0:0:0:0:
134,365,7730,6,0,P|97:319|111:252,2,107.25,6|6|6,1:2|1:2|1:2,0:0:0:0:
219,369,8738,2,0,L|274:363,1,35.75,0|0,1:2|1:2,0:0:0:0:
296,355,8990,2,0,L|351:361,1,35.75,10|0,0:0|1:2,0:0:0:0:
371,343,9243,1,10,0:0:0:0:
371,343,9369,2,0,P|383:299|368:252,1,71.5,8|0,0:3|0:0,0:0:0:0:
375,231,9747,5,6,1:2:0:0:
264,99,10251,2,0,P|198:111|172:185,1,143,10|2,0:0|0:0,0:0:0:0:
95,329,11259,2,0,P|49:329|28:294,1,71.5,8|2,0:0|0:0,0:0:0:0:
1,232,11764,6,0,P|3:184|2:147,1,71.5,2|2,0:0|0:0,0:0:0:0:
2,73,12268,1,10,0:0:0:0:
79,35,12520,1,0,0:0:0:0:
149,84,12772,2,0,P|151:139|154:211,2,107.25,2|2|2,0:0|0:0|0:0,0:0:0:0:
213,27,13780,6,0,P|270:24|328:84,1,143,2|10,0:0|0:0,0:0:0:0:
465,183,14789,1,2,0:0:0:0:
465,183,14915,2,0,P|460:228|454:304,1,107.25,2|10,0:0|0:0,0:0:0:0:
403,358,15545,1,2,0:3:0:0:
317,348,15797,6,0,P|291:313|325:244,1,107.25,2|2,0:0|0:0,0:0:0:0:
381,150,16553,2,0,P|407:115|373:46,1,107.25,2|2,0:0|0:0,0:0:0:0:
271,8,17310,2,0,P|222:19|184:21,1,71.5,10|2,0:0|0:0,0:0:0:0:
116,33,17814,5,2,0:0:0:0:
13,170,18318,2,0,P|28:205|125:205,1,143,10|2,0:0|0:0,0:0:0:0:
271,125,19327,2,0,P|315:135|345:138,1,71.5,10|10,0:0|0:0,0:0:0:0:
426,127,19831,6,0,P|461:166|454:213,1,71.5,2|2,0:0|0:0,0:0:0:0:
445,267,20335,1,10,0:0:0:0:
445,267,20461,2,0,P|395:277|347:290,1,71.5,2|0,0:0|0:0,0:0:0:0:
332,289,20839,2,0,P|318:332|347:384,2,107.25,2|2|2,0:0|0:0|0:0,0:0:0:0:
280,219,21848,6,0,P|244:200|208:215,1,71.5,2|2,0:0|0:0,0:0:0:0:
131,192,22352,1,10,0:0:0:0:
101,111,22604,1,2,0:0:0:0:
156,45,22856,2,0,P|211:60|288:63,2,107.25,2|2|2,0:0|0:0|0:0,0:0:0:0:
78,8,23864,6,0,P|42:20|22:90,1,107.25,2|2,0:0|0:0,0:0:0:0:
104,177,24621,2,0,P|160:182|234:194,1,107.25,2|2,0:0|0:0,0:0:0:0:
332,148,25377,2,0,P|333:103|336:72,1,71.5,10|2,0:0|0:0,0:0:0:0:
403,24,25881,6,0,P|460:26|485:60,1,71.5,6|0,1:2|0:0,0:0:0:0:
511,108,26385,2,0,P|507:158|506:203,1,71.5,10|0,1:2|0:0,0:0:0:0:
508,265,26890,2,0,P|476:295|408:296,1,107.25,2|0,1:2|0:0,0:0:0:0:
378,276,27394,2,0,L|299:285,1,71.5,10|0,1:2|0:0,0:0:0:0:
237,233,27898,6,0,P|243:177|245:120,2,107.25,2|2|2,1:2|0:0|0:0,0:0:0:0:
197,308,28906,1,0,1:2:0:0:
114,330,29158,1,2,0:0:0:0:
41,284,29411,2,0,P|26:246|32:195,1,71.5,10|2,1:2|0:0,0:0:0:0:
20,130,29915,6,0,P|61:73|139:76,1,143,2|10,1:2|1:2,0:0:0:0:
211,95,30671,1,0,0:0:0:0:
253,169,30923,2,0,L|252:261,1,71.5,0|0,1:2|0:0,0:0:0:0:
299,312,31427,2,0,P|337:330|372:318,1,71.5,8|0,1:2|0:0,0:0:0:0:
447,301,31932,6,0,P|481:246|458:157,1,143,2|10,1:2|1:2,0:0:0:0:
459,86,32688,1,0,0:0:0:0:
387,39,32940,1,2,1:2:0:0:
309,76,33192,2,0,P|320:134|319:169,2,71.5,2|10|2,0:0|1:2|0:0,0:0:0:0:
234,33,33948,6,0,P|195:47|163:51,1,71.5,2|2,1:2|0:0,0:0:0:0:
126,70,34327,1,2,0:0:0:0:
126,70,34453,2,0,P|108:114|113:141,1,71.5,10|2,1:2|0:0,0:0:0:0:
160,206,34957,2,0,P|178:250|173:277,1,71.5,2|2,1:2|0:0,0:0:0:0:
122,340,35461,1,10,1:2:0:0:
36,332,35713,1,2,0:0:0:0:
5,251,35965,6,0,P|9:173|6:119,1,107.25,2|2,1:2|0:0,0:0:0:0:
7,101,36469,2,0,P|51:78|80:83,1,71.5,8|2,0:0|0:0,0:0:0:0:
150,113,36974,2,0,L|227:123,1,71.5,0|2,1:2|0:0,0:0:0:0:
283,180,37478,1,10,1:2:0:0:
229,247,37730,1,2,0:0:0:0:
279,316,37982,6,0,P|334:323|393:339,2,107.25,6|2|2,1:2|0:0|0:0,0:0:0:0:
209,366,38990,2,0,L|122:373,1,71.5,0|2,1:2|0:0,0:0:0:0:
75,312,39495,1,10,1:2:0:0:
119,238,39747,1,2,0:0:0:0:
72,165,39999,6,0,P|72:96|73:39,1,107.25,6|2,1:2|0:0,0:0:0:0:
87,17,40503,2,0,P|138:16|158:31,1,71.5,8|2,1:2|0:0,0:0:0:0:
215,85,41007,1,8,0:3:0:0:
215,85,41133,2,0,P|278:118|325:103,1,107.25,0|4,0:0|0:3,0:0:0:0:
461,28,42016,6,0,P|464:81|485:181,1,143,6|10,1:2|0:0,0:0:0:0:
414,326,43024,2,0,P|469:336|518:369,2,107.25,10|2|2,0:0|0:0|0:0,0:0:0:0:
328,317,44032,6,0,P|307:278|323:232,1,71.5,10|2,0:0|0:0,0:0:0:0:
351,176,44537,2,0,P|372:137|356:91,1,71.5,10|2,0:0|0:0,0:0:0:0:
330,34,45041,2,0,P|378:47|446:54,2,107.25,10|2|2,0:0|0:0|0:0,0:0:0:0:
247,10,46049,2,0,P|199:15|184:43,1,71.5,10|2,0:0|0:0,0:0:0:0:
143,105,46553,1,8,0:0:0:0:
195,172,46806,1,2,0:0:0:0:
148,244,47058,6,0,P|113:245|35:279,2,107.25,10|2|2,0:0|0:0|0:0,0:0:0:0:
207,305,48066,2,0,P|255:327|308:331,2,107.25,10|2|2,0:0|0:0|0:0,0:0:0:0:
147,366,49074,1,10,0:0:0:0:
17,252,49579,2,0,P|14:200|10:164,1,71.5,10|0,0:0|0:0,0:0:0:0:
51,104,50083,6,0,B|89:85|89:85|131:114,1,71.5,6|10,1:2|0:0,0:0:0:0:
178,156,50587,1,10,0:0:0:0:
259,128,50839,1,10,0:0:0:0:
288,47,51091,1,10,0:0:0:0:
288,47,51217,2,0,P|330:53|375:125,1,107.25,2|10,0:0|0:0,0:0:0:0:
417,172,51848,1,10,0:0:0:0:
378,248,52100,6,0,B|349:270|349:270|313:256,1,71.5,6|10,1:2|0:0,0:0:0:0:
242,214,52604,1,10,0:0:0:0:
173,265,52856,2,0,L|180:321,1,35.75,10|0,0:0|0:0,0:0:0:0:
156,337,53108,1,10,0:0:0:0:
156,337,53234,2,0,P|95:357|51:312,1,107.25,2|10,0:0|0:0,0:0:0:0:
28,256,53864,1,10,0:0:0:0:
58,175,54116,6,0,L|148:187,2,71.5,6|2|2,1:2|1:2|1:2,0:0:0:0:
27,94,54873,1,2,1:2:0:0:
80,27,55125,2,0,L|144:37,1,35.75,2|0,1:2|1:2,0:0:0:0:
150,56,55377,2,0,L|185:61,1,35.75,2|0,1:2|1:2,0:0:0:0:
226,51,55629,1,2,1:2:0:0:
299,7,55881,1,2,1:2:0:0:
372,50,56133,6,0,P|411:92|394:157,1,107.25,6|2,1:2|0:0,0:0:0:0:
394,179,56637,2,0,L|400:226,1,35.75,10|8,1:2|1:2,0:0:0:0:
408,256,56890,1,0,1:2:0:0:
446,332,57142,2,0,L|495:343,2,35.75,12|0|4,0:3|1:2|1:2,0:0:0:0:
370,373,57646,2,0,L|274:389,1,71.5,14|0,1:2|0:0,0:0:0:0:
223,345,58150,6,0,B|190:299|190:299|220:246,1,117.975003600311,6|0,1:2|0:0,0:0:0:0:
252,216,58654,2,0,B|269:182|269:182|245:140,1,78.6500024002076,10|0,1:2|0:0,0:0:0:0:
178,96,59158,2,0,P|139:109|92:112,1,78.6500024002076,2|0,1:2|0:0,0:0:0:0:
63,134,59537,1,2,0:0:0:0:
63,134,59663,2,0,P|38:176|45:202,1,78.6500024002076,10|2,1:2|0:0,0:0:0:0:
62,286,60167,1,0,1:2:0:0:
120,349,60419,6,0,L|169:342,1,39.3250012001038,2|0,0:0|0:0,0:0:0:0:
202,345,60671,2,0,B|219:308|219:308|190:266,1,78.6500024002076,10|2,1:2|0:0,0:0:0:0:
211,191,61175,2,0,P|250:163|298:182,1,78.6500024002076,2|0,1:2|0:0,0:0:0:0:
313,191,61553,1,2,0:0:0:0:
313,191,61680,2,0,P|341:216|380:215,1,78.6500024002076,10|2,1:2|0:0,0:0:0:0:
457,175,62184,6,0,B|485:125|485:125|451:62,1,117.975003600311,2|0,1:2|0:0,0:0:0:0:
425,41,62688,2,0,B|388:20|388:20|346:47,1,78.6500024002076,10|0,1:2|0:0,0:0:0:0:
287,89,63192,2,0,L|203:84,1,78.6500024002076,2|0,1:2|0:0,0:0:0:0:
165,81,63570,1,2,0:0:0:0:
165,81,63696,2,0,P|142:121|156:168,1,78.6500024002076,10|2,1:2|0:0,0:0:0:0:
174,233,64201,1,0,1:2:0:0:
236,292,64453,2,0,L|323:309,2,78.6500024002076,2|10|2,0:0|1:2|0:0,0:0:0:0:
176,354,65209,6,0,L|116:358,1,39.3250012001038,2|0,1:2|0:0,0:0:0:0:
93,361,65461,1,2,0:0:0:0:
16,321,65713,2,0,L|12:272,1,39.3250012001038,10|0,1:2|0:0,0:0:0:0:
10,238,65965,1,2,0:0:0:0:
42,157,66217,6,0,B|89:121|89:121|153:154,1,117.975003600311,2|0,1:2|0:0,0:0:0:0:
160,187,66722,2,0,B|199:204|199:204|232:178,1,78.6500024002076,10|0,1:2|0:0,0:0:0:0:
270,106,67226,2,0,P|315:91|357:113,1,78.6500024002076,2|0,1:2|0:0,0:0:0:0:
357,141,67604,1,2,0:0:0:0:
357,141,67730,2,0,L|365:230,1,78.6500024002076,10|2,1:2|0:0,0:0:0:0:
436,266,68234,1,0,1:2:0:0:
504,212,68486,6,0,L|501:168,1,39.3250012001038,2|0,0:0|0:0,0:0:0:0:
498,129,68738,2,0,L|492:33,1,78.6500024002076,10|2,1:2|0:0,0:0:0:0:
409,25,69243,2,0,P|351:27|336:63,1,78.6500024002076,2|0,1:2|0:0,0:0:0:0:
313,72,69621,1,2,0:0:0:0:
313,72,69747,2,0,P|281:85|231:57,1,78.6500024002076,10|2,1:2|0:0,0:0:0:0:
157,47,70251,6,0,B|117:91|117:91|156:149,1,117.975003600311,2|0,1:2|0:0,0:0:0:0:
173,175,70755,2,0,B|191:217|191:217|171:266,1,78.6500024002076,10|0,1:2|0:0,0:0:0:0:
127,317,71259,2,0,P|78:330|51:312,1,78.6500024002076,2|0,1:2|0:0,0:0:0:0:
23,289,71637,1,2,0:0:0:0:
23,289,71764,2,0,L|19:202,1,78.6500024002076,10|2,1:2|0:0,0:0:0:0:
78,147,72268,5,0,1:2:0:0:
52,64,72520,2,0,P|9:73|-11:101,2,78.6500024002076,2|10|2,0:0|1:2|0:0,0:0:0:0:
126,20,73276,2,0,P|195:39|268:40,1,117.975003600311,2|2,1:2|0:0,0:0:0:0:
283,32,73780,2,0,P|314:82|303:128,1,78.6500024002076,8|2,0:0|0:0,0:0:0:0:
266,172,74285,6,0,B|262:218|262:218|275:240|275:240|272:312,1,117.975003600311,6|2,1:1|0:0,0:0:0:0:
276,329,74789,1,10,1:2:0:0:
349,375,75041,2,0,L|409:368,1,39.3250012001038,2|2,0:0|0:0,0:0:0:0:
431,370,75293,2,0,P|457:324|441:290,1,78.6500024002076,2|2,1:2|0:0,0:0:0:0:
416,222,75797,1,10,1:2:0:0:
465,151,76049,1,2,0:0:0:0:
433,70,76301,6,0,B|386:69|386:69|363:88|363:88|305:92,1,117.975003600311,2|2,1:1|0:0,0:0:0:0:
279,83,76806,1,10,1:2:0:0:
229,153,77058,2,0,L|225:216,1,39.3250012001038,2|0,0:0|0:0,0:0:0:0:
225,235,77310,2,0,P|191:261|124:252,1,78.6500024002076,2|2,1:2|0:0,0:0:0:0:
70,253,77814,1,10,1:2:0:0:
24,179,78066,1,2,0:0:0:0:
51,96,78318,6,0,B|91:88|91:88|117:65|117:65|176:54,1,117.975003600311,2|2,1:1|0:0,0:0:0:0:
198,75,78822,1,10,1:2:0:0:
280,102,79074,2,0,L|339:110,1,39.3250012001038,2|2,0:0|0:0,0:0:0:0:
359,123,79327,2,0,P|412:123|429:105,1,78.6500024002076,2|2,1:2|0:0,0:0:0:0:
459,77,79705,1,0,0:0:0:0:
459,77,79831,2,0,P|498:99|508:143,1,78.6500024002076,10|2,1:2|0:0,0:0:0:0:
503,215,80335,6,0,L|506:343,1,117.975003600311,2|0,1:2|0:0,0:0:0:0:
475,363,80839,2,0,P|429:374|401:349,1,78.6500024002076,10|2,1:2|0:0,0:0:0:0:
334,308,81343,2,0,P|288:297|260:322,1,78.6500024002076,2|0,1:2|0:0,0:0:0:0:
199,370,81848,1,10,0:0:0:0:
116,345,82100,1,0,0:0:0:0:
75,268,82352,6,0,L|81:125,1,117.975003600311,6|2,1:2|0:0,0:0:0:0:
86,107,82856,1,2,0:0:0:0:
239,28,83360,2,0,P|283:29|323:72,1,78.6500024002076,2|2,0:0|0:0,0:0:0:0:
332,85,83738,2,0,P|329:140|327:216,1,117.975003600311,2|0,0:0|0:0,0:0:0:0:
373,276,84369,6,0,P|448:288|478:226,1,117.975003600311,2|2,0:0|0:0,0:0:0:0:
494,224,84873,1,2,0:0:0:0:
498,51,85377,2,0,P|457:47|411:38,1,78.6500024002076,2|2,0:0|0:0,0:0:0:0:
383,62,85755,2,0,P|342:66|235:89,1,117.975003600311,2|0,0:0|0:0,0:0:0:0:
191,36,86385,6,0,P|138:80|152:144,1,117.975003600311,2|2,0:0|0:0,0:0:0:0:
159,162,86890,1,2,0:0:0:0:
297,266,87394,2,0,P|322:306|309:351,1,78.6500024002076,2|2,0:0|0:0,0:0:0:0:
283,360,87772,2,0,L|144:377,1,117.975003600311,2|2,0:0|0:0,0:0:0:0:
81,355,88402,5,0,0:0:0:0:
36,280,88654,2,0,L|40:227,1,39.3250012001038,2|2,0:0|0:0,0:0:0:0:
44,197,88906,2,0,P|87:167|123:178,1,78.6500024002076,2|2,0:0|0:0,0:0:0:0:
192,199,89411,6,0,L|322:226,2,117.975003600311,10|10|14,1:2|1:2|1:2,0:0:0:0:
