osu file format v14

[General]
AudioFilename: audio.mp3
AudioLeadIn: 0
PreviewTime: 58150
Countdown: 0
SampleSet: Soft
StackLeniency: 0.7
Mode: 0
LetterboxInBreaks: 0
WidescreenStoryboard: 1

[Editor]
Bookmarks: 74420
DistanceSpacing: 1.9
BeatDivisor: 8
GridSize: 32
TimelineZoom: 1.6

[Metadata]
Title:Naked Blue (TV Size)
TitleUnicode:Naked Blue (TV Size)
Artist:9-tie
ArtistUnicode:9-tie
Creator:HeTo
Version:Hard
Source:SELECTION PROJECT
Tags:japanese anime jpop j-pop pop idol セレクション・プロジェクト セレプロ serepuro selepro opening 美山鈴音 miyama suzune 矢野妃菜喜 yano hinaki 花野井玲那 hananoi rena 水野朔 mizuno saku 濱栗広海 hamaguri hiromi 南雲希美 nagumo nozomi 今鵜凪咲 imau nagisa 荒井瑠里 arai ruri 八木野土香 yagi nodoka 羊宮妃那 youmiya yomiya hina 淀川逢生 yodogawa ao 岩橋由佳 iwahashi yuka 小泉詩 koizumi uta 白河みずな shirakawa mizuna 山鹿栞 yamaga shiori 花井美春 hanai miharu 当麻まこ toma mako 下地紫野 Shimoji Shino キューティー cutie kyuutie saggin
BeatmapID:3328327
BeatmapSetID:1630206

[Difficulty]
HPDrainRate:5
CircleSize:3.8
OverallDifficulty:6.3
ApproachRate:7.5
SliderMultiplier:2
SliderTickRate:1

[Events]
//Background and Video events
Video,1550,"Naked Blue.mp4"
0,0,"bg.jpg",0,0
//Break Periods
//Storyboard Layer 0 (Background)
//Storyboard Layer 1 (Fail)
//Storyboard Layer 2 (Pass)
//Storyboard Layer 3 (Foreground)
//Storyboard Layer 4 (Overlay)
//Storyboard Sound Samples

[TimingPoints]
1680,504.201680672269,4,2,1,40,1,0
1680,-120.481927710844,4,2,1,40,0,0
7730,-102.040816326531,4,2,5,65,0,0
9747,-120.481927710844,4,2,1,55,0,0
25881,-107.52688172043,4,2,1,55,0,0
42016,-120.481927710844,4,2,1,55,0,0
50083,-107.52688172043,4,2,1,65,0,0
50272,-107.52688172043,4,2,1,5,0,0
50335,-107.52688172043,4,2,1,65,0,0
50524,-107.52688172043,4,2,1,5,0,0
50587,-107.52688172043,4,2,1,65,0,0
52289,-107.52688172043,4,2,1,5,0,0
52352,-107.52688172043,4,2,1,65,0,0
52541,-107.52688172043,4,2,1,5,0,0
52604,-107.52688172043,4,2,1,65,0,0
54306,-107.52688172043,4,2,1,5,0,0
54369,-107.52688172043,4,2,1,65,0,0
57646,-107.52688172043,4,2,5,65,0,0
58087,-107.52688172043,4,2,5,5,0,0
58150,-92.5925925925926,4,2,1,70,0,0
58654,-92.5925925925926,4,2,1,70,0,0
59158,-92.5925925925926,4,2,1,70,0,0
62184,-92.5925925925926,4,2,1,70,0,0
62688,-92.5925925925926,4,2,1,70,0,0
63192,-92.5925925925926,4,2,1,70,0,0
65209,-92.5925925925926,4,2,1,70,0,0
65398,-92.5925925925926,4,2,1,5,0,0
65461,-92.5925925925926,4,2,1,70,0,0
65902,-92.5925925925926,4,2,1,5,0,0
65965,-92.5925925925926,4,2,1,70,0,0
66217,-92.5925925925926,4,2,1,70,0,0
66722,-92.5925925925926,4,2,1,70,0,0
67226,-92.5925925925926,4,2,1,70,0,0
70251,-92.5925925925926,4,2,1,70,0,0
70755,-92.5925925925926,4,2,1,70,0,0
71259,-92.5925925925926,4,2,1,70,0,0
73213,-92.5925925925926,4,2,1,5,0,0
73276,-92.5925925925926,4,2,1,70,0,0
74285,-92.5925925925926,4,2,1,70,0,0
75041,-92.5925925925926,4,2,1,70,0,0
75986,-92.5925925925926,4,2,1,5,0,0
76049,-92.5925925925926,4,2,1,70,0,0
76301,-92.5925925925926,4,2,1,70,0,0
77058,-92.5925925925926,4,2,1,70,0,0
78003,-92.5925925925926,4,2,1,5,0,0
78066,-92.5925925925926,4,2,1,70,0,0
78318,-92.5925925925926,4,2,1,70,0,0
79074,-92.5925925925926,4,2,1,70,0,0
80020,-92.5925925925926,4,2,1,5,0,0
80083,-92.5925925925926,4,2,1,70,0,0
82352,-113.636363636364,4,2,1,60,0,0
88402,-113.636363636364,4,2,1,50,0,0
89411,-92.5925925925926,4,2,1,70,0,0

[Colours]
Combo1 : 179,102,255
Combo2 : 196,185,200
Combo3 : 251,168,113
Combo4 : 183,183,255

[HitObjects]
428,125,1680,6,0,P|374:127|322:179,1,124.500001804733,6|0,0:0|0:0,0:0:0:0:
308,250,2184,1,8,0:0:0:0:
308,250,2436,2,0,L|310:303,1,41.5000006015778,2|2,0:0|0:0,0:0:0:0:
276,363,2688,2,0,P|246:374|194:342,1,83.0000012031555,2|2,0:0|0:0,0:0:0:0:
58,286,3192,2,0,P|61:220|60:157,1,124.500001804733,10|0,0:0|0:0,0:0:0:0:
126,71,3696,6,0,P|164:62|229:130,1,124.500001804733,2|0,0:0|0:0,0:0:0:0:
244,189,4201,1,8,0:0:0:0:
244,189,4453,2,0,L|241:248,1,41.5000006015778,2|2,0:0|0:0,0:0:0:0:
287,294,4705,2,0,P|329:312|372:280,1,83.0000012031555,2|2,0:0|0:0,0:0:0:0:
486,202,5209,2,0,P|486:142|486:63,1,124.500001804733,10|0,0:0|0:0,0:0:0:0:
399,7,5713,6,0,B|327:31|362:54|284:76,1,124.500001804733,2|0,0:0|0:0,0:0:0:0:
231,118,6217,1,8,0:0:0:0:
231,118,6469,2,0,L|176:118,1,41.5000006015778,2|2,0:0|0:0,0:0:0:0:
117,85,6722,2,0,P|96:120|104:160,1,83.0000012031555,2|2,0:0|0:0,0:0:0:0:
161,307,7226,2,0,P|222:321|255:262,1,124.500001804733,10|0,0:0|0:0,0:0:0:0:
321,191,7730,6,0,B|365:197|365:197|377:209|377:209|444:219,1,97.9999991027832,6|0,1:2|0:0,0:0:0:0:
479,149,8108,2,0,B|495:101|495:101|471:50,1,97.9999991027832,6|0,1:2|0:0,0:0:0:0:
393,12,8486,2,0,B|349:18|349:18|337:30|337:30|270:40,1,97.9999991027832,6|0,1:2|1:2,0:0:0:0:
220,71,8864,5,0,1:2:0:0:
241,156,8990,2,0,P|238:212|238:222,1,48.9999995513916,10|0,0:0|1:2,0:0:0:0:
205,287,9243,1,10,0:0:0:0:
205,287,9369,2,0,B|157:312|157:312|101:274,1,97.9999991027832,8|0,0:3|0:0,0:0:0:0:
55,243,9747,6,0,P|34:194|48:168,1,83.0000012031555,6|2,1:2|0:0,0:0:0:0:
94,109,10125,1,2,0:0:0:0:
94,109,10251,2,0,P|133:124|191:127,1,83.0000012031555,10|0,0:0|0:0,0:0:0:0:
305,215,10755,2,0,P|313:167|310:158,1,41.5000006015778,2|2,0:0|0:0,0:0:0:0:
297,98,11007,1,2,0:0:0:0:
297,98,11133,2,0,P|319:57|407:67,1,124.500001804733,2|2,0:0|0:0,0:0:0:0:
472,187,11764,6,0,P|467:243|466:281,1,83.0000012031555,2|2,0:0|0:0,0:0:0:0:
426,338,12142,1,0,0:0:0:0:
426,338,12268,2,0,P|377:341|341:354,1,83.0000012031555,10|0,0:0|0:0,0:0:0:0:
235,238,12772,2,0,P|220:172|251:118,2,124.500001804733,2|2|2,0:0|0:0|0:0,0:0:0:0:
133,358,13780,6,0,P|86:360|62:315,1,83.0000012031555,2|0,0:0|0:0,0:0:0:0:
40,259,14158,1,2,0:0:0:0:
40,259,14285,2,0,P|40:199|38:166,1,83.0000012031555,10|0,0:0|0:0,0:0:0:0:
115,38,14789,1,2,0:0:0:0:
115,38,14915,2,0,P|167:52|206:53,1,83.0000012031555,2|0,0:0|0:0,0:0:0:0:
254,106,15293,2,0,P|250:155|252:173,1,41.5000006015778,10|0,0:0|0:0,0:0:0:0:
207,213,15545,2,0,P|211:262|209:280,1,41.5000006015778,2|2,0:3|0:3,0:0:0:0:
273,327,15797,6,0,P|317:344|357:321,1,83.0000012031555,2|0,0:0|0:0,0:0:0:0:
410,379,16175,2,0,P|446:349|446:303,1,83.0000012031555,2|0,0:0|0:0,0:0:0:0:
506,259,16553,2,0,P|498:212|458:189,1,83.0000012031555,2|0,0:0|0:0,0:0:0:0:
400,157,16932,2,0,P|342:176|298:173,1,83.0000012031555,2|0,0:0|0:0,0:0:0:0:
254,218,17310,2,0,P|210:210|190:210,1,41.5000006015778,10|0,0:0|0:0,0:0:0:0:
153,158,17562,2,0,P|109:166|89:166,1,41.5000006015778,2|0,0:0|0:0,0:0:0:0:
27,196,17814,6,0,P|9:150|19:110,1,83.0000012031555,2|2,0:0|0:0,0:0:0:0:
71,63,18192,1,2,0:0:0:0:
71,63,18318,2,0,P|133:56|168:49,1,83.0000012031555,10|0,0:0|0:0,0:0:0:0:
265,162,18822,1,2,0:0:0:0:
265,162,18948,2,0,P|327:169|362:176,1,83.0000012031555,2|0,0:0|0:0,0:0:0:0:
426,169,19327,2,0,P|448:118|431:82,1,83.0000012031555,10|10,0:0|0:0,0:0:0:0:
301,20,19831,5,2,0:0:0:0:
171,109,20083,2,0,L|173:167,1,41.5000006015778,2|2,0:0|0:0,0:0:0:0:
225,208,20335,1,10,0:0:0:0:
225,208,20461,2,0,P|220:254|218:291,1,83.0000012031555,2|0,0:0|0:0,0:0:0:0:
166,350,20839,2,0,P|116:354|57:294,2,124.500001804733,2|2|2,0:0|0:0|0:0,0:0:0:0:
321,320,21848,6,0,P|365:322|415:337,1,83.0000012031555,2|2,0:0|0:0,0:0:0:0:
469,376,22226,1,0,0:0:0:0:
469,376,22352,2,0,P|486:322|476:285,1,83.0000012031555,10|2,0:0|0:0,0:0:0:0:
399,162,22856,2,0,P|380:102|417:28,2,124.500001804733,2|2|2,0:0|0:0|0:0,0:0:0:0:
288,274,23864,6,0,P|221:258|215:230,1,83.0000012031555,2|0,0:0|0:0,0:0:0:0:
144,280,24243,2,0,P|124:213|145:194,1,83.0000012031555,2|0,0:0|0:0,0:0:0:0:
74,151,24621,2,0,P|121:100|148:109,1,83.0000012031555,2|0,0:0|0:0,0:0:0:0:
203,80,24999,2,0,P|252:92|302:92,1,83.0000012031555,2|0,0:0|0:0,0:0:0:0:
361,76,25377,1,10,0:0:0:0:
488,169,25629,1,2,0:0:0:0:
401,323,25881,6,0,B|318:323|351:366|265:373,1,139.500004363632,6|0,1:2|0:0,0:0:0:0:
193,337,26385,2,0,P|163:281|184:244,1,93.0000029090882,10|0,1:2|0:0,0:0:0:0:
322,164,26890,2,0,P|352:108|331:71,1,93.0000029090882,2|0,1:2|0:0,0:0:0:0:
278,24,27268,1,0,0:0:0:0:
278,24,27394,2,0,P|224:37|173:38,1,93.0000029090882,10|0,1:2|0:0,0:0:0:0:
37,133,27898,6,0,P|43:199|46:234,1,93.0000029090882,2|0,1:2|0:0,0:0:0:0:
107,288,28276,2,0,B|150:306|150:306|196:262,1,93.0000029090882,2|0,0:0|0:0,0:0:0:0:
233,201,28654,2,0,B|276:183|276:183|322:227,1,93.0000029090882,2|0,0:0|1:2,0:0:0:0:
369,279,29032,1,2,0:0:0:0:
369,279,29158,2,0,P|422:268|432:268,1,46.5000014545441,2|0,0:0|0:0,0:0:0:0:
495,233,29411,2,0,P|511:180|488:136,1,93.0000029090882,10|2,1:2|0:0,0:0:0:0:
346,55,29915,6,0,P|351:31|352:-9,2,62.0000019393921,2|2|2,1:2|0:0|0:0,0:0:0:0:
249,122,30419,2,0,P|254:146|255:186,2,62.0000019393921,10|2|2,1:2|0:0|0:0,0:0:0:0:
181,25,30923,1,0,1:2:0:0:
181,25,31049,2,0,P|128:13|86:44,1,93.0000029090882,2|0,0:0|0:0,0:0:0:0:
38,97,31427,2,0,P|44:144|50:200,1,93.0000029090882,8|0,1:2|0:0,0:0:0:0:
110,355,31932,6,0,P|39:369|25:375,2,62.0000019393921,2|2|2,1:2|0:0|0:0,0:0:0:0:
202,282,32436,2,0,P|232:289|262:292,2,62.0000019393921,10|2|2,1:2|0:0|0:0,0:0:0:0:
130,188,32940,1,2,1:2:0:0:
130,188,33192,6,0,P|133:127|132:118,1,46.5000014545441,2|0,0:0|0:0,0:0:0:0:
222,145,33444,2,0,P|219:206|220:215,1,46.5000014545441,10|0,1:2|0:0,0:0:0:0:
306,193,33696,2,0,P|309:132|308:123,1,46.5000014545441,2|0,0:0|0:0,0:0:0:0:
355,71,33948,6,0,P|415:42|454:68,1,93.0000029090882,2|2,1:2|0:0,0:0:0:0:
506,104,34327,1,2,0:0:0:0:
506,104,34453,2,0,P|501:174|502:204,1,93.0000029090882,10|2,1:2|0:0,0:0:0:0:
461,368,34957,2,0,P|405:372|360:385,1,93.0000029090882,2|2,1:2|0:0,0:0:0:0:
284,369,35335,1,0,0:0:0:0:
284,369,35461,2,0,P|277:329|281:307,1,46.5000014545441,10|0,1:2|0:0,0:0:0:0:
324,248,35713,2,0,P|331:208|327:186,1,46.5000014545441,2|2,0:0|0:3,0:0:0:0:
263,145,35965,6,0,P|216:133|179:168,1,93.0000029090882,2|2,1:2|0:0,0:0:0:0:
120,220,36343,2,0,P|73:232|36:197,1,93.0000029090882,2|2,0:0|0:0,0:0:0:0:
9,123,36722,2,0,P|16:59|15:29,1,93.0000029090882,2|0,0:0|1:2,0:0:0:0:
101,10,37100,1,2,0:0:0:0:
101,10,37226,2,0,P|169:16|177:15,1,46.5000014545441,2|0,0:0|0:0,0:0:0:0:
224,58,37478,2,0,P|217:122|218:152,1,93.0000029090882,10|2,1:2|0:0,0:0:0:0:
134,306,37982,6,0,B|41:317|87:344|-10:361,2,139.500004363632,6|2|2,1:2|0:0|0:0,0:0:0:0:
293,381,38990,2,0,P|312:320|295:279,1,93.0000029090882,0|2,1:2|0:0,0:0:0:0:
241,230,39369,1,0,0:0:0:0:
241,230,39495,2,0,L|247:146,1,46.5000014545441,10|0,1:2|0:0,0:0:0:0:
306,121,39747,2,0,L|300:37,1,46.5000014545441,2|2,0:0|0:3,0:0:0:0:
232,21,39999,6,0,P|179:34|111:40,1,93.0000029090882,6|0,1:2|0:0,0:0:0:0:
61,77,40377,2,0,P|32:122|53:176,1,93.0000029090882,2|0,0:0|0:0,0:0:0:0:
88,231,40755,2,0,P|143:236|159:241,1,46.5000014545441,2|0,0:0|0:0,0:0:0:0:
215,269,41007,6,0,P|228:353|231:364,2,62.0000019393921,8|4|4,0:3|0:3|0:3,0:0:0:0:
289,177,41511,2,0,P|302:93|305:82,2,62.0000019393921,4|4|8,0:3|0:3|0:3,0:0:0:0:
355,259,42016,6,0,P|410:265|457:167,1,166.000002406311,6|10,1:2|0:0,0:0:0:0:
184,27,43024,2,0,P|192:79|195:121,1,83.0000012031555,10|0,0:0|0:0,0:0:0:0:
171,184,43402,1,2,0:0:0:0:
171,184,43528,2,0,P|164:237|165:275,1,83.0000012031555,10|2,0:0|0:0,0:0:0:0:
288,363,44032,6,0,P|345:351|382:349,1,83.0000012031555,10|2,0:0|0:0,0:0:0:0:
345,192,44537,2,0,P|288:204|251:206,1,83.0000012031555,10|2,0:0|0:0,0:0:0:0:
137,300,45041,2,0,P|76:306|46:234,1,124.500001804733,10|2,0:0|0:0,0:0:0:0:
35,180,45545,2,0,P|42:123|39:86,1,83.0000012031555,10|2,0:0|0:0,0:0:0:0:
177,19,46049,6,0,P|229:21|272:52,1,83.0000012031555,10|2,0:0|0:0,0:0:0:0:
335,171,46553,2,0,P|331:224|331:262,1,83.0000012031555,8|2,0:0|0:0,0:0:0:0:
201,345,47058,2,0,P|135:354|54:364,2,124.500001804733,10|2|2,0:0|0:0|0:0,0:0:0:0:
330,253,48066,6,0,P|391:260|453:269,2,124.500001804733,10|2|2,0:0|0:0|0:0,0:0:0:0:
179,205,49074,2,0,P|148:160|174:90,1,124.500001804733,10|0,0:0|0:0,0:0:0:0:
225,43,49579,2,0,L|317:55,1,83.0000012031555,10|0,0:0|0:0,0:0:0:0:
471,119,50083,6,0,B|485:147|485:147|474:170,1,46.5000014545441,6|0,1:2|0:0,0:0:0:0:
436,238,50335,2,0,B|422:266|422:266|433:289,1,46.5000014545441,10|0,0:0|0:0,0:0:0:0:
471,357,50587,1,10,0:0:0:0:
300,309,50839,6,0,P|257:321|243:320,1,46.5000014545441,10|0,0:0|0:0,0:0:0:0:
174,286,51091,1,10,0:0:0:0:
174,286,51217,2,0,P|150:234|182:172,1,93.0000029090882,2|2,0:0|0:0,0:0:0:0:
214,133,51595,2,0,P|228:81|214:39,1,93.0000029090882,10|10,0:0|0:0,0:0:0:0:
38,14,52100,6,0,B|24:42|24:42|35:65,1,46.5000014545441,6|0,1:2|0:0,0:0:0:0:
73,133,52352,2,0,B|87:161|87:161|76:184,1,46.5000014545441,10|0,0:0|0:0,0:0:0:0:
38,252,52604,1,10,0:0:0:0:
175,362,52856,6,0,L|238:352,1,46.5000014545441,10|0,0:0|0:0,0:0:0:0:
305,328,53108,1,10,0:0:0:0:
305,328,53234,2,0,P|322:272|295:231,1,93.0000029090882,2|2,0:0|0:0,0:0:0:0:
238,189,53612,2,0,P|221:133|248:92,1,93.0000029090882,10|10,0:0|0:0,0:0:0:0:
401,47,54116,6,0,L|405:124,1,46.5000014545441,6|0,1:2|0:0,0:0:0:0:
454,166,54369,2,0,L|458:243,1,46.5000014545441,2|0,1:2|0:0,0:0:0:0:
405,284,54621,2,0,B|364:296|364:296|358:305|358:305|306:319,1,93.0000029090882,2|2,1:2|1:2,0:0:0:0:
154,295,55125,6,0,P|137:242|139:236,1,46.5000014545441,2|0,1:2|1:2,0:0:0:0:
183,179,55377,2,0,L|186:115,1,46.5000014545441,2|0,1:2|1:2,0:0:0:0:
112,81,55629,1,2,1:2:0:0:
112,81,55755,1,0,1:2:0:0:
43,136,55881,2,0,L|40:200,1,46.5000014545441,2|0,1:2|1:2,0:0:0:0:
135,254,56133,6,0,B|251:281|191:331|296:355,1,186.000005818176,6|10,1:2|1:2,0:0:0:0:
362,306,56764,1,8,1:2:0:0:
362,306,56890,1,0,1:2:0:0:
277,151,57142,2,0,L|279:88,1,46.5000014545441,12|0,0:3|1:2,0:0:0:0:
334,36,57394,1,4,1:2:0:0:
334,36,57646,6,0,P|410:44|439:109,1,139.500004363632,14|0,1:2|0:0,0:0:0:0:
407,205,58150,6,0,B|342:214|342:214|320:236|320:236|244:248,1,162.000003955078,6|0,1:2|0:0,0:0:0:0:
125,192,58654,2,0,B|189:182|189:182|211:160|211:160|287:148,1,162.000003955078,10|0,1:2|0:0,0:0:0:0:
369,122,59158,2,0,B|382:70|382:70|346:30,1,108.000002636719,2|0,1:2|0:0,0:0:0:0:
253,25,59537,1,2,0:0:0:0:
253,25,59663,2,0,P|218:33|168:42,1,54.0000013183594,10|0,1:2|0:0,0:0:0:0:
109,50,59915,2,0,P|82:55|56:61,1,54.0000013183594,2|0,0:0|0:0,0:0:0:0:
3,136,60167,5,0,1:2:0:0:
3,136,60419,2,0,P|11:194|13:227,1,54.0000013183594,2|0,0:0|0:0,0:0:0:0:
62,265,60671,2,0,B|111:284|111:284|171:238,1,108.000002636719,10|2,1:2|0:0,0:0:0:0:
227,193,61049,1,0,0:0:0:0:
227,193,61175,2,0,P|233:132|230:79,1,108.000002636719,2|0,1:2|0:0,0:0:0:0:
297,22,61553,2,0,P|355:11|402:72,1,108.000002636719,2|0,0:0|0:0,0:0:0:0:
451,109,61932,2,0,L|450:176,1,54.0000013183594,2|0,0:0|0:0,0:0:0:0:
416,269,62184,6,0,B|351:278|351:278|329:300|329:300|253:312,1,162.000003955078,2|0,1:2|0:0,0:0:0:0:
134,256,62688,2,0,B|198:246|198:246|220:224|220:224|296:212,1,162.000003955078,10|0,1:2|0:0,0:0:0:0:
349,148,63192,2,0,B|366:95|366:95|328:53,1,108.000002636719,2|0,1:2|0:0,0:0:0:0:
241,76,63570,1,2,0:0:0:0:
241,76,63696,2,0,L|239:144,1,54.0000013183594,10|0,1:2|0:0,0:0:0:0:
285,214,63948,2,0,L|283:282,1,54.0000013183594,2|0,0:0|0:0,0:0:0:0:
228,342,64201,5,0,1:2:0:0:
228,342,64453,2,0,L|164:347,1,54.0000013183594,2|0,0:0|0:0,0:0:0:0:
84,326,64705,2,0,P|61:268|78:226,1,108.000002636719,10|2,1:2|0:0,0:0:0:0:
129,153,65083,1,0,0:0:0:0:
81,76,65209,6,0,L|18:81,1,54.0000013183594,2|0,1:2|0:0,0:0:0:0:
129,153,65461,2,0,L|192:148,1,54.0000013183594,2|0,0:0|0:0,0:0:0:0:
219,64,65713,6,0,L|156:69,1,54.0000013183594,10|0,1:2|0:0,0:0:0:0:
267,141,65965,2,0,L|330:136,1,54.0000013183594,2|0,0:0|0:0,0:0:0:0:
423,71,66217,6,0,P|426:158|432:261,1,162.000003955078,2|0,1:2|0:0,0:0:0:0:
327,298,66722,2,0,P|324:211|318:108,1,162.000003955078,10|0,1:2|0:0,0:0:0:0:
270,58,67226,2,0,B|221:35|221:35|160:77,1,108.000002636719,2|0,1:2|0:0,0:0:0:0:
104,121,67604,1,2,0:0:0:0:
104,121,67730,2,0,L|108:191,1,54.0000013183594,10|0,1:2|0:0,0:0:0:0:
112,266,67982,2,0,L|116:336,1,54.0000013183594,2|0,0:0|0:0,0:0:0:0:
190,372,68234,5,0,1:2:0:0:
190,372,68486,2,0,L|266:366,1,54.0000013183594,2|0,0:0|0:0,0:0:0:0:
328,331,68738,2,0,B|376:341|376:341|387:353|387:353|451:371,1,108.000002636719,10|2,1:2|0:0,0:0:0:0:
505,315,69116,1,0,0:0:0:0:
505,315,69243,2,0,P|522:243|504:212,1,108.000002636719,2|0,1:2|0:0,0:0:0:0:
435,160,69621,2,0,P|357:178|319:181,1,108.000002636719,2|0,0:0|0:0,0:0:0:0:
250,227,69999,2,0,P|186:219|179:220,1,54.0000013183594,2|0,0:0|0:0,0:0:0:0:
93,153,70251,6,0,P|90:240|84:343,1,162.000003955078,2|0,1:2|0:0,0:0:0:0:
189,380,70756,2,0,P|192:293|198:190,1,162.000003955078,10|0,1:2|0:0,0:0:0:0:
241,139,71259,2,0,B|286:114|286:114|338:141,1,108.000002636719,2|0,1:2|0:0,0:0:0:0:
397,210,71637,1,2,0:0:0:0:
397,210,71764,2,0,L|461:206,1,54.0000013183594,10|0,1:2|0:0,0:0:0:0:
508,135,72016,2,0,L|503:73,1,54.0000013183594,2|0,0:0|0:0,0:0:0:0:
443,11,72268,5,0,1:2:0:0:
443,11,72520,2,0,L|380:15,1,54.0000013183594,2|0,0:0|0:0,0:0:0:0:
313,67,72772,2,0,L|196:74,1,108.000002636719,10|2,1:2|0:0,0:0:0:0:
132,17,73150,1,0,0:0:0:0:
132,17,73276,2,0,P|105:75|155:170,2,162.000003955078,2|2|2,1:2|0:0|0:0,0:0:0:0:
245,161,74285,6,0,P|240:236|239:289,1,108.000002636719,6|0,1:1|0:0,0:0:0:0:
168,327,74663,1,2,0:0:0:0:
88,282,74789,2,0,P|90:247|89:201,1,54.0000013183594,10|0,1:2|0:0,0:0:0:0:
88,136,75041,1,2,0:0:0:0:
88,136,75167,1,2,0:0:0:0:
132,55,75293,6,0,P|162:30|249:58,1,108.000002636719,2|2,1:2|0:0,0:0:0:0:
284,107,75671,1,0,0:0:0:0:
284,107,75797,2,0,L|350:102,1,54.0000013183594,10|0,1:2|0:0,0:0:0:0:
409,45,76049,2,0,L|475:50,1,54.0000013183594,2|0,0:0|0:0,0:0:0:0:
511,126,76301,6,0,P|507:199|508:242,1,108.000002636719,2|0,1:1|0:0,0:0:0:0:
441,299,76680,1,2,0:0:0:0:
368,242,76806,2,0,P|371:185|370:110,1,108.000002636719,10|2,1:2|0:0,0:0:0:0:
328,52,77184,1,0,0:0:0:0:
328,52,77310,6,0,P|264:45|225:94,1,108.000002636719,2|2,1:2|0:0,0:0:0:0:
193,153,77688,1,0,0:0:0:0:
193,153,77814,2,0,L|199:219,1,54.0000013183594,10|0,1:2|0:0,0:0:0:0:
246,284,78066,2,0,L|240:350,1,54.0000013183594,2|0,0:0|0:0,0:0:0:0:
149,375,78318,6,0,P|86:361|36:364,1,108.000002636719,2|0,1:1|0:0,0:0:0:0:
1,280,78696,1,2,0:0:0:0:
56,207,78822,2,0,P|120:216|135:215,1,54.0000013183594,10|0,1:2|0:0,0:0:0:0:
197,206,79074,1,2,0:0:0:0:
197,206,79201,1,2,0:0:0:0:
280,168,79327,6,0,P|309:120|287:69,1,108.000002636719,2|2,1:2|0:0,0:0:0:0:
228,9,79705,1,0,0:0:0:0:
228,9,79831,2,0,L|148:24,1,54.0000013183594,10|0,1:2|0:0,0:0:0:0:
93,61,80083,2,0,L|14:48,1,54.0000013183594,2|0,0:0|0:0,0:0:0:0:
0,134,80335,6,0,P|3:198|8:256,1,108.000002636719,2|2,1:2|0:0,0:0:0:0:
47,323,80713,1,0,0:0:0:0:
47,323,80839,2,0,P|123:328|168:341,1,108.000002636719,10|2,1:2|0:0,0:0:0:0:
336,322,81343,2,0,P|360:258|334:223,1,108.000002636719,2|0,1:2|0:0,0:0:0:0:
269,170,81722,1,2,0:0:0:0:
269,170,81848,2,0,P|243:124|263:76,1,108.000002636719,10|0,0:0|0:0,0:0:0:0:
399,15,82352,6,0,P|462:17|484:100,1,132.00000402832,6|2,1:2|0:0,0:0:0:0:
496,151,82856,1,2,0:0:0:0:
496,151,83108,2,0,L|499:210,1,44.0000013427735,2|0,0:0|0:0,0:0:0:0:
473,270,83360,2,0,P|426:271|373:288,1,88.0000026855469,2|2,0:0|0:0,0:0:0:0:
307,289,83738,2,0,P|275:238|301:157,1,132.00000402832,2|0,0:0|0:0,0:0:0:0:
199,39,84369,6,0,P|126:37|97:93,1,132.00000402832,2|2,0:0|0:0,0:0:0:0:
76,157,84873,1,2,0:0:0:0:
76,157,85125,2,0,L|83:221,1,44.0000013427735,2|2,0:0|0:0,0:0:0:0:
116,271,85377,2,0,P|171:274|220:287,1,88.0000026855469,2|2,0:0|0:0,0:0:0:0:
274,247,85755,1,2,0:0:0:0:
274,247,85881,2,0,P|296:190|269:159,1,88.0000026855469
364,33,86385,6,0,P|437:44|468:106,1,132.00000402832,2|2,0:0|0:0,0:0:0:0:
497,162,86890,1,2,0:0:0:0:
497,162,87142,2,0,L|495:223,1,44.0000013427735,2|2,0:0|0:0,0:0:0:0:
457,275,87394,2,0,P|406:278|356:300,1,88.0000026855469,2|2,0:0|0:0,0:0:0:0:
304,248,87772,2,0,B|221:247|258:282|156:296,1,132.00000402832,2|2,0:0|0:0,0:0:0:0:
112,254,88276,1,0,0:0:0:0:
112,254,88402,1,0,0:0:0:0:
45,110,88654,6,0,L|48:61,1,44.0000013427735,2|2,0:0|0:0,0:0:0:0:
111,19,88906,2,0,P|174:26|185:69,1,88.0000026855469,2|2,0:0|0:0,0:0:0:0:
282,210,89411,6,0,P|276:284|278:335,1,108.000002636719,10|0,1:2|0:0,0:0:0:0:
168,314,89789,2,0,P|174:240|172:189,1,108.000002636719,10|0,1:2|0:0,0:0:0:0:
236,118,90167,1,14,1:2:0:0:
